#VERSION:0.83;
#TITLE:WAY BACK;
#SUBTITLE:;
#ARTIST:MANSA;
#TITLETRANSLIT:;
#SUBTITLETRANSLIT:;
#ARTISTTRANSLIT:;
#GENRE:;
#ORIGIN:;
#CREDIT:;
#BANNER:Way Back-bn.png;
#BACKGROUND:Way Back-bg.png;
#PREVIEWVID:;
#JACKET:;
#CDIMAGE:;
#DISCIMAGE:;
#LYRICSPATH:;
#CDTITLE:nivekCD.png;
#MUSIC:Way Back.ogg;
#OFFSET:0.010000;
#SAMPLESTART:0.020000;
#SAMPLELENGTH:10.000000;
#SELECTABLE:YES;
#BPMS:0.000=140.000,
96.000=280.000,
97.000=140.000,
104.000=280.000,
108.500=140.000,
112.000=280.000,
113.000=140.000,
120.000=280.000,
124.500=140.000,
224.000=280.000,
225.000=140.000,
232.000=280.000,
236.500=140.000,
240.000=280.000,
241.000=140.000,
248.000=280.000,
252.500=140.000;
#STOPS:96.000=0.214,
104.000=0.214,
105.000=0.214,
106.000=0.161,
106.750=0.161,
107.500=0.214,
112.000=0.214,
120.000=0.214,
121.000=0.214,
122.000=0.161,
122.750=0.161,
123.500=0.214,
224.000=0.214,
232.000=0.214,
233.000=0.214,
234.000=0.161,
234.750=0.161,
235.500=0.214,
240.000=0.214,
248.000=0.214,
249.000=0.214,
250.000=0.161,
250.750=0.161,
251.500=0.214;
#DELAYS:;
#WARPS:;
#TIMESIGNATURES:0.000=4=4;
#TICKCOUNTS:0.000=4;
#COMBOS:0.000=1;
#SPEEDS:0.000=1.000=0.000=0;
#SCROLLS:0.000=1.000;
#FAKES:;
#LABELS:0.000=Song Start;
#BGCHANGES:;
#KEYSOUNDS:;
#ATTACKS:
;

//---------------dance-single - fs----------------
#NOTEDATA:;
#CHARTNAME:;
#STEPSTYPE:dance-single;
#DESCRIPTION:fs;
#CHARTSTYLE:;
#DIFFICULTY:Challenge;
#METER:15;
#RADARVALUES:0.634148,0.962503,0.000000,0.988824,0.497969,624.000000,624.000000,0.000000,139.000000,136.000000,0.000000,0.000000,0.000000,0.000000,0.634148,0.962503,0.000000,0.988824,0.497969,624.000000,624.000000,0.000000,139.000000,136.000000,0.000000,0.000000,0.000000,0.000000;
#CREDIT:Nivek;
#DISPLAYBPM:140.000000;
#NOTES:
// measure 0
0000
0000
0000
0000
,  // measure 1
0000
0000
0000
0000
,  // measure 2
0000
0000
0000
0000
,  // measure 3
0000
0000
0000
0000
,  // measure 4
1000
0000
0000
0000
0010
0000
0000
0000
0100
0000
0000
0010
0000
0000
0100
0000
,  // measure 5
0000
0001
0010
0000
0001
0000
1000
0100
1000
0100
1000
0000
0010
0000
1000
0000
,  // measure 6
0002
0000
0013
0100
2000
0000
3010
0100
,  // measure 7
0002
0000
0013
0100
1000
0010
1000
0001
,  // measure 8
M2MM
0300
0020
MM0M
0030
0000
MMMM
0000
,  // measure 9
0000
0000
1000
0001
0200
0000
0301
0010
,  // measure 10
M2MM
0300
0020
MM0M
0030
0000
MMMM
0000
,  // measure 11
0000
0000
0001
0100
1000
0001
0010
1000
,  // measure 12
MMM2
0003
0020
MM0M
0030
0000
MMMM
0000
,  // measure 13
0000
0000
1000
0100
0010
0001
0100
0010
,  // measure 14
2MMM
3000
0002
MMM3
2000
3000
MMM2
0003
,  // measure 15
2000
3000
2000
3000
2000
0000
3100
2000
,  // measure 16
3010
0100
0002
0023
0230
2300
3002
0203
,  // measure 17
0320
0130
0002
2003
3200
0320
0230
2300
,  // measure 18
3020
0230
2300
3200
0302
0203
0320
2030
,  // measure 19
3200
0310
0200
0302
2003
3020
0032
2003
,  // measure 20
3200
0000
2300
0000
3010
0200
0302
0023
,  // measure 21
0230
0300
0200
0300
0200
0300
0010
0001
,  // measure 22
0200
0000
0320
0000
0130
1000
0100
0001
,  // measure 23
0020
0030
0020
0130
1000
0001
0100
0010
,  // measure 24
M1MM
0000
0000
0000
0100
0000
0000
0000
0100
0000
0000
0100
0000
0000
0100
0000
,  // measure 25
0000
01M0
0100
0000
0100
0000
1000
0000
0001
0000
0100
0000
0010
0000
1000
0000
,  // measure 26
MM1M
0000
0000
0000
MM1M
0000
0000
0000
MM1M
0000
0000
MM1M
0000
0000
MM1M
0000
,  // measure 27
0000
0010
0100
0001
1000
0100
0010
0001
,  // measure 28
1MMM
0000
0000
0000
1000
0000
0000
0000
1000
0000
0000
1000
0000
0000
1000
0000
,  // measure 29
0000
1M00
1000
0000
0010
0000
0100
0000
1000
0000
0100
0000
0010
0000
0100
0000
,  // measure 30
MMM1
0000
0000
0000
MMM1
0000
0000
0000
MMM1
0000
0000
MMM1
0000
0000
MMM1
0000
,  // measure 31
0000
0001
1000
0100
0001
0100
1000
0010
,  // measure 32
0200
0320
2030
3002
,  // measure 33
1003
0000
0001
2000
3200
0320
0032
0023
,  // measure 34
0230
2300
3020
0032
,  // measure 35
0013
0200
0320
2030
3200
0302
0203
2300
,  // measure 36
3001
0100
0010
1000
0001
0010
0100
1000
0001
0010
0001
0100
0010
1000
0100
1000
,  // measure 37
0010
1000
0001
0100
0010
1000
0100
1000
0010
0100
0010
1000
0001
0100
0010
0100
,  // measure 38
0001
1000
0010
0100
0001
1000
0100
0010
0001
0010
0100
1000
0001
0100
0010
1000
,  // measure 39
0001
0010
0100
0010
0001
0100
0010
1000
0100
0000
0100
0000
0100
0000
0100
0000
,  // measure 40
1000
0000
0001
0010
0001
0000
0100
0010
1000
0000
0100
1000
0000
0010
1000
0000
,  // measure 41
0010
0100
0010
0000
1000
0000
0002
0000
0203
0000
2300
0000
3002
0000
0023
0000
,  // measure 42
1030
0000
0010
1000
0001
0000
0010
0001
1000
0000
0100
0010
0000
0001
1000
0000
,  // measure 43
0100
1000
0010
0000
0100
0000
0100
0000
0001
0000
0001
0000
1000
0000
1000
0000
,  // measure 44
0100
0000
0010
0100
1000
0000
0010
1000
0100
0000
0010
0100
0000
0010
0001
0000
,  // measure 45
1000
0100
1000
0000
0001
0000
1000
0000
0010
0000
0010
0000
0100
0000
0100
0000
,  // measure 46
0010
0000
1000
0010
1000
0000
0001
0010
0001
0000
1000
0100
0000
0010
0001
0000
,  // measure 47
1000
0002
0203
0320
2030
3200
0320
0230
,  // measure 48
2300
0000
3001
0010
0002
0000
1003
0010
2000
0000
3001
0010
0002
0000
1003
0100
,  // measure 49
0010
0000
0001
0010
0100
0000
2000
0000
3002
0000
0203
0000
0320
0000
2030
0000
,  // measure 50
3002
0000
1003
0100
2000
0000
3001
0100
0002
0000
1003
0100
2000
0000
3001
0100
,  // measure 51
0010
1000
0001
0001
0010
0010
0100
0100
,  // measure 52
2000
0000
3100
0010
0002
0000
0013
0100
2000
0000
3100
0010
0002
0000
0013
0100
,  // measure 53
1000
0000
0010
0100
0010
0000
2000
0000
3002
0000
0203
0000
0320
0000
2030
0000
,  // measure 54
3002
0000
0010
0000
0010
0000
0013
0100
,  // measure 55
0020
0000
0000
0000
0000
0000
0000
0000
0000
0000
0000
0000
0100
0000
0000
0000
0000
0000
0000
0000
0000
0000
0000
0000
0230
0000
0000
0000
0000
0000
2300
0000
0000
0000
0000
0000
3002
0000
0000
0000
0000
0000
0203
0000
0000
0000
0000
0300
,  // measure 56
MM1M
0000
0000
0000
0010
0000
0000
0000
0010
0000
0000
0010
0000
0000
0010
0000
,  // measure 57
0000
0M10
0010
0000
0010
0000
0100
0000
1000
0000
0100
0000
0001
0000
0010
0000
,  // measure 58
MMM1
0000
0000
0000
MMM1
0000
0000
0000
MMM1
0000
0000
MMM1
0000
0000
MMM1
0000
,  // measure 59
0000
0001
1000
0010
1000
0100
0010
0001
,  // measure 60
1MMM
0000
0000
0000
1000
0000
0000
0000
1000
0000
0000
1000
0000
0000
1000
0000
,  // measure 61
0000
1M00
1000
0000
0001
0000
0100
0000
1000
0000
0100
0000
0001
0000
0010
0000
,  // measure 62
1M0M
0000
0000
0000
1M0M
0000
0000
0000
1MMM
0000
0000
1MMM
0000
0000
1MMM
0000
,  // measure 63
0000
1M0M
0010
0001
0010
0100
1000
0100
,  // measure 64
0020
0230
2300
3002
,  // measure 65
0103
0000
0010
2000
3200
0302
2003
3020
,  // measure 66
0032
0023
0032
0203
,  // measure 67
0310
2000
3002
0023
2030
3020
0032
2003
,  // measure 68
3100
0010
0001
0010
0100
1000
0100
0010
0100
1000
0001
0100
0001
1000
0010
1000
,  // measure 69
0001
0100
0010
1000
0010
0100
0010
1000
0001
0100
0010
0100
0001
0010
0100
0010
,  // measure 70
0001
1000
0100
0010
0001
0010
0100
1000
0001
0010
0100
1000
0100
0010
0001
1000
,  // measure 71
0001
0100
0010
1000
0001
0100
0010
1000
0100
0000
0100
0000
0100
0000
0100
0000
,  // measure 72
0010
0000
0001
0010
0100
0000
1000
0100
0010
0000
0100
1000
0000
0010
1000
0000
,  // measure 73
0001
0100
0010
0000
0100
0000
0001
0000
1000
0000
0100
0000
0010
0000
0001
0000
,  // measure 74
1000
0000
0010
0100
0001
0000
0010
0100
0010
0000
0001
1000
0000
0100
0010
0000
,  // measure 75
0001
1000
0001
0000
1000
0000
0001
0100
0001
0100
0001
0000
1000
0000
0010
0000
,  // measure 76
1000
0000
0100
0010
0100
0000
1000
0010
1000
0000
1000
0010
0000
0010
0100
0000
,  // measure 77
0001
0100
0010
0000
1000
0000
0100
1000
0100
1000
0100
0000
1000
0000
0001
0000
,  // measure 78
0100
0000
0010
0100
0001
0000
0010
0001
1000
0000
1000
0100
0000
0100
0010
0000
,  // measure 79
0001
1000
0001
0000
1000
0000
0010
1000
0010
1000
0010
0000
0100
0001
1000
0000
,  // measure 80
0001
1000
0002
0000
M000
0M00
M000
0000
00M0
0M00
00M0
0000
M000
00M0
M000
0000
,  // measure 81
0M00
M000
0M00
0000
00M0
M000
00M0
0000
0M00
00M0
0M00
0000
M000
00M0
M000
0000
,  // measure 82
0003
0000
0000
0000
;

//---------------dance-single - ----------------
#NOTEDATA:;
#CHARTNAME:;
#STEPSTYPE:dance-single;
#DESCRIPTION:;
#CHARTSTYLE:;
#DIFFICULTY:Hard;
#METER:12;
#RADARVALUES:0.452237,0.512197,0.000000,0.803864,0.117378,445.000000,445.000000,0.000000,113.000000,75.000000,0.000000,0.000000,0.000000,0.000000,0.452237,0.512197,0.000000,0.803864,0.117378,445.000000,445.000000,0.000000,113.000000,75.000000,0.000000,0.000000,0.000000,0.000000;
#CREDIT:Nivek;
#DISPLAYBPM:140.000000;
#NOTES:
// measure 0
0000
0000
0000
0000
,  // measure 1
0000
0000
0000
0000
,  // measure 2
0000
0000
0000
0000
,  // measure 3
0000
0000
0000
0000
,  // measure 4
0001
0000
0000
0000
1000
0000
0000
0000
0100
0000
0000
1000
0000
0000
0100
0000
,  // measure 5
0000
0010
0100
0000
0010
0001
1000
0010
,  // measure 6
2000
0000
3001
0010
0002
0000
1003
0010
,  // measure 7
2000
0000
3000
0001
0100
0010
1000
0001
,  // measure 8
M020
0000
0200
M00M
0330
0000
MMMM
0000
,  // measure 9
0000
0000
1000
0001
2000
0000
3001
0100
,  // measure 10
002M
0000
2000
0M0M
3030
0000
MMMM
0000
,  // measure 11
0000
0000
0001
0100
0001
1000
0001
0010
,  // measure 12
M002
0000
0020
MM00
0033
0000
MMMM
0000
,  // measure 13
0000
0000
1000
0100
1000
0010
0100
0010
,  // measure 14
200M
3000
2000
3M0M
2000
3000
2MMM
3000
,  // measure 15
2000
3000
2000
3000
2000
3000
0001
0200
,  // measure 16
0000
0000
0301
0010
0100
1000
0001
0100
,  // measure 17
0020
0000
0130
0001
0010
0100
0001
0100
,  // measure 18
1000
0100
0010
0010
0001
0001
1000
0010
,  // measure 19
0200
0000
0310
1000
0001
0100
0010
0100
,  // measure 20
0002
0000
2000
0000
0003
3100
1000
0001
,  // measure 21
0200
0300
0200
0300
0200
0300
0010
0100
,  // measure 22
0002
0000
2000
0000
0003
3010
1000
0001
,  // measure 23
2000
3000
2000
3001
0100
0001
0010
0100
,  // measure 24
20MM
0000
3000
0000
0010
0000
0000
0000
1000
0000
0000
0010
0000
0000
1000
0000
,  // measure 25
0000
0010
1000
0000
0010
0000
0100
0000
0001
0000
0001
0000
0010
0000
0010
0000
,  // measure 26
M10M
0000
0000
0000
M01M
0000
0000
0000
M10M
0000
0000
M01M
0000
0000
M10M
0000
,  // measure 27
0000
0010
0001
0001
0100
0000
0010
0010
,  // measure 28
M20M
0000
0300
0000
0001
0000
0000
0000
0100
0000
0000
0001
0000
0000
0100
0000
,  // measure 29
0000
0001
0100
0000
0001
0000
0010
0000
0100
0000
1000
0000
0001
0000
0100
0000
,  // measure 30
10MM
0000
0000
0000
01MM
0000
0000
0000
10MM
0000
0000
01MM
0000
0000
10MM
0000
,  // measure 31
0000
0100
0001
0100
0010
1000
0100
0010
,  // measure 32
0002
0023
0230
0320
,  // measure 33
0030
0000
0000
0100
1000
1000
0010
0010
,  // measure 34
0200
0320
2030
3002
,  // measure 35
0003
1000
0100
0010
0100
1000
0010
0100
,  // measure 36
2000
3200
0320
2030
,  // measure 37
3000
0000
0000
0001
1000
0100
1000
0001
,  // measure 38
0020
0000
0000
0000
0000
0000
0000
0230
,  // measure 39
0020
0000
0000
0000
0000
0000
0000
0000
0000
0000
0000
0300
0130
0000
0000
0000
1000
0000
0000
0000
0001
0000
0000
0000
1000
0000
0000
0000
0001
0000
0000
0000
,  // measure 40
0200
0300
0001
0000
2000
3000
0100
0000
0020
0030
0100
0020
0030
0100
0020
0030
,  // measure 41
0100
0000
0020
0030
0100
0000
1000
0000
0001
0000
0001
0000
0100
0000
0100
0000
,  // measure 42
0020
0030
1000
0000
0020
0030
0100
0000
0020
0030
1000
0020
0030
0100
0020
0030
,  // measure 43
1000
0001
0100
0100
0001
0000
0010
0001
,  // measure 44
2000
3000
0010
0000
2000
3000
0100
0000
2000
3000
0001
2000
3000
0001
2000
3000
,  // measure 45
0001
0000
2000
3000
0001
0000
0100
0000
0010
0000
0010
0000
0100
0000
0100
0000
,  // measure 46
0002
0003
1000
0000
0002
0003
0010
0000
0002
0003
0100
0002
0003
0010
0002
0003
,  // measure 47
0000
1000
0100
1000
0010
0100
0010
1000
,  // measure 48
0200
0320
0032
2003
,  // measure 49
3001
0000
1000
0001
0100
1000
0001
0010
,  // measure 50
2000
3002
0203
0320
,  // measure 51
1030
0001
0001
0010
0100
0010
0010
0100
,  // measure 52
2000
3002
0203
0320
,  // measure 53
1030
0000
0001
0010
0100
0100
0010
0010
,  // measure 54
0002
0000
0000
0000
0000
0000
2003
3002
,  // measure 55
2000
0000
0000
3000
0103
0001
1000
0010
,  // measure 56
M20M
0000
0300
0000
0010
0000
0000
0000
0100
0000
0000
0010
0000
0000
0100
0000
,  // measure 57
0000
0010
0100
0000
0010
0000
1000
0000
0001
0000
0001
0000
0010
0000
0010
0000
,  // measure 58
M10M
0000
0000
0000
10MM
0000
0000
0000
01MM
0000
0000
10MM
0000
0000
01MM
0000
,  // measure 59
0000
1000
0100
0010
0001
0000
1000
0001
,  // measure 60
2MM0
0000
3000
0000
0010
0000
0000
0000
1000
0000
0000
0010
0000
0000
1000
0000
,  // measure 61
0000
0010
1000
0000
0010
0000
0010
0000
0100
0000
0100
0000
0001
0000
0001
0000
,  // measure 62
MM10
0000
0000
0000
M10M
0000
0000
0000
M01M
0000
0000
M10M
0000
0000
M01M
0000
,  // measure 63
0000
0100
1000
0100
0010
0001
1000
0010
,  // measure 64
2000
3020
0230
0302
,  // measure 65
0003
0000
0000
1000
0100
0100
0010
0010
,  // measure 66
0200
2300
3002
0023
,  // measure 67
0030
0001
0100
1000
0100
0001
0010
0100
,  // measure 68
2000
3200
0320
0032
,  // measure 69
0003
0000
0000
1000
0010
0100
0001
1000
,  // measure 70
0002
0000
0000
0000
0000
0000
2003
3002
,  // measure 71
2000
0000
0003
3010
0100
0001
1000
0100
,  // measure 72
0020
0030
0001
0000
0020
0030
0100
0000
0020
0030
0100
0020
0030
0100
0020
0030
,  // measure 73
0001
0000
0020
0030
0001
0000
0100
0000
0010
0000
0010
0000
1000
0000
1000
0000
,  // measure 74
0200
0300
1000
0000
0200
0300
0010
0000
0200
0300
1000
0200
0300
0010
0200
0300
,  // measure 75
1000
0000
0001
0000
1000
0000
0000
0001
0000
0100
0001
0000
1000
0000
0100
0000
,  // measure 76
0010
0000
0000
0000
0100
0000
0000
0000
1000
0000
0000
0100
0000
0000
1000
0000
,  // measure 77
0000
0000
0010
0000
1000
0000
0000
0001
0000
1000
0001
0000
1000
0000
0100
0000
,  // measure 78
0010
0000
0000
0000
0100
0000
0000
0000
0010
0000
0000
0001
0000
0000
0100
0000
,  // measure 79
0000
0000
0010
0000
0100
0000
0000
0001
0000
0100
0001
0000
0010
0000
0100
0000
,  // measure 80
1000
0000
0000
0000
;
