#VERSION:0.83;
#TITLE:夜空ノムコウ;
#SUBTITLE:;
#ARTIST:EUROBEAT LOVERS;
#TITLETRANSLIT:YOZORA NO MUKO;
#SUBTITLETRANSLIT:;
#ARTISTTRANSLIT:;
#GENRE:;
#ORIGIN:;
#CREDIT:;
#BANNER:YOZORA NO MUKO.png;
#BACKGROUND:YOZORA NO MUKO-bg.png;
#PREVIEWVID:;
#JACKET:YOZORA NO MUKO-jacket.png;
#CDIMAGE:;
#DISCIMAGE:;
#LYRICSPATH:YOZORA NO MUKO.lrc;
#CDTITLE:;
#MUSIC:YOZORA NO MUKO.ogg;
#OFFSET:-0.441000;
#SAMPLESTART:39.647999;
#SAMPLELENGTH:15.000000;
#SELECTABLE:YES;
#DISPLAYBPM:156.000000;
#BPMS:0.000=78.000,
24.000=156.000,
182.500=52.200,
184.000=156.000;
#STOPS:24.000=1.160,
109.000=1.160,
110.000=1.160;
#DELAYS:;
#WARPS:;
#TIMESIGNATURES:0.000=4=4;
#TICKCOUNTS:0.000=4;
#COMBOS:0.000=1;
#SPEEDS:0.000=1.000=0.000=0;
#SCROLLS:0.000=1.000;
#FAKES:;
#LABELS:0.000=Song Start;
#BGCHANGES:;
#KEYSOUNDS:;
#ATTACKS:
;

//---------------dance-single - ----------------
#NOTEDATA:;
#CHARTNAME:;
#STEPSTYPE:dance-single;
#DESCRIPTION:;
#CHARTSTYLE:;
#DIFFICULTY:Beginner;
#METER:2;
#RADARVALUES:0.082210,0.190569,0.035414,0.000000,0.000000,65.000000,61.000000,4.000000,0.000000,0.000000,0.000000,0.000000,0.000000,0.000000,0.082210,0.190569,0.035414,0.000000,0.000000,65.000000,61.000000,4.000000,0.000000,0.000000,0.000000,0.000000,0.000000,0.000000;
#CREDIT:;
#DISPLAYBPM:156.000000;
#NOTES:
0000
0000
0000
0000
,
0000
0000
0000
0000
,
0000
0000
0000
0000
,
0000
0000
0000
0000
,
0000
0000
0000
0000
,
0000
0000
0000
0000
,
0000
0000
0000
0000
,
0000
0000
0000
0000
,
0000
0000
0000
0000
,
0000
0000
0000
0000
,
0000
0000
0000
0000
,
0000
1000
0000
0000
,
0000
0001
0000
0000
,
0000
0100
0000
0000
,
0000
0010
0000
0000
,
0000
1000
0000
0000
,
0000
1000
0000
0000
,
0000
0001
0000
0000
,
0000
0100
0000
0000
,
0000
0100
0000
0000
,
0000
0010
0000
0000
,
0000
0100
0000
0000
,
0000
0010
0000
1001
,
0000
0100
0000
0000
,
0000
0100
0000
0000
,
0000
0010
0000
0000
,
0000
0000
0000
0000
,
0000
1000
1000
0010
,
0000
0010
0000
0100
,
0100
0100
0000
0001
,
0000
0000
0000
1000
,
0000
0000
0000
0100
,
0000
0000
0000
0010
,
0000
0000
0000
1001
,
0000
0000
0000
1001
,
0000
0000
0000
0010
,
0000
0000
0000
0100
,
0000
0000
0000
1000
,
0000
0000
0000
0100
,
0000
0000
0000
1000
,
0000
0000
0000
1000
,
0000
0000
0000
1000
,
0000
0000
0000
0100
,
0000
0000
0000
1000
,
0000
0000
0000
0010
,
0000
0010
0000
0000
,
1000
0000
0000
0000
,
0100
0000
0000
0000
,
0010
0000
0010
0000
,
0001
0000
0000
0000
,
0001
0000
0000
0000
,
0010
0000
0000
0000
,
0100
0000
0000
0000
,
1000
0000
1000
0000
,
0001
0000
0000
0000
,
0100
0000
0000
0000
,
0010
0000
0010
0000
,
1000
0000
0000
0000
,
0001
0000
0000
0000
,
0100
0000
0000
0000
,
0010
0000
1000
0000
,
0001
0000
1001
0000
;

//---------------dance-single - ----------------
#NOTEDATA:;
#CHARTNAME:;
#STEPSTYPE:dance-single;
#DESCRIPTION:;
#CHARTSTYLE:;
#DIFFICULTY:Easy;
#METER:4;
#RADARVALUES:0.131536,0.191344,0.123948,0.044267,0.000000,104.000000,90.000000,14.000000,5.000000,0.000000,0.000000,0.000000,0.000000,0.000000,0.131536,0.191344,0.123948,0.044267,0.000000,104.000000,90.000000,14.000000,5.000000,0.000000,0.000000,0.000000,0.000000,0.000000;
#CREDIT:;
#DISPLAYBPM:156.000000;
#NOTES:
0000
0000
0000
0000
,
0000
0000
0000
0000
0000
0000
1000
0001
,
1001
0000
1000
0000
,
0100
0000
0010
0000
,
0001
0000
0001
0000
,
0010
0000
0100
1000
,
1001
0000
0000
0000
,
0000
0100
0000
0000
,
0000
0010
0000
0000
,
0000
0100
0000
0000
,
0000
1000
0000
0000
,
0000
1000
0000
0000
,
0000
0001
0000
0000
,
0000
1000
0000
0000
,
0000
0010
0000
1000
,
0001
1000
0000
0000
,
0000
0001
0000
0000
,
0000
0100
0000
0000
,
0000
0000
0001
0000
0000
0000
0000
0010
,
0000
0001
1000
0000
,
0000
0001
0000
0000
,
0000
0100
0000
0000
,
0000
0010
1000
0001
,
0000
1000
0000
1000
,
0000
0001
0000
0001
,
0000
0100
0000
0100
,
0000
0001
0000
0001
,
0000
2000
0000
0000
,
3000
0002
0000
0000
,
0003
1000
0000
2002
,
0000
3003
0000
0000
0000
0000
1001
0000
,
0000
0000
0000
0100
,
0000
0000
0000
0010
,
0000
0000
0000
1001
,
0000
0000
0000
1001
,
0000
0000
0000
0010
,
0000
0000
0000
0100
,
0000
0000
0000
1000
,
0001
0000
0000
0100
,
0001
0000
0000
1000
,
0100
0000
0000
1000
,
0001
0000
0000
1000
,
0010
0000
0000
0100
,
0010
0000
0000
1000
,
0001
0000
0000
0010
,
0000
0010
0000
0000
,
1001
0000
0000
0000
,
1000
0000
0000
0000
,
1000
0000
0000
0000
,
1000
0001
0000
0000
,
1001
0000
0000
0000
,
0001
0000
0000
0000
,
0001
0000
0000
0000
,
0010
0000
0010
0000
,
1001
0000
0000
0000
,
1001
0000
0000
0000
,
1001
0000
0000
0000
,
0100
0000
0100
0000
,
1001
0000
0000
0000
,
1001
0000
0000
0000
,
1001
0000
0000
0000
,
0010
0100
2000
3000
;

//---------------dance-single - ----------------
#NOTEDATA:;
#CHARTNAME:;
#STEPSTYPE:dance-single;
#DESCRIPTION:;
#CHARTSTYLE:;
#DIFFICULTY:Medium;
#METER:7;
#RADARVALUES:0.268131,0.356073,0.123948,0.486937,0.004427,212.000000,198.000000,14.000000,55.000000,0.000000,0.000000,0.000000,0.000000,0.000000,0.268131,0.356073,0.123948,0.486937,0.004427,212.000000,198.000000,14.000000,55.000000,0.000000,0.000000,0.000000,0.000000,0.000000;
#CREDIT:;
#DISPLAYBPM:156.000000;
#NOTES:
0000
0000
0000
0000
,
0000
0000
0000
0000
0000
0000
1000
0001
,
1000
0000
0100
0010
0100
0000
1000
0001
,
1000
0000
0010
0100
0010
0000
0100
0010
,
0100
0000
0001
1000
0001
0000
0010
0100
,
1000
0000
0010
0100
0002
0000
1003
0000
,
1001
0000
0000
0000
0001
0000
0000
0001
0000
0000
0001
0000
0000
0000
2002
0000
,
0000
3003
0002
0000
0003
0200
0000
0000
,
0300
0000
0020
0000
0030
2000
0000
0000
,
3000
0000
0200
0000
0300
0020
0000
0000
,
0031
1000
0100
0010
,
1001
0000
2000
0000
3000
0002
0000
0000
,
0003
0000
0200
0000
0300
0002
0000
0000
,
0003
1000
0100
0010
,
0001
0000
0200
0000
0300
0000
0010
1000
,
0000
0002
0003
0200
,
0300
0010
1000
0001
,
0000
0020
0030
0200
,
0300
0000
1001
0000
0200
0000
0300
1001
,
0000
0020
0030
2000
,
3000
0001
0010
0100
,
0000
2000
3000
0002
,
0003
0000
1000
0100
2000
0000
0000
0000
,
3000
0002
1000
1000
,
1003
0100
0010
0200
,
0300
2000
0001
0001
,
3001
0100
0010
0200
,
0300
1001
1001
0010
,
1000
0010
1000
0001
,
1000
0000
0001
0000
1000
0000
0001
1000
,
0000
1001
0000
0000
0000
0000
0100
0000
,
1001
1000
0010
1000
,
0001
0100
0010
1000
,
1000
0000
0001
0010
0001
0000
2000
0000
,
3000
0100
0100
1000
,
1001
0001
0100
0010
,
0100
0001
1000
0001
,
0001
0000
1000
0100
1000
0000
0002
0000
,
0003
1000
1000
0100
,
1001
1000
0010
1000
,
0001
0100
0010
1000
,
1000
0000
0001
0010
0001
0000
2000
0000
,
3000
0100
0100
1000
,
1001
0001
0100
0010
,
0100
0001
1000
0001
,
0001
0000
1000
0100
1000
0200
0000
0300
,
2000
0000
0000
3000
0000
0000
0000
0000
,
0002
0000
0000
0003
0000
0000
0000
0000
,
0200
0000
0000
0300
0000
0000
0000
0000
,
0110
2002
3003
0000
,
2000
0000
3000
2000
0000
3000
0000
0000
,
0002
0000
0003
0002
0000
0003
0000
0000
,
1000
0100
0020
0000
,
0031
0000
0001
0000
0100
0020
0000
0000
,
2030
0000
3000
0002
0000
0000
0003
0000
,
0020
0000
0030
0002
0000
0000
0003
0000
,
2000
0000
3000
0002
0000
0000
0003
0000
,
1000
0100
0010
0001
,
2000
0000
3000
0020
0000
0000
0030
0000
,
2000
0000
3000
0002
0000
0000
0003
0000
,
0010
0100
0010
0001
,
2000
0000
3000
0000
0010
0200
0000
0300
;

//---------------dance-single - ----------------
#NOTEDATA:;
#CHARTNAME:;
#STEPSTYPE:dance-single;
#DESCRIPTION:;
#CHARTSTYLE:;
#DIFFICULTY:Hard;
#METER:12;
#RADARVALUES:0.502114,0.657365,0.123948,0.230188,0.336429,397.000000,383.000000,14.000000,26.000000,0.000000,0.000000,0.000000,0.000000,0.000000,0.502114,0.657365,0.123948,0.230188,0.336429,397.000000,383.000000,14.000000,26.000000,0.000000,0.000000,0.000000,0.000000,0.000000;
#CREDIT:;
#DISPLAYBPM:156.000000;
#NOTES:
0000
0000
0000
0000
,
0000
0000
0000
0000
0000
0000
0000
0000
0000
0000
0000
0000
1000
0100
0010
0001
,
0100
0000
0000
0000
0100
1000
0100
0010
1000
0000
0000
0000
0010
0100
1000
0100
,
0010
0000
1000
0000
0001
0100
1000
0100
0001
0000
0000
0000
0010
0001
0100
0001
,
0010
0000
0000
0100
1000
0010
1000
0100
0010
0000
0000
0010
0001
0100
0010
1000
,
0002
0000
0003
0000
1000
0010
0100
0001
2000
0000
0000
0000
0000
0000
3000
0000
,
1001
0000
1000
0001
1000
0001
0000
1000
0001
0000
0100
0001
0000
0000
0002
0000
,
0000
0000
0003
0000
0100
0001
0000
1000
0000
0010
0200
0000
0000
0000
0000
0000
,
0300
0000
0000
0000
0001
1000
0000
0100
0000
0010
0002
0000
0000
0000
0000
0000
,
0003
0000
0000
0000
0100
0010
0000
0100
0000
0001
0010
0000
0000
0000
0100
0000
,
0100
1000
2000
0000
0100
0000
0010
0000
,
3010
0000
0000
0000
0010
1000
0000
0001
0000
0100
0020
0000
0000
0000
0000
0000
,
0030
0000
0000
0000
1000
0001
0000
0010
0000
0100
2000
0000
0000
0000
0000
0000
,
3000
0000
0010
0100
0010
1000
0100
0000
,
0000
0000
0000
0000
0010
0001
1000
0001
0010
0100
1000
0100
0010
0000
0001
0000
,
0000
0000
1000
0010
1000
0001
1000
0010
,
1000
0001
0010
0100
0010
1000
0010
0100
,
0010
1000
0010
0001
1000
0010
0100
1000
,
0100
0110
0000
0001
1000
0100
0000
0120
,
0000
0130
1000
0001
1000
0100
1000
0001
,
1000
0100
0010
0100
0001
0100
0010
0100
,
0001
0100
1000
0001
0100
0010
1000
0001
,
0010
0001
1000
0100
0020
0000
0001
0000
,
0031
2000
3000
0200
,
0300
0000
0010
0001
0100
1000
0100
0001
,
0010
0200
0300
2000
,
3000
0000
0001
0010
0100
1000
0010
0100
,
0001
0000
1001
1000
1001
0001
1002
0000
,
1000
1000
1000
1003
,
0010
0100
0010
1000
0001
0010
0110
1100
,
0000
1001
0000
0000
0000
0000
0100
0000
,
1001
0000
0010
0100
0010
1000
0001
0000
,
0010
0000
0100
0010
0001
0010
0100
0000
,
1000
0000
0001
0100
1000
0100
0010
0000
,
1000
0000
0001
0010
0100
0010
0001
0000
,
1001
0000
0100
0010
0100
1000
0100
0000
,
0001
0000
1000
0100
1000
0001
1000
0000
,
0100
0000
0010
0001
0010
0100
1000
0000
,
0001
0000
0100
0010
0100
0001
1000
0000
,
1001
0000
0010
0100
0010
1000
0001
0000
,
0010
0000
0100
0010
0001
0010
0100
0000
,
1000
0000
0001
0100
1000
0100
0010
0000
,
1000
0000
0001
0010
0100
0010
0001
0000
,
1001
0000
0100
0010
0100
1000
0100
0000
,
0001
0000
1000
0100
1000
0010
0100
0000
,
0001
0000
1000
0100
0010
0002
0000
0003
,
1001
0000
0000
1000
0000
1000
0200
0000
0000
0000
0300
0000
0010
0000
0000
0000
,
0010
0000
0000
0010
0000
0010
0002
0000
0000
0000
0003
0000
0000
0000
0000
0000
,
0001
0000
0000
0100
0000
0100
0010
0000
0000
0000
0100
0000
0100
0000
0001
0000
,
0010
0100
0010
0010
,
0001
0100
0000
0100
0000
0010
1000
0000
0000
0000
0000
0000
0000
0000
0000
0000
,
1000
0100
0000
0100
0000
0010
0001
0000
0000
0000
0000
0000
0000
0000
0000
0000
,
1000
0100
0010
0001
0001
0000
0000
0000
,
0001
0010
0001
0010
0100
1000
0100
1000
0001
0000
0010
0000
0000
0000
0000
0000
,
0100
1000
0000
0001
0000
0010
0200
0000
0000
0000
1000
0000
1300
0000
0000
0000
,
0001
1000
0000
0010
0000
0100
0002
0000
0000
0000
1000
0000
1003
0000
0000
0000
,
0010
0100
0000
0001
0000
1000
0200
0000
0000
0000
0010
0000
0310
0000
0000
0000
,
0002
0100
0100
0103
,
0010
1000
0000
0001
0000
0100
0020
0000
0000
0000
1000
0000
1030
0000
0000
0000
,
0001
1000
0000
0010
0000
0100
0002
0000
0000
0000
1000
0000
1003
0000
0000
0000
,
0010
0100
0001
0100
0020
0000
0030
0000
,
0100
0001
1000
0001
0100
0010
1000
0010
0100
0000
0002
0000
0000
0000
0003
0000
;

//---------------dance-double - ----------------
#NOTEDATA:;
#CHARTNAME:;
#STEPSTYPE:dance-double;
#DESCRIPTION:;
#CHARTSTYLE:;
#DIFFICULTY:Easy;
#METER:4;
#RADARVALUES:0.147978,0.328682,0.132801,0.053120,0.000000,117.000000,102.000000,15.000000,6.000000,0.000000,0.000000,0.000000,0.000000,0.000000,0.147978,0.328682,0.132801,0.053120,0.000000,117.000000,102.000000,15.000000,6.000000,0.000000,0.000000,0.000000,0.000000,0.000000;
#CREDIT:;
#DISPLAYBPM:156.000000;
#NOTES:
00000000
00000000
00000000
00000000
,
00000000
00000000
00000000
00000000
,
00010000
00001000
00010000
01000000
,
10000000
00000000
00100000
00000000
01000000
00000000
00001000
00010000
,
00001000
00000100
00000001
00000010
,
00000100
00010000
00002000
00020000
,
00033000
00000000
00000000
00000000
,
00000000
00011000
00000000
00000000
,
00000000
00100000
00000000
00000000
,
00000000
00010000
00000000
00000000
,
00000000
01000000
00000000
00001000
,
00000000
00011000
00000000
00000000
,
00000000
00011000
00000000
00000000
,
00000000
00000010
00000000
00000000
,
00000000
00000001
00000000
00000100
,
00000000
00000010
00000000
00000000
,
00000000
00010000
00000000
00000000
,
00000000
00001000
00000000
00000000
,
00000000
00000000
00011000
00000000
00000000
00000000
00000000
00010000
,
00000000
01000000
00000000
00000000
,
00000000
10000000
00000000
00000000
,
00000000
00010000
00000000
00000000
,
00000000
01000000
00000000
00001000
,
00001000
00011000
00000000
00000000
,
00000000
00000020
00000000
00000000
,
00000030
00001001
00000000
00000000
,
00000000
00000200
00000000
00000000
,
00000300
00010000
00010000
01000000
,
01000000
10000000
10000000
10000000
,
10000000
10010000
10010000
10010000
,
00000000
01000000
00000000
00001000
,
00000000
00010000
00000000
00000010
,
00000000
00001000
00000000
00000001
,
00000000
00000010
00000000
00000000
,
00000000
00000100
00000000
00010000
,
00000000
00001000
00000000
00100000
,
00000000
01000000
00000000
10000000
,
00000000
00010000
00000000
00000000
,
00000000
01000000
00000000
00001000
,
00000000
00010000
00000000
00000010
,
00000000
00000100
00000000
00000001
,
00000000
00001000
00000000
00000000
,
00000000
00010000
00000000
01000000
,
00000000
00010000
00000000
10000000
,
00000000
00100000
00000000
01000000
,
00000000
00002000
00000000
00000000
,
00013000
00000000
00000000
00000000
,
00010000
00000000
00000000
00000000
,
00001000
00000000
00000000
00000000
,
00001000
00000000
00000000
00000000
,
00011000
00000000
00000000
00000000
,
00001000
00000000
00000000
00000000
,
00011000
00000000
00000000
00000000
,
00010000
00000000
00001000
00000000
,
00011000
00000000
00000000
00000000
,
00011000
00000000
00000000
00000000
,
00000010
00000000
00001000
00000000
,
00000001
00000000
00001000
00000000
,
00011000
00000000
00000000
00000000
,
00011000
00000000
00000000
00000000
,
01000000
00000000
00010000
00000000
,
10000000
00000000
00000000
00000000
02000000
00000000
00000000
03000000
;

//---------------dance-double - ----------------
#NOTEDATA:;
#CHARTNAME:;
#STEPSTYPE:dance-double;
#DESCRIPTION:;
#CHARTSTYLE:;
#DIFFICULTY:Medium;
#METER:7;
#RADARVALUES:0.290897,0.383463,0.141654,0.247895,0.004427,230.000000,214.000000,16.000000,28.000000,0.000000,0.000000,0.000000,0.000000,0.000000,0.290897,0.383463,0.141654,0.247895,0.004427,230.000000,214.000000,16.000000,28.000000,0.000000,0.000000,0.000000,0.000000,0.000000;
#CREDIT:;
#DISPLAYBPM:156.000000;
#NOTES:
00000000
00000000
00000000
00000000
,
00000000
00000000
00000000
00000000
00000000
00000000
00010000
00001000
,
00010000
00000000
01000000
00100000
01000000
00000000
10000000
00100000
,
01000000
00010000
00100000
00001000
00010000
00000000
00010000
00001000
,
00000100
00000000
00000100
00000001
00001000
00000000
00001000
00000100
,
00000010
00000000
00000010
00001000
00020000
00000000
00000000
00000000
,
00031000
00000000
00000000
00000000
00010000
00000000
00000000
00010000
00000000
00000000
00010000
00000000
00000000
00000000
00011000
00000000
,
00000000
00011000
00000000
01000000
,
00100000
01000000
00000000
00001000
,
00010000
00001000
00000000
00000010
,
00000100
00000010
00001000
00000000
,
00000000
00011000
00000000
00010000
,
00010000
00011000
00000000
00001000
,
00001000
02000000
03000000
00020000
,
00030000
00000000
20000000
00000000
30000000
00000000
01000000
00100000
,
00000000
00001000
00001000
00001000
,
00001000
00000010
00000000
00000100
,
00000000
00001000
00000100
00000010
,
00000001
00000000
00001000
00000000
00000000
00000000
00000000
01000000
,
00000000
10000000
10000000
10000000
,
10000000
01000000
00000000
00010000
,
00000000
00001000
00000100
00000010
,
00000001
00000010
00000000
00010000
,
00000000
00000000
01000000
10000000
01000000
00000000
00200000
00000000
,
00300000
00000000
00010000
10000000
00010000
00000000
02000000
00000000
,
03000000
00000000
00001000
00010000
00001000
00000000
00000200
00000000
,
00000300
00000000
00000001
00000100
00000001
00000000
00002000
00000000
,
00003000
00000200
00020300
01030000
,
01000000
10000000
00100000
00010000
,
00002000
00000000
00000100
00000000
00010000
00000000
00013000
00001000
,
00000000
00011000
00000000
00000000
00000000
00000000
00000010
00000000
,
00001001
00001000
00000100
00001000
,
00001001
00000001
00000100
00000010
,
00010000
00001000
01000000
00100000
,
00000000
10000000
10000000
01000000
,
10010000
00100000
10000000
00010000
,
10010000
00100000
00010000
01000000
,
00001000
00010000
00000010
00000100
,
00000000
00000001
00000001
00000010
,
00001001
00001000
00000100
00001000
,
00001001
00000001
00000100
00000010
,
00010000
00001000
01000000
00100000
,
00000000
10000000
10000000
01000000
,
10010000
00100000
10000000
00010000
,
10010000
00100000
00010000
01000000
,
00001000
00000000
00010000
00000000
00000010
00000200
00000000
00000300
,
00000101
00000000
00000000
00000000
,
00000000
00001000
00000010
00010000
,
00000000
00011000
00000000
00001000
,
01000000
00100000
10000000
00000000
,
10100000
00000000
00000000
00000000
,
00001000
00010000
00000010
00000000
,
00000100
00000001
00000020
00000000
,
00001030
00000000
00000010
00000000
00000001
00000200
00000000
00000300
,
00000002
00001003
00002000
00003100
,
00000200
00010300
00020000
00031000
,
00002000
01003000
02000000
03010000
,
00010000
00100000
01000000
10000000
,
00020000
01030000
02000000
03001000
,
00002000
00013000
00020000
00030100
,
00000200
00000310
00000020
00000031
,
00000002
00000000
00000003
00000000
00001000
00000020
00000000
00000030
;

//---------------dance-double - ----------------
#NOTEDATA:;
#CHARTNAME:;
#STEPSTYPE:dance-double;
#DESCRIPTION:;
#CHARTSTYLE:;
#DIFFICULTY:Hard;
#METER:13;
#RADARVALUES:0.503379,0.575194,0.097387,0.522350,0.208055,398.000000,387.000000,11.000000,59.000000,0.000000,0.000000,0.000000,0.000000,0.000000,0.503379,0.575194,0.097387,0.522350,0.208055,398.000000,387.000000,11.000000,59.000000,0.000000,0.000000,0.000000,0.000000,0.000000;
#CREDIT:;
#DISPLAYBPM:156.000000;
#NOTES:
00000000
00000000
00000000
00000000
,
00000000
00000000
00000000
00000000
00000000
00000000
00000000
00000000
00000000
00000000
00000000
00000000
00001000
00010000
00001000
00000010
,
00000000
00000000
00000000
00000000
00000010
00000001
00000100
00001000
00000000
00000000
00000000
00001000
00000100
00001000
00010000
01000000
,
00000000
01000000
10000000
00000000
10000000
00100000
00010000
00001000
00000000
00000000
00000000
00000000
00001000
00010000
00100000
10000000
,
00000000
00000000
00000000
01000000
00010000
01000000
10000000
00100000
00000000
00000000
00000000
00100000
01000000
00001000
00010000
00000200
,
00000000
00000000
00000300
00000000
00000010
00000001
00000100
00000010
00002000
00000000
00000000
00000000
00000000
00000000
00003000
00000000
,
00001001
00000000
00000001
00000010
00000100
00001000
00000000
00000100
00001000
00000000
00000100
00001000
00000000
00000000
00002002
00000000
,
00000000
00003003
00000001
00000100
00000010
00001000
00010000
01000000
,
00200000
00000000
10300000
00100000
01000000
00001000
00010000
00000010
,
00000200
00000000
00000301
00000010
00000100
00001000
00010000
00100000
,
01000000
10000000
00010000
00000000
10010000
00000000
00010000
00000000
,
00010000
00000000
10000000
01000000
00100000
00010000
00001000
00000100
,
00000020
00000000
00000031
00000100
00000010
00001000
00010000
01000000
,
00200000
10300000
10000000
10000000
,
10000000
00000000
00010000
00000000
00100000
00000000
01000000
20000000
,
00000000
00000000
30010000
00010000
00100000
00002000
00000000
00023000
,
00000000
00030000
00000100
00000010
00000001
00002000
00000000
00003000
,
00000000
01000000
00010000
01000000
00100000
00020000
00000000
10030000
,
00010000
00000000
01000000
00000000
00000000
00000000
00001000
00010000
00000100
00001000
00000010
00000000
00000000
00000000
00001010
00000000
,
00000000
00000010
00001000
00000001
00000010
00000200
00000000
00002300
,
00000000
00003000
01000000
00100000
01000000
20000000
00000000
30000000
,
00000000
00020000
00000000
01030000
00100000
01000000
00001000
00020000
,
00000000
00000000
00030010
00000000
00000000
00000000
00000100
00000001
00000100
00000000
00000010
00001000
00000010
00000000
00010000
00001000
,
00010000
00000000
01000000
00010000
01000000
00000000
00100000
00000000
00010000
00000000
02000000
00000000
00000000
00000000
13000000
00000000
,
01000000
00200000
00000000
10300000
00010000
02000000
00000000
03001000
,
00010000
00000100
00001000
00000001
00000100
00000020
00000000
00010030
,
00001000
02000000
00000000
03100000
10000000
01000000
00200000
00001000
,
00301000
00000000
00000010
00000100
00001000
00001000
00000100
00000000
,
00000100
00000000
00000010
00000001
00001000
00000010
00020000
00000000
,
00000000
00000000
00000000
00000000
00030000
00000000
00011000
00110000
,
00000000
10010000
00000000
00000000
00000000
00000000
00001000
00000000
,
00011000
00000000
00000100
00001000
00000001
00000200
00000000
00000310
,
00020000
00000000
00031000
01000000
00100000
20000000
00000000
30010000
,
02000000
00000000
03001000
00010000
00000100
00000020
00000000
00000031
,
00002000
00000000
00103000
01000000
00010000
20000000
00000000
31000000
,
10010000
00000000
00100000
10000000
00010000
02000000
00000000
03001000
,
00020000
00000000
00030100
00000010
00000001
00002000
00000000
00013000
,
00100000
00100000
01000000
10000000
00010000
02000000
00000000
03100000
,
00010000
00010000
00000010
00001000
00000100
00000020
00000000
00000031
,
00001001
00001000
00000010
00010000
00001000
02000000
00000000
03100000
,
10000000
10000000
01000000
00100000
00001000
00020000
00000000
00030010
,
00000100
00000100
00000001
00001000
00000100
00020000
00000000
00031000
,
01000000
00000000
00100000
01000000
10000000
02000000
00000000
03001000
,
00020000
00000010
00030010
00000100
00001000
00000200
00000000
00000301
,
00002000
00000100
00003100
00010000
00001000
02000000
00000000
03100000
,
01000000
01000000
00010000
00001000
00000010
00000200
00000000
00000300
,
00001000
00000000
00000000
00010000
00000000
00010000
00002000
00000000
00000000
00000000
00003000
00000000
00000000
00000000
00000000
00000000
,
00010000
00000000
00000000
01000000
00000000
01000000
00200000
00000000
00000000
00000000
00300000
00000000
00000000
00000000
00000000
00000000
,
00010000
00000000
00000000
01000000
00000000
01000000
00100000
00000000
00000000
00000000
01000000
00000000
01000000
00000000
00100000
00000000
,
10000000
01000000
00010000
00001000
00000100
00000001
00000100
00000010
,
00001000
00000001
00000000
00000010
00000000
00000100
00002000
00000000
00000000
00000000
00003000
00000000
00000000
00000000
00000000
00000000
,
00000010
00000100
00000000
00000001
00000000
00001000
00000200
00000000
00000000
00000000
00000300
00000000
00000000
00000000
00000000
00000000
,
00010000
00001000
01000000
00100000
20000000
00000000
30000000
00000000
,
01000000
10000000
00010000
10000000
01000000
00100000
00010000
00100000
01000000
00000000
20000000
00000000
00000000
00000000
30000000
00000000
,
10000000
01000000
00100000
00010000
00001000
00000100
00000020
00000000
,
00001030
00000100
00000010
00001000
00010000
01000000
00200000
00000000
,
00310000
01000000
00100000
10000000
00010000
00001000
00000020
00000000
,
00000130
00000100
00000100
00000100
,
00000001
00000010
00000100
00001000
00010000
00100000
02000000
00000000
,
13000000
00100000
01000000
00010000
00001000
00000010
00000200
00000000
,
00000301
00000010
00000100
00001000
00010000
01000000
00100000
10000000
,
00010000
00100000
00001000
00000000
00010000
00000000
00000100
00000000
00000010
00000000
00002002
00000000
00000000
00000000
00003003
00000000
;

//---------------dance-single - ----------------
#NOTEDATA:;
#CHARTNAME:;
#STEPSTYPE:dance-single;
#DESCRIPTION:;
#CHARTSTYLE:;
#DIFFICULTY:Challenge;
#METER:7;
#RADARVALUES:0.246630,0.356073,0.044267,0.478083,0.004427,195.000000,190.000000,5.000000,54.000000,52.000000,0.000000,0.000000,5.000000,0.000000,0.246630,0.356073,0.044267,0.478083,0.004427,195.000000,190.000000,5.000000,54.000000,52.000000,0.000000,0.000000,5.000000,0.000000;
#CREDIT:;
#OFFSET:-0.441000;
#BPMS:0.000000=78.000000
,24.000000=156.000000
,73.500000=234.000000
,74.500000=156.000000
,182.500000=52.200001
,184.000000=156.000000
;
#STOPS:24.000000=1.160000
,73.500000=0.032000
,73.750000=0.032000
,74.000000=0.032000
,74.250000=0.032000
,74.500000=0.032000
,109.000000=1.160000
,110.000000=1.160000
;
#DELAYS:;
#WARPS:;
#TIMESIGNATURES:0.000000=4=4
;
#TICKCOUNTS:0.000000=4
;
#COMBOS:0.000000=1
;
#SPEEDS:0.000000=1.000000=0.000000=0
;
#SCROLLS:0.000000=1.000000
;
#FAKES:;
#LABELS:0.000000=Song Start
;
#DISPLAYBPM:156.000000;
#NOTES:
0000
0000
0000
0000
,
0000
0000
0000
0000
0000
0000
1000
0001
,
1000
0000
0100
0010
0100
0000
1000
0001
,
1000
0000
0010
0100
0010
0000
0100
0010
,
0100
0000
0001
1000
0001
0000
0010
0100
,
1000
0000
0010
0100
0002
0000
1003
0000
,
MMMM
0000
0000
0000
0001
0000
0000
0001
0000
0000
0001
0000
0000
0000
2002
0000
,
0000
3003
0002
0000
0003
0200
0000
0000
,
0300
0000
0020
0000
0030
2000
0000
0000
,
3000
0000
0200
0000
0300
0020
0000
0000
,
0031
1000
0100
0010
,
MMMM
0000
2000
0000
3000
0002
0000
0000
,
0003
0000
0200
0000
0300
0002
0000
0000
,
0003
1000
0100
0010
,
0001
0000
0200
0000
0300
0000
0010
2000
,
0000
3000
MMMM
0000
0000
0000
0200
0000
,
0300
0010
1000
0001
,
0000
0020
0030
0200
,
0300
0000
0000
0000
1001
0000
0200
0000
0000
0300
MMMM
0000
0000
0000
2002
0000
,
0000
3003
0020
0000
0030
0000
2000
0000
,
3000
0001
0010
0100
,
0000
2000
3000
0002
,
0003
0000
1000
0100
2000
0000
0000
0000
,
3000
0002
1000
1000
,
1003
0100
0010
MMMM
,
0000
2000
0001
0001
,
3001
0100
0010
0200
,
0300
MMMM
MMMM
0010
,
1000
0010
1000
0001
,
1000
0000
0001
0000
1000
0000
0001
1000
,
0000
MMMM
0000
0000
0000
0000
0100
0000
,
MMMM
1000
0010
1000
,
0001
0100
0010
1000
,
1000
0000
0001
0010
0001
0000
2000
0000
,
3000
0100
0100
1000
,
MMMM
0001
0100
0010
,
0100
0001
1000
0001
,
0001
0000
1000
0100
1000
0000
0002
0000
,
0003
1000
1000
0100
,
MMMM
1000
0010
1000
,
0001
0100
0010
1000
,
1000
0000
0001
0010
0001
0000
2000
0000
,
3000
0100
0100
1000
,
MMMM
0001
0100
0010
,
0100
0001
1000
0001
,
0001
0000
1000
0100
1000
0200
0000
0300
,
2000
0000
0000
0000
0000
3000
L000
0000
0000
0000
0000
0000
0000
0000
0000
0000
,
0002
0000
0000
0000
0000
0003
000L
0000
0000
0000
0000
0000
0000
0000
0000
0000
,
0200
0000
0300
0L00
0000
0000
0000
0000
,
0110
2002
3003
0000
,
2000
0000
0000
0000
0000
3000
L000
0000
0000
0000
0000
0000
0000
0000
0000
0000
,
0002
0000
0000
0000
0000
0003
000L
0000
0000
0000
0000
0000
0000
0000
0000
0000
,
1000
0100
0020
0000
,
0031
0000
0001
0000
0100
0020
0000
0000
,
2030
0000
3000
0002
0000
0000
0003
0000
,
0020
0000
0030
0002
0000
0000
0003
0000
,
2000
0000
3000
0002
0000
0000
0003
0000
,
1000
0000
0100
0000
0010
0001
MMMM
0000
,
2000
0000
3000
0020
0000
0000
0030
0000
,
2000
0000
3000
0002
0000
0000
0003
0000
,
0010
0100
0010
0001
,
2000
0000
3000
0000
0010
0200
0000
0300
;

//---------------dance-double - Copied from----------------
#NOTEDATA:;
#CHARTNAME:Copied from;
#STEPSTYPE:dance-double;
#DESCRIPTION:Copied from;
#CHARTSTYLE:;
#DIFFICULTY:Challenge;
#METER:7;
#RADARVALUES:0.270661,0.383463,0.088534,0.256748,0.004427,214.000000,204.000000,10.000000,29.000000,88.000000,0.000000,0.000000,0.000000,0.000000,0.270661,0.383463,0.088534,0.256748,0.004427,214.000000,204.000000,10.000000,29.000000,88.000000,0.000000,0.000000,0.000000,0.000000;
#CREDIT:Copied from;
#OFFSET:-0.441000;
#BPMS:0.000000=78.000000
,24.000000=156.000000
,73.500000=234.000000
,74.500000=156.000000
,182.500000=52.200001
,184.000000=156.000000
;
#STOPS:24.000000=1.160000
,73.500000=0.032000
,73.750000=0.032000
,74.000000=0.032000
,74.250000=0.032000
,74.500000=0.032000
,109.000000=1.160000
,110.000000=1.160000
;
#DELAYS:;
#WARPS:;
#TIMESIGNATURES:0.000000=4=4
;
#TICKCOUNTS:0.000000=4
;
#COMBOS:0.000000=1
;
#SPEEDS:0.000000=1.000000=0.000000=0
;
#SCROLLS:0.000000=1.000000
;
#FAKES:;
#LABELS:0.000000=Song Start
;
#DISPLAYBPM:156.000000;
#NOTES:
// measure 0
00000000
00000000
00000000
00000000
,  // measure 1
00000000
00000000
00000000
00000000
00000000
00000000
00010000
00001000
,  // measure 2
00010000
00000000
01000000
00100000
01000000
00000000
10000000
00100000
,  // measure 3
01000000
00010000
00100000
00001000
00010000
00000000
00010000
00001000
,  // measure 4
00000100
00000000
00000100
00000001
00001000
00000000
00001000
00000100
,  // measure 5
00000010
00000000
00000010
00001000
00020000
00000000
00000000
00000000
,  // measure 6
00031000
00000000
00000000
00000000
00010000
00000000
00000000
00010000
00000000
00000000
00010000
00000000
00000000
00000000
00011000
00000000
,  // measure 7
00000000
MMMMMMMM
00000000
01000000
,  // measure 8
00100000
01000000
00000000
00001000
,  // measure 9
00010000
00001000
00000000
00000010
,  // measure 10
00000100
00000010
00001000
00000000
,  // measure 11
00000000
MMMMMMMM
00000000
00010000
,  // measure 12
00010000
00011000
00000000
00001000
,  // measure 13
00001000
02000000
03000000
00020000
,  // measure 14
00030000
00000000
20000000
00000000
30000000
00000000
01000000
00100000
,  // measure 15
00000000
MMMMMMMM
00001000
00001000
,  // measure 16
00001000
00000010
00000000
00000100
,  // measure 17
00000000
00001000
00000100
00000010
,  // measure 18
00000001
00000000
00001000
00020000
00000000
00030000
00000000
MMMMMMMM
,  // measure 19
00000000
10000000
10000000
10000000
,  // measure 20
10000000
01000000
00000000
00010000
,  // measure 21
00000000
00001000
00000100
00000010
,  // measure 22
00000001
00000010
00000000
00010000
,  // measure 23
00000000
00000000
01000000
10000000
01000000
00000000
00200000
00000000
,  // measure 24
00300000
00000000
00010000
10000000
00010000
00000000
02000000
00000000
,  // measure 25
03000000
00000000
00001000
00010000
00001000
00000000
00000200
00000000
,  // measure 26
00000300
00000000
00000001
00000100
00000001
00000000
00002000
00000000
,  // measure 27
00003000
00000200
00020300
01030000
,  // measure 28
01000000
10000000
00100000
00010000
,  // measure 29
00002000
00000000
00000100
00000000
00010000
00000000
00013000
00001000
,  // measure 30
00000000
00011000
00000000
00000000
00000000
00000000
00000010
00000000
,  // measure 31
MMMMMMMM
00001000
00000100
00001000
,  // measure 32
00001001
00000001
00000100
00000010
,  // measure 33
00010000
00001000
01000000
00100000
,  // measure 34
00000000
10000000
10000000
01000000
,  // measure 35
MMMMMMMM
00100000
10000000
00010000
,  // measure 36
10010000
00100000
00010000
01000000
,  // measure 37
00001000
00010000
00000010
00000100
,  // measure 38
00000000
00000001
00000001
00000010
,  // measure 39
MMMMMMMM
00001000
00000100
00001000
,  // measure 40
00001001
00000001
00000100
00000010
,  // measure 41
00010000
00001000
01000000
00100000
,  // measure 42
00000000
10000000
10000000
10010000
,  // measure 43
MMMMMMMM
10000000
MMMMMMMM
01000000
,  // measure 44
MMMMMMMM
00100000
MMMMMMMM
00001000
,  // measure 45
00010000
00000000
00010000
00000000
00000010
00000200
00000000
00000300
,  // measure 46
00000101
00000000
00000000
00000000
,  // measure 47
00001000
00000010
00010000
00000000
,  // measure 48
00011000
00000000
00001000
01000000
,  // measure 49
00100000
10000000
00000000
00000000
,  // measure 50
10100000
00000000
00000000
00000000
,  // measure 51
00001000
00010000
00000010
00000000
,  // measure 52
00000100
00000001
00000020
00000000
,  // measure 53
00001030
00000000
00000010
00000000
00000001
00000200
00000000
00000300
,  // measure 54
00000002
00001003
00002000
00003100
,  // measure 55
00000200
00010300
00020000
00031000
,  // measure 56
00002000
01003000
02000000
03010000
,  // measure 57
00010000
00100000
01000000
10000000
,  // measure 58
00020000
01030000
02000000
03001000
,  // measure 59
00002000
00013000
00020000
00030100
,  // measure 60
00000200
00000310
00000020
00000031
,  // measure 61
00000002
00000000
00000003
00000000
00001000
00000020
00000000
00000030
;
