#TITLE:MORE THAN I NEEDED TO KNOW;
#SUBTITLE:;
#ARTIST:SCOOCH;
#TITLETRANSLIT:;
#SUBTITLETRANSLIT:;
#ARTISTTRANSLIT:;
#CREDIT:;
#BANNER:MORE THAN I NEEDED TO KNOW.png;
#BACKGROUND:MORE THAN I NEEDED TO KNOW-bg.png;
#LYRICSPATH:;
#CDTITLE:./CDTITLES/Dancemania DELUX 5.PNG;
#MUSIC:MORE THAN I NEEDED TO KNOW.ogg;
#OFFSET:0.000;
#SAMPLESTART:70.250;
#SAMPLELENGTH:15.000;
#SELECTABLE:YES;
#DISPLAYBPM:136.000;
#BPMS:0.000=136.600,180.000=136.609,208.000=122.000,210.000=114.000,211.000=98.000,212.000=94.000,214.000=80.000;
#STOPS:;
#BGCHANGES:;

//---------------dance-single - ----------------
#NOTES:
     dance-single:
     :
     Easy:
     5:
     0.165,0.260,0.172,0.086,0.000:
0000
0000
0000
0000
,
0000
0000
0000
0000
,
0000
0000
0000
0000
,
0000
0000
0000
0000
,
1001
0000
0000
0000
,
0000
0000
0000
0000
,
0001
0000
0000
0000
,
0000
0000
0000
0000
,
1000
0000
0000
0000
,
0100
0000
0000
0000
,
0010
0000
0000
0000
,
0001
0000
0000
0000
,
0020
0000
0000
0030
0000
0000
0000
0000
,
0002
0000
0000
0003
0000
0000
0000
0000
,
0200
0000
0000
0300
0000
0000
0000
0000
,
2000
0000
0000
3000
0000
0000
0000
0000
,
0010
0000
0000
0010
,
0001
0000
0000
0001
,
0100
0000
0000
0100
,
1000
0000
0000
1000
,
0010
0000
0000
0010
0000
0000
0000
0000
,
0100
0000
0000
0100
0000
0000
0000
0000
,
0010
0001
0010
0000
,
0100
1000
0100
0000
,
0001
0000
0001
0000
,
1000
0000
1000
0100
,
0010
0000
0010
0000
,
0100
0000
0100
0001
,
0010
0000
0000
1000
0000
0000
0000
0000
,
0010
0000
0000
0001
0000
0000
0000
0000
,
1000
0000
0000
0001
0000
0000
0000
0000
,
0010
0000
0000
0100
,
0010
0000
0000
1000
0000
0000
0001
0000
,
1000
0000
0010
0100
,
0001
0000
0000
0100
0000
0000
0000
0000
,
1000
0000
0000
0100
0000
0000
0000
0000
,
0002
0000
0003
0001
0000
0000
0000
0000
,
2000
0000
3000
1000
0000
0000
0000
0000
,
1001
0000
0000
0110
,
0000
0000
1000
0001
,
1001
0000
1100
0000
,
1001
0000
0101
0000
,
1001
0000
0100
0010
,
0110
0000
1000
0000
,
0001
0000
1001
0000
,
0010
0000
0010
0000
,
1001
0000
1010
0000
,
1001
0000
0011
0000
,
1001
0000
0010
0100
,
0110
0000
1000
0000
,
0001
0000
0010
0100
,
1001
0000
0000
0000
,
2002
0000
0000
3003
,
0010
0000
0001
0000
,
0200
0000
0300
0000
;

//---------------dance-single - ----------------
#NOTES:
     dance-single:
     :
     Medium:
     7:
     0.294,0.391,0.096,0.382,0.019:
0000
0000
0000
0000
,
0000
0000
0000
0000
,
0000
0000
0000
0000
,
0000
0000
0000
0000
,
1001
0000
0001
2000
0000
0000
0000
0000
,
0000
3000
0000
0000
,
1001
0000
1000
0002
0000
0000
0000
0000
,
0000
0000
0003
0000
0001
0100
0000
0010
,
0000
2000
0000
0000
0000
0000
3000
0000
,
1000
0100
0000
0010
0000
0000
0001
2000
,
0000
0000
0000
3000
,
0100
0000
0010
0002
0000
0003
1000
0000
,
0200
0000
0300
0001
0000
0000
0010
0001
,
0200
0000
0300
1000
0000
0000
0010
1000
,
0001
0000
0000
0100
0000
0000
0010
0000
,
1000
0000
0000
0100
0000
0010
0001
0000
,
0020
0000
0030
0200
0000
0300
0001
0000
,
0001
0010
0100
1000
,
2000
0000
3000
0200
0000
0300
0010
0000
,
0010
0002
0003
0100
,
0020
0000
0030
0010
0000
0000
0100
0000
,
0002
0000
0003
0001
0000
0000
1000
0000
,
0020
0000
0030
0100
0000
0000
0002
0000
,
0003
1000
0000
0000
0010
0000
1000
0000
,
0002
1000
1000
1003
,
0100
0000
0010
0001
0000
0000
1000
0001
,
0200
0010
0010
0310
,
1000
0000
0100
0020
0000
0030
0001
0000
,
0020
0000
0030
0001
0000
0000
1000
0000
,
0020
0000
0030
1000
0000
0000
0001
1000
,
0010
0100
0001
1000
,
0100
0000
0010
0000
0001
0100
0010
1000
,
0200
0000
0300
0010
0000
0000
0001
0000
,
0000
0100
0010
1000
,
2000
0000
3000
0200
0000
0300
0001
0000
,
0000
2000
0000
3000
0000
0000
0100
0000
,
0020
0000
0030
0010
0000
0000
1000
0000
,
0002
0000
0003
0001
0000
0000
0100
0000
,
0020
0000
0030
2000
0000
3000
0002
0000
,
0003
0200
0000
0300
0010
0000
0001
1000
,
0001
0000
0000
0000
0100
0000
0100
0001
,
0000
0001
0000
1000
0000
1000
0000
0002
,
0000
0000
0000
0000
1000
0000
0000
0200
,
0003
0000
0001
0301
,
1001
1100
1001
0101
,
0010
0000
0000
0001
0000
0000
0010
0000
0100
0000
0000
1000
0000
0000
0100
0000
,
0002
0000
0003
0000
1000
0000
1000
0010
,
0000
0010
0000
0100
0000
0100
0000
2000
,
0000
0000
0000
0000
0001
0000
0000
0200
,
3000
0000
1000
1300
,
1001
0011
1001
1010
,
0100
0000
0000
1000
0000
0000
0100
0000
0010
0000
0000
0001
0000
0000
0010
0000
,
2000
0000
0000
3000
,
0020
0000
2030
0000
,
3200
0000
0300
0000
;

//---------------dance-single - ----------------
#NOTES:
     dance-single:
     :
     Hard:
     11:
     0.410,0.868,0.029,0.210,0.196: // measure 1
0000
0000
0000
0000
,  // measure 2
0000
0000
0000
0000
,  // measure 3
0000
0000
0000
0000
,  // measure 4
0000
0000
0000
0000
,  // measure 5
1002
0000
0100
0200
0000
0000
0000
0000
,  // measure 6
0303
0000
0000
0100
0010
1000
0100
0001
,  // measure 7
0100
0000
1000
0002
0000
0000
0000
0000
,  // measure 8
0000
0000
0000
0003
1000
0100
0000
1000
,  // measure 9
0000
0002
0000
0000
0000
0000
0003
0000
,  // measure 10
0100
0010
0000
2000
0000
0000
3100
0002
,  // measure 11
0100
0000
0000
0100
0000
0000
1000
0000
,  // measure 12
0103
0000
0100
0002
0000
0003
1000
0000
,  // measure 13
0020
0000
0030
0001
0000
0000
0100
0001
,  // measure 14
0020
0000
0030
1000
0000
0000
0100
1000
,  // measure 15
0002
0000
0003
0010
0000
0000
0100
0000
,  // measure 16
2000
0000
3000
0010
0000
0100
0001
0000
,  // measure 17
0200
0000
0300
0020
0000
0030
0001
0000
,  // measure 18
0001
0100
0010
1000
,  // measure 19
2000
0000
3000
0020
0000
0030
0100
0000
,  // measure 20
0010
2000
3000
0100
,  // measure 21
0020
0000
0001
0001
0030
0000
0100
0000
,  // measure 22
0020
0000
1000
1000
0030
0000
0100
0000
,  // measure 23
1000
0001
1000
0100
,  // measure 24
0010
0000
0000
0000
0001
0000
0000
1000
0010
0000
0100
0000
0001
0000
1000
0000
,  // measure 25
0100
0000
0000
0010
0001
0000
0010
0000
0000
0000
0000
0000
1000
0000
0000
0000
,  // measure 26
0010
0000
0000
0100
1000
0000
0100
0000
0000
0000
0000
0000
0001
0000
0000
0000
,  // measure 27
0100
0000
0000
0010
1000
0000
0010
0000
0000
0000
0000
0000
0001
0000
0000
0000
,  // measure 28
0010
0000
0000
0100
0001
0000
0100
0000
0000
0000
0000
0000
1000
0000
0000
0000
,  // measure 29
0100
0000
0000
0010
0001
0000
0010
0000
0000
0000
0100
0000
1000
0000
0000
0000
,  // measure 30
0010
0000
0000
0100
1000
0000
0100
0000
0000
0000
0010
0000
0001
0000
0000
0000
,  // measure 31
1000
0000
0100
0001
0000
0100
0010
0000
,  // measure 32
0100
0000
1000
0010
0000
1000
0001
0000
,  // measure 33
1000
0000
0000
0100
0010
0000
0001
0000
0000
0000
0000
0000
0100
0000
0010
0000
,  // measure 34
0000
0100
0010
1000
,  // measure 35
1000
0000
0000
0010
0100
0000
0001
0000
0000
0000
0000
0000
0100
0000
0010
0000
,  // measure 36
0000
0010
0000
0010
0000
1000
0100
0000
,  // measure 37
0002
0000
0003
0001
0000
0001
1001
0000
,  // measure 38
0020
0000
0030
0010
0000
0010
0110
0000
,  // measure 39
1000
0100
0001
0100
0000
0000
1000
0010
,  // measure 40
0001
0000
0010
0000
0000
0000
0000
0010
1000
0000
0100
0000
0010
0000
0001
0000
,  // measure 41
0100
0000
0000
0010
1000
0000
0001
0000
0100
0000
0010
0000
1000
0000
0000
0000
,  // measure 42
0010
0000
0000
0100
0001
0000
1000
0000
0100
0000
0010
0000
0001
0000
0000
0000
,  // measure 43
0100
0000
0000
0010
1000
0000
0001
0000
0100
0000
0010
0000
1000
0000
0000
0000
,  // measure 44
0010
0000
0000
0100
0001
0000
1000
0000
0100
0000
0010
0000
0001
0000
0000
0000
,  // measure 45
1000
0000
0000
0010
0100
0000
0001
0000
0010
0000
1000
0000
0100
0000
0000
0000
,  // measure 46
0001
0000
0000
0001
0000
0000
0001
0000
0001
0000
0000
1000
0000
0000
0100
0000
,  // measure 47
0010
0000
0000
1000
0100
0000
0010
0000
0001
0000
0010
0000
1000
0000
0010
0000
,  // measure 48
0100
0000
0000
1000
0010
0000
0100
0000
0001
0000
0100
0000
1000
0000
0100
0000
,  // measure 49
0010
0000
0000
0001
0100
0000
0010
0000
1000
0000
0010
0000
0001
0000
0010
0000
,  // measure 50
0100
0000
0000
0001
0010
0000
0100
0000
1000
0000
0100
0000
0001
0000
0100
0000
,  // measure 51
0010
0000
0000
0001
0100
0000
0010
0000
1000
0000
0000
1000
0000
0000
1000
0000
,  // measure 52
0001
0000
0000
0001
0000
0000
0001
0000
0001
0000
0000
1000
0000
0000
0100
0000
,  // measure 53
0010
0100
0010
0100
1000
0001
1000
0001
0100
0010
0100
0010
1000
0100
1000
0100
,  // measure 54
0010
0001
0010
0001
0100
0010
0100
0010
1000
0100
0010
0001
0100
0010
1000
0002
,  // measure 55
2000
0000
0000
0000
,  // measure 56
3003
0000
0000
0000
;

//---------------dance-double - ----------------
#NOTES:
     dance-double:
     :
     Easy:
     4:
     0.139,0.182,0.010,0.134,0.000:
00000000
00000000
00000000
00000000
,
00000000
00000000
00000000
00000000
,
00000000
00000000
00000000
00000000
,
00000000
00000000
00000000
00000000
,
00011000
00000000
00000000
00000000
,
00010000
00000000
00000000
00000000
,
01000000
00000000
00000000
00000000
,
00000000
00000000
00000000
00000000
,
10000000
00000000
00000000
00000000
,
01000000
00000000
00010000
00000000
,
00002000
00000000
00000000
00000000
,
00003000
00000000
00001000
00010000
,
00200000
00000000
00000000
00300000
00000000
00000000
00000000
00000000
,
20000000
00000000
00000000
30000000
00000000
00000000
00000000
00000000
,
02000000
00000000
00000000
03000000
00000000
00000000
00000000
00000000
,
00020000
00000000
00000000
00030000
00000000
00000000
00000000
00000000
,
00001000
00000000
00000000
00000000
,
00000010
00000000
00000000
00000000
,
00000001
00000000
00000000
00000000
,
00000100
00000000
00000000
00000100
,
00001000
00000000
00000000
00001000
,
00010000
00000000
00000000
00010000
,
00100000
00000000
10000000
00000000
,
01000000
00000000
00010000
00001000
,
00000200
00000000
00000000
00000300
,
00000010
00000000
00000001
00000000
,
00000200
00000000
00000000
00000300
,
00001000
00000000
00010000
00000000
,
00100000
00000000
10000000
00000000
,
01000000
00000000
00000000
00000000
,
00010000
00000000
00001000
00000000
,
00000100
00000000
00000000
00000000
,
00001000
00000000
00010000
00000000
,
00100000
00000000
10000000
00000000
,
01000000
00000000
00010000
00000000
,
00001000
00000000
00000000
00000100
,
00000001
00000000
00000000
00000100
,
00000010
00000000
00000000
00000100
,
00002000
00000000
00003000
00020000
,
00000000
00030000
00200000
00300000
,
00100000
00000000
10000000
00000000
,
01000000
00000000
00010000
00001000
,
00010000
00000000
00001000
00000000
,
00000010
00000000
00000001
00000000
,
00000100
00000000
00001000
00000000
,
00010000
00000000
00010000
00001000
,
00000010
00000000
00000001
00000000
,
00000100
00000000
00001000
00010000
,
00001000
00000000
00010000
00000000
,
00100000
00000000
10000000
01000000
,
10000000
00000000
01000000
00000000
,
00010000
00000000
00001000
00000010
,
00000002
00000000
00000000
00000003
,
00000200
00000300
00002000
00003000
,
00020000
00000000
00030000
00000000
;

//---------------dance-double - ----------------
#NOTES:
     dance-double:
     :
     Medium:
     7:
     0.244,0.287,0.019,0.153,0.010:
00000000
00000000
00000000
00000000
,
00000000
00000000
00000000
00000000
,
00000000
00000000
00000000
00000000
,
00000000
00000000
00000000
00000000
,
00011000
00000000
00010000
02000000
00000000
00000000
00000000
00000000
,
03000000
00000000
00000000
00000000
,
11000000
00000000
01000000
00020000
00000000
00000000
00000000
00000000
,
00000000
00000000
00030000
00000000
00001000
00010000
00000000
00000010
,
00000000
00000200
00000000
00000000
00000000
00000000
00000300
00000000
,
00000001
00000010
00000000
00000100
00000000
00000000
00000010
00000002
,
00000000
00000000
00000000
00000103
,
00001000
00000000
00000000
00001000
00000000
00000000
00000100
00000000
,
00000020
00000000
00000030
00001000
00000000
00000000
00000000
00000000
,
00020000
00000000
00030000
00100000
00000000
00000000
00000000
00000000
,
10000000
00000000
00000000
01000000
00000000
00000000
00010000
00000000
,
00001000
00000000
00000000
00001000
00000000
00000000
00000000
00000000
,
00000020
00000000
00000030
00000001
00000000
00000000
00000010
00000000
,
00001000
00010000
00100000
10000000
,
20000000
00000000
30000000
01000000
00000000
00000000
00010000
00000000
,
00002000
00000000
00003000
00000100
,
00000020
00000000
00000030
00000010
00000000
00000000
00000001
00000000
,
00000200
00000000
00000300
00000100
00000000
00000000
00001000
00000000
,
00010000
00000000
01000000
00000000
,
00100000
10000000
01000000
00010000
,
00001000
00000000
00000000
00000010
00000000
00000000
00000001
00000000
,
00000001
00000000
00000000
00000100
00000000
00000000
00001000
00000000
,
00010000
00000000
00000000
00100000
00000000
00000000
10000000
00000000
,
10000000
00000000
00000000
01000000
00000000
00000000
00010000
00000000
,
00001000
00000000
00000000
00000010
00000000
00000000
00001000
00000000
,
00000010
00000000
00000000
00000001
00000000
00000000
00000100
00000000
,
00000001
00000000
00000100
00001000
00000000
00000000
00010000
00000000
,
00001000
00000000
00000000
00010000
00000000
01000000
10000000
00000000
,
10000000
00000000
00000000
00100000
00000000
00000000
00010000
00000000
,
00001000
00000100
00000010
00000001
,
00000001
00000000
00000000
00000100
00000000
00000000
00001000
00010000
,
00000000
01000000
00000000
00000000
10000000
00000000
01000000
00000000
,
00100000
00000000
00000000
00100000
00000000
10000000
01000000
00000000
,
00010000
00000000
00000000
00010000
00000000
00001000
00000100
00000000
,
00000010
00000000
00000000
00000001
00000000
00000000
00000100
00000000
,
00000000
00000001
00000000
00000000
00000100
00000000
00001000
00000000
,
00010000
00000000
00100000
10000000
,
10000000
01000000
00010000
00001000
,
00000100
00001000
00010000
00100000
,
00010000
00001000
00000010
00000001
,
00000100
00001000
00010000
00100000
,
00010000
00000000
00000000
00001000
00000000
00000000
00010000
00000000
01000000
00000000
00000000
00000000
00010000
00000000
00000000
00000000
,
00001000
00000000
00000000
00000000
00000010
00000000
00000001
00001000
,
00000001
00000000
00000100
00000000
00001000
00010000
00001000
00000000
,
01000000
00000000
00010000
00000000
00001000
00000010
00000100
00000000
,
00001000
00000000
00010000
00000000
00100000
01000000
10000000
00000000
,
01000000
00000000
00000000
00000000
00100000
00000000
00000000
00000000
10000000
00000000
00000000
01000000
00000000
00000000
00010000
00000000
,
00002000
00003000
00000200
00000300
,
00020000
00000000
00000000
00030000
,
02000000
03000000
10000000
00100000
,
02000000
00000000
03000000
00000000
;

//---------------dance-double - ----------------
#NOTES:
     dance-double:
     :
     Hard:
     11:
     0.356,0.860,0.048,0.191,0.124:
00000000
00000000
00000000
00000000
,
00000000
00000000
00000000
00000000
,
00000000
00000000
00000000
00000000
,
00000000
00000000
00000000
00000000
,
00011000
00000000
00001000
00000200
00000000
00000000
00000000
00000000
,
00000000
00000000
00000000
00000301
00000010
00001000
00010000
01000000
,
10000000
00000000
00100000
02000000
00000000
00000000
00000000
00000000
,
00000000
00000000
03000000
00000000
00001000
00010000
00000000
00001000
,
00000000
00000020
00000000
00000000
00000000
00000000
00000000
00000000
,
00000031
00000100
00000000
00001000
00000000
00000000
00010000
02000000
,
00000000
00000000
00000000
00000000
,
03000000
00000000
01000000
10000000
00000000
00000000
10000000
00000000
,
00200000
00000000
00300000
00010000
00000000
00000000
00001000
00010000
,
00002000
00000000
00003000
00000100
00000000
00000000
00000001
00000100
,
00000001
00000000
00000000
00000100
00000000
00000000
00001000
00000000
,
00010000
00000000
00000000
01000000
00000000
01000000
10000000
00000000
,
20000000
00000000
30000000
00100000
00000000
00000000
00010000
00000000
,
00010000
01000000
00001000
00010000
,
00020000
00000000
00030000
00002000
00000000
00003000
00000100
00000000
,
00000010
00002000
00003000
00000100
,
00000020
00000000
00000030
00000010
00000000
00000000
00010000
00000000
,
00002000
00000000
00003000
00001000
00000000
00000000
00010000
00000000
,
00100000
10000000
01000000
00010000
,
00001000
00000000
00000010
00000000
00000001
00000100
00001000
00000100
,
00000010
00000000
00010000
00001000
00000000
00000000
00110000
00000000
,
00100000
00000000
00001000
00010000
00000000
00000000
00001010
00000000
,
00000100
00000000
00010000
00001000
00000000
00000000
00110000
00000000
,
01000000
00000000
00001000
00010000
00000000
00000000
00001010
00000000
,
00000002
00000000
00000003
00000100
00000000
00000000
00001000
00001000
,
00020000
00000000
00030000
01000000
00000000
00000000
10000000
10000000
,
00100000
00000000
10000000
01000000
00000000
00000000
00010000
00000000
,
00001000
00000000
00000000
00000100
00000000
00000100
00000001
00000010
,
00000200
00000000
00000300
00000001
00000000
00000000
00000010
00000010
,
00000000
00001000
00010000
00100000
,
00010000
00000000
00001000
00000200
00000000
00000300
00001000
00010000
,
00000000
01000000
00000000
10000000
00000000
00100000
00010000
00000000
,
00002000
00000000
00003000
00000010
00000000
00000000
00000001
00000000
,
00000002
00000000
00000003
00000100
00000000
00000000
00001000
00000000
,
00010000
00000000
00100000
10000000
00000000
00000000
00100000
00000000
,
10000000
00000000
01000000
00000000
00000000
00000000
00000000
00010000
10000000
00000000
01000000
00000000
00010000
00000000
00010000
00000000
,
00001000
00000000
00000000
00000010
00000001
00000000
00000100
00000000
00001000
00000000
00010000
00000000
00001000
00000000
00000100
00000000
,
00000000
00001000
00000000
00010000
00000000
00100000
00000000
10000000
,
10000000
00000000
00000000
00100000
00010000
00000000
00001000
00000000
00010000
00000000
00000000
00000000
00001000
00000000
00000010
00000000
,
00000001
00000100
00001000
00010000
,
00100000
10000000
10000000
00000000
01000000
00000000
00010000
00001000
,
00000010
00000000
00000000
00000001
00000000
00000000
00000001
00000000
00000100
00000000
00000000
00001000
00000000
00000000
00001000
00000000
,
00010000
00000000
00000000
00100000
10000000
00000000
01000000
00000000
00010000
00000000
00001000
00000000
00010000
00000000
01000000
00000000
,
00000000
00010000
00000000
00001000
00000000
00000010
00000000
00000001
,
00000001
00000000
00000000
00000010
00001000
00000000
00010000
00000000
00001000
00000000
00000000
00000000
00010000
00000000
00100000
00000000
,
10000000
01000000
00010000
00001000
,
00000010
00000000
00000000
00000000
00000001
00000000
00000100
00000000
00001000
00000000
00000000
00001000
00000000
00000000
00001000
00000000
,
00010000
00000000
00000000
00100000
00000000
00000000
00100000
00000000
10000000
00000000
00000000
01000000
00000000
00000000
01000000
00000000
,
00010000
00001000
00010000
00001000
00000100
00000001
00000100
00000001
00000010
00000001
00000010
00001000
00000010
00001000
00010000
00001000
,
00010000
01000000
00010000
01000000
10000000
01000000
10000000
00100000
10000000
00100000
01000000
00100000
01000000
00010000
10000000
00020000
,
20000000
00000000
30030000
00000000
;

//---------------dance-single - ----------------
#NOTES:
     dance-single:
     :
     Beginner:
     2:
     0.094,0.155,0.048,0.000,0.000:
0000
0000
0000
0000
,
0000
0000
0000
0000
,
0000
0000
0000
0000
,
0000
0000
0000
0000
,
1000
0000
0000
0000
,
0000
0000
0000
0000
,
0001
0000
0000
0000
,
0000
0000
0000
0000
,
0100
0000
0000
0000
,
0100
0000
0000
0000
,
0100
0000
0000
0000
,
0000
0000
0000
0000
,
0010
0000
0000
0000
,
0010
0000
0000
0000
,
0010
0000
0000
0000
,
0000
0000
0000
0000
,
1000
0000
0000
0000
,
1000
0000
0000
0000
,
1000
0000
0000
0000
,
0000
0000
0000
0000
,
0001
0000
0000
0000
,
0001
0000
0000
0000
,
0001
0000
1000
0000
,
0001
0000
1000
1000
,
1000
0000
0000
0000
,
0100
0000
0000
0000
,
0010
0000
0000
0000
,
0000
0000
0000
0000
,
0001
0000
0001
0000
,
1000
0000
0000
0000
,
0000
0000
0000
0000
,
1000
0000
0000
0000
,
0100
0000
0010
0000
,
0001
0000
0001
0000
,
0100
0000
0000
0000
,
1001
0000
0000
0000
,
1001
0000
0000
0000
,
1000
0000
0000
0000
,
0100
0000
0010
0000
,
0001
0001
0001
0000
,
0001
0000
0100
0000
,
1000
0000
0100
0000
,
0001
0000
1000
0000
,
1000
0000
0100
0000
,
0010
0010
0000
0000
,
1001
0000
0000
0000
,
0001
0000
0010
0000
,
1000
0000
0010
0000
,
0001
0000
1000
0000
,
0001
0000
1000
0000
,
0100
0100
0000
0000
,
0110
0000
0000
0000
,
1001
0000
0000
0000
,
1000
0000
0001
0000
,
0100
0000
0000
0000
;

//---------------dance-single - ----------------
#NOTES:
     dance-single:
     :
     Challenge:
     5:
     0.158,0.260,0.172,0.067,0.000:
0000
0000
0000
0000
,
0000
0000
0000
0000
,
0000
0000
0000
0000
,
0000
0000
0000
0000
,
1001
0000
0000
0000
,
0000
0000
0000
0000
,
0001
0000
0000
0000
,
0000
0000
0000
0000
,
1000
0000
0000
0000
,
0100
0000
0000
0000
,
0010
0000
0000
0000
,
0001
0000
0000
0000
,
0020
0000
0000
0030
0000
0000
0000
0000
,
0002
0000
0000
0003
0000
0000
0000
0000
,
0200
0000
0000
0300
0000
0000
0000
0000
,
2000
0000
0000
3000
0000
0000
0000
0000
,
0010
0000
0000
0010
,
0001
0000
0000
0001
,
0100
0000
0000
0100
,
1000
0000
0000
1000
,
MMMM
0000
0000
0010
0000
0000
1000
0000
,
MMMM
0000
0000
0100
0000
0000
0000
0000
,
0010
0001
0010
0000
,
0100
1000
0100
0010
,
MMMM
0000
0001
0000
,
1000
0000
1000
0100
,
0010
0000
0010
0000
,
0100
0000
0100
0001
,
0010
0000
0000
1000
0000
0000
0000
0000
,
0010
0000
0000
0001
0000
0000
0000
0000
,
1000
0000
0000
0001
0000
0000
0000
0000
,
0010
0000
0000
0100
,
0010
0000
0000
1000
0000
0000
0001
0000
,
1000
0000
0010
0100
,
0001
0000
0000
0100
0000
0000
0000
0000
,
1000
0000
0000
0100
0000
0000
0000
0000
,
MMMM
0000
0000
0001
0000
0000
0000
0000
,
MMMM
0000
0000
1000
0000
0000
0000
0000
,
1001
0000
0000
0110
,
0000
0000
1000
0001
,
1001
MMMM
1100
MMMM
,
1001
MMMM
0101
MMMM
,
1001
0000
0100
0010
,
0110
0000
1000
MMMM
,
0001
MMMM
1001
0000
,
0010
0000
0010
0000
,
1001
MMMM
1010
MMMM
,
1001
MMMM
0011
MMMM
,
1001
0000
0010
0100
,
0110
0000
1000
MMMM
,
0001
MMMM
0010
0100
,
1001
0000
0000
0000
,
2002
0000
0000
3003
,
0010
0000
0001
0000
,
0200
0000
0300
0000
;

//---------------dance-double - ----------------
#NOTES:
     dance-double:
     :
     Challenge:
     4:
     0.142,0.208,0.000,0.182,0.000:
00000000
00000000
00000000
00000000
,
00000000
00000000
00000000
00000000
,
00000000
00000000
00000000
00000000
,
00000000
00000000
00000000
00000000
,
00001000
00000000
00000000
00000000
,
00010000
00000000
00000000
00000000
,
01000000
00000000
00000000
00000000
,
00000000
00000000
00000000
00000000
,
10000000
00000000
00000000
00000000
,
01000000
00000000
00010000
00000000
,
00002000
00000000
00000000
00000000
,
00003000
00000000
00001000
00010000
,
00200000
00000000
00000000
00300000
00000000
00000000
00000000
00000000
,
20000000
00000000
00000000
30000000
00000000
00000000
00000000
00000000
,
02000000
00000000
00000000
03000000
00000000
00000000
00000000
00000000
,
00020000
00000000
00000000
00030000
00000000
00000000
00000000
00000000
,
00001000
00000000
00000000
00000000
,
00000010
00000000
00000000
00000000
,
00000001
00000000
00000000
00000000
,
00000100
00000000
00000000
00000100
,
MMMMMMMM
00000000
00000000
00001000
,
MMMMMMMM
00000000
00000000
00010000
,
00100000
00000000
10000000
00000000
,
01000000
00000000
00010000
00001000
,
00000200
00000000
00000000
00000300
,
00000010
00000000
00000001
00000000
,
00000200
00000000
00000000
00000300
,
00001000
00000000
00010000
00000000
,
00100000
00000000
10000000
00000000
,
01000000
00000000
00000000
00000000
,
00010000
00000000
00001000
00000000
,
00000100
00000000
00000000
00000000
,
00001000
00000000
00010000
00000000
,
00100000
MMMMMMMM
10000000
MMMMMMMM
,
01000000
00000000
00010000
00000000
,
00001000
00000000
00000000
00000100
,
00000001
00000000
00000000
MMMMMMMM
00000000
00000000
00000100
00000000
,
00000010
00000000
00000000
MMMMMMMM
00000000
00000000
00000100
00000000
,
00002000
00000000
00000000
00003000
00000000
00000000
00020000
00000000
,
00000000
00030000
00000000
00000000
00200000
00000000
00300000
00000000
,
00100000
MMMMMMMM
10000000
MMMMMMMM
,
01000000
MMMMMMMM
00010000
00001000
,
00020000
00030000
00002000
00003000
,
00000020
00000030
00000001
MMMMMMMM
,
00000100
MMMMMMMM
00001000
00000000
,
00010000
00000000
00010000
00001000
,
00000010
MMMMMMMM
00000001
MMMMMMMM
,
00000100
MMMMMMMM
00001000
00010000
,
00002000
00003000
00020000
00030000
,
00100000
00000000
10000000
01000000
,
10000000
MMMMMMMM
01000000
MMMMMMMM
,
00010000
00000000
00001000
00000010
,
00000002
00000000
00000000
00000003
,
00000200
00000300
00002000
00003000
,
00020000
00000000
00030000
00000000
;
