#TITLE:saturation;
#SUBTITLE:;
#ARTIST:初音ミク;
#TITLETRANSLIT:;
#SUBTITLETRANSLIT:;
#ARTISTTRANSLIT:Hatsune Miku;
#GENRE:;
#CREDIT:;
#BANNER:saturation.png;
#BACKGROUND:saturation-bg.png;
#LYRICSPATH:;
#CDTITLE:;
#MUSIC:saturation.mp3;
#OFFSET:-2.182;
#SAMPLESTART:100.030;
#SAMPLELENGTH:12.000;
#SELECTABLE:YES;
#BPMS:0.000=137.000
,84.000=68.500
,118.000=137.000
,214.000=68.500
,232.250=137.000
;
#STOPS:
;
#BGCHANGES:;
#KEYSOUNDS:;
#ATTACKS:;

//---------------dance-single - ----------------
#NOTES:
     dance-single:
     :
     Hard:
     15:
     0.686,0.912,0.071,0.135,0.848,580.000,9.000,17.000,0.000,0.000,0.000,0.686,0.912,0.071,0.135,0.848,580.000,9.000,17.000,0.000,0.000,0.000:
0000
0000
0000
0000
,
0000
0000
0000
0000
,
0000
0000
0000
0000
,
1001
0000
0100
0000
0010
0000
0100
0000
0010
0000
0100
0000
0010
0000
0100
0001
,
1000
0000
0100
0000
0001
0000
0010
0100
0010
0100
0010
0100
0010
0100
0010
1000
,
0001
0000
0100
1000
0010
0000
0100
0000
1000
0000
0100
1000
0010
0000
0001
0000
,
0100
0000
0010
1000
0100
0000
0010
0000
1000
0100
1000
0000
0001
0010
0001
0000
,
0100
0000
0010
1000
0100
0000
0010
0000
0100
0000
1000
0001
0100
0000
0010
0000
,
0100
0000
0001
1000
0100
0000
0001
0000
0100
0000
1000
0000
0100
0000
0010
0100
,
2000
0010
0010
0010
,
3002
0000
0100
0000
0100
0000
0103
1000
,
0100
0010
0100
0010
0100
0010
0100
0010
,
1000
0001
0100
0000
0010
0000
0001
0000
0100
0000
0001
0000
0100
0000
0001
0000
,
1000
0000
0010
1000
0100
0000
0010
0000
1000
0000
0100
1000
0010
0000
0001
0000
,
0100
0000
0010
0001
0100
0000
0010
0000
0001
0000
0001
0000
1000
0000
1000
0000
,
0100
0000
0010
1000
0100
0000
0010
0000
1000
0000
0100
1000
0010
0000
0100
0000
,
0010
0000
0100
0001
0010
0000
0100
0000
0001
0000
0001
0000
1000
0000
1000
0001
,
2000
0010
0010
0010
,
3002
0000
0100
0000
0100
0000
0103
1000
,
0100
0010
0100
0010
1000
0100
0010
1000
,
1010
0000
0100
0000
0101
0000
0100
1000
0010
0001
0100
1000
0010
0001
1000
0000
,
2002
0000
0000
3000
0200
0000
0000
0300
,
0020
0000
0000
0003
2000
0000
0000
3000
,
0200
0000
0000
0300
0032
0000
0000
0000
,
0200
0000
0000
0000
0000
0000
0300
0000
2000
0000
0000
0000
0000
0000
0000
3003
,
0110
0000
0100
1000
0000
0000
1000
0000
1000
0000
0001
0100
0000
0000
0100
0000
0100
0000
1000
0010
0000
0000
0010
0000
0010
0000
0100
0001
0000
0000
0001
0000
,
0001
0000
0010
0100
0000
0000
0100
0000
0100
0000
1000
0010
0000
0000
0010
0000
0010
0000
0001
1000
0000
0000
1000
0000
1000
0000
0010
0001
0000
0000
0001
0000
,
0001
0000
0010
0100
0000
0000
0100
0000
0100
0000
1000
0010
0000
0000
0010
0000
0010
0000
0100
1000
0000
0000
1000
0000
1000
0000
0010
0001
0000
0000
0001
0000
,
0001
0000
1000
0100
0000
0000
0100
0000
0100
0000
1000
0010
0000
0000
0010
0000
0010
0000
0001
1000
0000
0000
1000
0000
1000
0000
0010
0001
0000
0000
0001
0000
,
0001
1000
0001
1000
0001
1000
0001
1000
0001
1000
0001
1000
0001
1000
0001
1000
0001
0000
0000
0000
0100
0000
0000
0000
0010
0000
0000
0000
0100
0000
0000
0000
,
0010
0000
1000
0100
0010
0000
0100
0000
0001
0000
0100
1000
0010
0000
1000
0000
,
0100
0000
0010
1000
0100
0000
0010
0000
2000
0000
3200
0000
0320
0000
0032
0000
,
0103
0010
0100
0010
1000
1000
0100
0100
,
0001
0000
0001
0000
0100
0000
0010
1000
1001
0000
0100
0000
0010
0000
1000
0000
,
0100
0000
0010
0000
0100
0000
0010
0100
1000
0000
0100
0000
0010
0000
0001
0010
,
0100
0010
0100
0010
0001
0010
0100
0010
,
0100
0010
1000
1000
1000
0100
0010
0100
,
0010
1000
0100
0001
0010
1000
0100
0010
0101
0000
0100
0000
0010
0000
0100
0000
,
0010
0000
1000
0100
0010
0000
1000
0000
1100
0000
0100
1000
0010
0000
0100
0000
,
0010
0000
0100
0010
0001
0000
0010
0000
0100
0000
0100
0010
0001
0000
0001
0000
,
1000
0000
0010
0001
0100
0000
1000
0000
0100
0000
0010
0000
0100
0000
0001
0000
,
0100
0000
1000
0000
1000
0000
0100
0001
1000
0000
0001
0000
0100
0000
0010
0000
,
0100
0001
0010
0100
0001
0100
0010
1000
,
0100
0010
0001
0100
0010
0100
0010
0100
,
1000
0100
0010
0001
0100
0010
0000
1000
,
0001
0000
0100
0000
0010
0000
0100
0000
0001
0000
0100
0010
0100
0010
0100
0010
,
1000
0000
0100
0001
0100
0001
0100
0001
1000
0000
1000
0010
1000
0010
0100
0010
,
0100
0000
1000
0100
0010
0001
0010
1000
0010
0000
0100
0010
0100
0010
0100
1000
,
0010
0000
1000
0010
0100
0010
0001
0010
0100
0000
0100
0010
0100
0010
0100
0010
,
0100
0000
1000
0100
0010
0001
0010
0100
0010
0000
0100
0010
0100
0010
0100
0010
,
0100
0000
0001
1000
0100
0010
0001
0010
0100
0000
0100
0010
0100
0010
0100
0010
,
0100
0000
1000
0100
0010
0001
0010
0100
1000
0000
0100
0010
0100
0010
0100
0010
,
0100
0000
1000
0100
0010
0001
0010
0000
0100
0000
0001
0010
0100
1000
0100
0010
,
0001
0000
0010
0000
0100
0000
1000
0000
0100
0000
0010
0000
0001
0000
0010
0000
1001
0000
0100
0010
0000
0000
0100
0000
0010
0000
1000
0001
0000
0100
0010
0000
,
0100
0000
0001
0010
0000
0100
0010
0000
0100
0000
0001
1000
0000
0010
0100
0000
0001
0000
1000
0010
0000
1000
0001
0000
0100
0000
1000
0100
0000
0010
0100
0000
,
0010
0000
0001
0010
0000
0100
0010
0000
0100
0000
0001
1000
0000
0010
0100
0000
0010
0000
1000
0001
0000
1000
0001
0000
1000
0000
1000
0100
0000
0100
0010
0000
,
0001
0000
0100
0010
0000
0100
0010
0000
0100
0000
0001
1000
0000
0010
0100
0000
0001
0000
1000
0010
0000
0100
0001
0000
1000
0000
1000
0100
0000
0010
0001
0000
,
0100
0000
0010
0100
0000
0010
1000
0000
0001
0000
0100
0010
0000
1000
0001
0000
0001
0000
0000
0000
0000
0000
0000
0000
0000
0000
0000
0000
0000
0000
0000
0000
;

//---------------dance-single - ----------------
#NOTES:
     dance-single:
     :
     Medium:
     12:
     0.528,0.661,0.056,0.127,0.428,443.000,7.000,16.000,0.000,0.000,0.000,0.528,0.661,0.056,0.127,0.428,443.000,7.000,16.000,0.000,0.000,0.000:
0000
0000
0000
0000
,
0000
0000
0000
0000
,
0000
0000
0000
0000
,
1010
0001
0100
0001
0100
0001
0100
0001
,
1000
0000
0001
0000
0010
0000
0100
0001
0100
0000
0100
0001
0100
0000
0100
1000
,
0010
0001
0100
0001
1000
0001
0100
0010
,
0001
0100
0001
0100
1000
1000
0010
0010
,
0001
0100
0001
0100
0001
1000
0001
0100
,
0001
0010
0001
0010
0001
1000
0001
0100
,
2000
0100
0100
0100
,
3020
0000
0001
0000
0001
0000
0031
1000
,
0001
0100
0001
0100
0001
0100
0001
0100
,
1000
0001
0100
0010
0001
0010
0001
0010
,
1000
0000
0100
1000
0000
0000
0100
0000
1000
0000
0001
1000
0000
0000
0010
0000
,
0001
0000
0100
0010
0000
0000
0100
0000
0010
0000
0010
0000
1000
0000
1000
0000
,
0001
0000
0100
1000
0000
0000
0100
0000
1000
0000
0001
1000
0000
0000
0001
0000
,
0100
0000
0001
0010
0000
0000
0001
0000
0010
0000
0010
0000
1000
0000
1000
0020
,
0000
0100
0100
0130
,
0020
0000
0001
0000
0001
0000
0031
1000
,
0001
0100
0001
0100
1000
0001
0100
1000
,
1100
0000
0001
0000
0011
0000
0001
1000
0100
0000
0000
1000
0000
0000
0010
0000
,
2000
0000
3002
0000
,
0203
0000
2300
0000
,
3002
0000
0023
0000
,
0032
0000
0000
0000
2003
0000
0000
3000
,
0101
0000
0000
1000
0000
0000
1000
0000
1000
0000
0000
0001
0000
0000
0001
0000
0001
0000
0000
0100
0000
0000
0100
0000
0100
0000
0000
0010
0000
0000
0010
0000
,
0010
0000
0000
0001
0000
0000
0001
0000
0001
0000
0000
0100
0000
0000
0100
0000
0100
0000
0000
1000
0000
0000
1000
0000
1000
0000
0000
0010
0000
0000
0010
0000
,
0010
0000
0000
0001
0000
0000
0001
0000
0001
0000
0000
0100
0000
0000
0100
0000
0100
0000
0000
1000
0000
0000
1000
0000
1000
0000
0000
0010
0000
0000
0010
0000
,
0010
0000
0000
0001
0000
0000
0001
0000
0001
0000
0000
0100
0000
0000
0100
0000
0100
0000
0000
1000
0000
0000
1000
0000
1000
0000
0000
0010
0000
0000
0010
0000
,
0010
1000
0010
0000
0010
1000
0010
0000
0010
1000
0010
0000
0010
1000
0010
1000
0010
0000
0000
0000
0001
0000
0000
0000
0100
0000
0000
0000
0001
0000
0000
0000
,
0100
1000
0100
0001
0010
0001
0100
1000
,
0001
0100
0001
0100
2000
3002
0203
0320
,
0031
0100
0001
0100
1000
1000
0001
0001
,
0010
0010
0001
0100
1010
0001
0100
1000
,
0001
0100
0001
0100
1000
0001
0100
0010
,
0001
0100
0001
0100
0010
0100
0001
0100
,
0001
0100
1000
1000
1000
0001
0100
0001
,
0100
1000
0001
0000
0100
1000
0001
0000
0011
0000
0001
0000
0100
0000
0001
0000
,
0100
1000
0100
1000
1001
0001
0100
0001
,
0100
0001
0010
0100
0001
0001
0010
0010
,
1000
0100
0001
1000
0001
0100
0001
0010
,
0001
1000
1000
0001
1000
0010
0001
0100
,
0001
0010
0100
0001
0010
0001
0100
1000
,
0001
0100
0010
0001
0100
0001
0100
0001
,
1000
0001
0100
0010
0001
0100
0000
1000
,
0010
0000
0001
0000
0100
0000
0001
0000
0010
0000
0001
0100
0000
0001
0100
0000
,
1000
0000
0001
0010
0000
0001
1000
0000
1000
0000
1000
0100
0000
0100
0001
0000
,
0001
0000
1000
0001
0100
0000
0100
1000
0100
0000
0001
0100
0000
0100
0001
0000
,
0100
0000
1000
0100
0000
0100
0010
0000
0001
0000
0001
0100
0000
0100
0001
0000
,
0100
0000
1000
0001
0000
0010
0100
0000
0100
0000
0001
0100
0000
0100
0001
0000
,
0001
0000
0010
1000
0000
0100
0010
0000
0001
0000
0001
0100
0000
0100
0001
0000
,
0001
0000
1000
0001
0000
0010
0100
0000
1000
0000
0001
0100
0000
0100
0001
0000
,
0001
0000
1000
0001
0000
0010
0100
0000
0001
0000
0010
0100
0001
1000
0001
0100
,
0010
0000
0100
0000
0001
0000
1000
0000
0001
0000
0100
0000
0010
0000
0100
0000
0001
0000
0100
0010
0000
0000
0000
0000
0000
0000
0000
0000
0000
0000
0000
0000
,
1000
0000
0010
1000
0000
0000
0000
0000
0000
0000
0000
0000
0000
0000
0000
0000
0100
0000
0100
0001
0000
0000
0000
0000
0000
0000
0000
0000
0000
0000
0000
0000
,
1000
0000
0010
1000
0000
0000
0000
0000
0000
0000
0000
0000
0000
0000
0000
0000
0100
0000
0001
0100
0000
0000
0000
0000
0000
0000
0000
0000
0000
0000
0000
0000
,
0100
0000
0010
1000
0000
0000
0000
0000
0000
0000
0000
0000
0000
0000
0000
0000
0001
0000
0100
0001
0000
0000
0000
0000
0000
0000
0000
0000
0000
0000
0000
0000
,
1000
0000
0010
1000
0000
0000
0000
0000
0000
0000
0000
0000
0000
0100
0000
0001
0000
0000
0000
0000
0000
0000
0000
0000
0000
0000
0000
0000
0000
0000
0000
0000
;

//---------------dance-single - ----------------
#NOTES:
     dance-single:
     :
     Easy:
     5:
     0.214,0.228,0.040,0.103,0.000,171.000,5.000,13.000,0.000,0.000,0.000,0.214,0.228,0.040,0.103,0.000,171.000,5.000,13.000,0.000,0.000,0.000:
0000
0000
0000
0000
,
0000
0000
0000
0000
,
0000
0000
0000
0000
,
0100
1000
1000
0001
,
0100
0010
0001
0001
,
0010
1000
0100
1000
,
0001
0001
0100
0010
,
0001
0001
0001
0001
,
1000
1000
1000
1000
,
0200
1000
0000
1300
,
0020
0001
0000
0031
,
0001
0001
0001
0001
,
0100
1000
0001
0001
,
0100
0000
0100
0000
,
0001
0000
0010
0100
,
0001
0000
0100
0000
,
1000
0000
0010
0100
,
0000
1000
0000
1000
,
0020
0001
0000
0031
,
0001
0001
0100
1000
,
1100
0011
1000
0000
,
0200
0300
0002
0003
,
2000
3000
0200
0300
,
0002
0003
0020
0030
,
0002
0003
0200
0300
,
1001
0100
0000
0001
,
0000
1000
0000
0010
,
0000
1000
0000
0010
,
0000
1000
0000
0010
,
0100
0100
0001
1000
,
1000
1000
0010
1000
,
0001
0000
0001
0000
0200
0300
2000
3000
,
0001
0001
0100
0001
,
0010
0001
0110
1000
,
0001
0001
0100
1000
,
0001
0001
0010
0001
,
0001
0100
0000
1000
,
1000
1000
0011
1000
,
1000
1000
0001
1000
,
1000
0010
0001
0010
,
0100
0001
0001
0001
,
0001
0100
0100
0001
,
0001
1000
0010
1000
,
0001
0010
1000
1000
,
0100
1000
0001
0000
,
0010
1000
0010
0000
,
0100
0000
0100
0000
,
0001
1000
1000
0000
,
1000
0000
0001
0000
,
1000
1000
1000
0000
,
0001
0000
0001
0000
,
0001
0010
0100
0000
,
0001
0000
0001
0001
,
0010
0001
0001
0000
,
0100
0000
1000
0000
,
0100
0000
1000
0000
,
1000
0000
0001
0000
,
0100
0000
0001
0000
;

//---------------dance-single - ----------------
#NOTES:
     dance-single:
     :
     Beginner:
     1:
     0.078,0.091,0.024,0.056,0.000,59.000,3.000,7.000,0.000,0.000,0.000,0.078,0.091,0.024,0.056,0.000,59.000,3.000,7.000,0.000,0.000,0.000:
0000
0000
0000
0000
,
0000
0000
0000
0000
,
0000
0000
0000
0000
,
0100
0000
0000
0000
,
0100
0000
0000
0000
,
0010
0000
0000
0000
,
0001
0000
0000
0000
,
0001
0000
0000
0000
,
0000
0000
0000
0000
,
0200
0000
0000
0300
,
0020
0000
0000
0030
,
0100
0000
0000
0000
,
0001
0000
0000
0000
,
0100
0000
0000
0000
,
0001
0000
0000
0000
,
0001
0000
0000
0000
,
1000
0000
0000
0000
,
0000
1000
0000
0000
,
0020
0000
0000
0030
,
0001
0000
0000
0000
,
1100
0000
0000
0000
,
0200
0300
0000
0000
,
2000
3000
0000
0000
,
0002
0003
0000
0000
,
0002
0003
0000
0000
,
1000
0000
0000
0001
,
0000
1000
0000
0010
,
0000
1000
0000
0010
,
0000
1000
0000
0010
,
0000
0000
0001
0000
,
0000
0000
1000
0000
,
0000
0000
0100
0000
,
0000
0000
0100
0000
,
0000
0000
0110
0000
,
0000
0000
0100
0000
,
0000
0000
0010
0000
,
0000
0000
1000
0000
,
0000
0000
0011
0000
,
0000
0000
0001
0000
,
0000
0000
0001
0000
,
0000
0000
0001
0000
,
0000
0000
0100
0000
,
0000
0000
0010
0000
,
0000
0000
1000
0000
,
0000
0000
0001
0000
,
0000
0000
0010
0000
,
0000
0000
0100
0000
,
0000
0000
1000
0000
,
0000
0000
0001
0000
,
0000
0000
1000
0000
,
0000
0000
0001
0000
,
0001
0000
0000
0000
,
0001
0000
0000
0000
,
0010
0000
0000
0000
,
0100
0000
0000
0000
,
0100
0000
0000
0000
,
1000
0000
0001
0000
,
0000
0000
0001
0000
;
