#TITLE:neogenesis;
#SUBTITLE:(FREEZE Special);
#ARTIST:DM Ashura;
#TITLETRANSLIT:;
#SUBTITLETRANSLIT:;
#ARTISTTRANSLIT:;
#CREDIT:;
#BANNER:neogenesis (FREEZE Special).png;
#BACKGROUND:neogenesis (FREEZE Special)-bg.png;
#LYRICSPATH:;
#CDTITLE:;
#MUSIC:neogenesis (FREEZE Special).mp3;
#OFFSET:-0.198;
#SAMPLESTART:100.030;
#SAMPLELENGTH:12.000;
#SELECTABLE:YES;
#BPMS:0.000=151.000;
#STOPS:;
#BGCHANGES:;

//---------------dance-single - ----------------
#NOTES:
     dance-single:
     :
     Challenge:
     14:
     0.593,0.759,0.168,1.000,0.441: // measure 1
0000
0000
0000
0000
,  // measure 2
0000
0000
0000
0000
,  // measure 3
0000
0000
0000
0000
,  // measure 4
0000
0000
0000
0000
,  // measure 5
0000
0000
1000
0001
2000
0000
0000
0000
0010
0000
0000
3000
0001
0000
0000
0200
,  // measure 6
0000
0000
0320
0000
2030
0000
0000
0000
0000
0000
0000
0000
3020
0000
0000
0230
,  // measure 7
0000
0302
2003
0000
0010
0000
0001
0000
,  // measure 8
0010
3000
0000
0000
0002
0000
0000
0000
0100
0000
0000
0000
1000
0000
0000
0000
,  // measure 9
0103
0000
1000
0010
2010
0000
0000
0000
3020
0000
0000
0000
0230
0000
0000
0320
,  // measure 10
0000
0000
2030
0000
3200
0000
0000
0320
0000
0000
0031
0000
0000
0000
0000
0100
,  // measure 11
0000
0000
0010
0000
1010
0000
0000
0100
0000
0000
0010
0000
0000
0001
0000
0010
,  // measure 12
0000
0100
0000
0000
0010
0000
1000
0000
0100
0000
0010
0000
0001
0000
0100
0000
,  // measure 13
0010
0000
1000
0000
1010
0000
0100
0000
0001
0000
0100
0000
0101
0000
0000
1000
,  // measure 14
0000
0000
0010
0000
0110
0000
0000
0100
0000
0000
0010
0000
0100
0000
0010
0000
,  // measure 15
0100
0000
0010
0100
0010
0000
0100
0000
0010
0000
0100
0000
0101
0000
0000
0000
,  // measure 16
0100
0000
0010
0000
0110
0000
0000
1000
0000
0000
0010
0000
0000
1000
0000
0000
,  // measure 17
0010
0000
0100
0001
2002
0000
0000
0000
0000
0000
0000
0000
0000
0000
0000
0000
,  // measure 18
0000
0000
0000
3000
0003
0000
1000
0010
1000
0010
0000
0000
1000
0000
0010
0000
,  // measure 19
0100
0000
0010
1000
0100
0010
0001
0100
,  // measure 20
0010
0100
0010
0100
0001
0100
0010
0100
,  // measure 21
0001
0000
0100
0000
0001
0000
1000
0001
1000
0001
1000
0001
0000
0000
0100
0000
,  // measure 22
0010
0000
0100
0000
0010
0000
1000
0010
1000
0010
1000
0000
0010
0000
0100
0000
,  // measure 23
0010
0100
0001
1000
0010
0100
0001
0100
,  // measure 24
0010
1000
1010
0100
0001
0010
0100
0001
,  // measure 25
0100
0000
0010
0100
0010
0000
1000
0000
0010
0000
0100
0001
0100
0000
0001
0100
,  // measure 26
0000
0000
1010
0000
0010
0000
0101
0000
0100
0000
0010
1000
0010
0000
0101
0000
,  // measure 27
0100
0000
1010
0000
0001
0000
0000
0000
0100
0000
0000
0000
0010
0000
0000
0100
,  // measure 28
0000
0000
0002
2003
0020
0000
0000
0000
0000
0030
0020
3000
0000
0000
0200
0030
,  // measure 29
0000
0000
0301
0000
2000
0000
0000
0000
0000
0000
0000
0000
0000
0000
0000
3000
,  // measure 30
0020
0032
0000
0000
0000
0000
0000
0000
,  // measure 31
0000
0000
0013
2000
3020
0000
0000
0000
0000
0000
0230
0000
0000
0000
0000
0000
,  // measure 32
0000
0000
0000
0000
0000
0000
0000
0000
0000
0302
0000
2003
0000
0000
0000
3020
,  // measure 33
0000
0230
0302
0000
0000
0000
0000
0000
,  // measure 34
0203
0000
0020
0300
0000
0000
0000
0000
0000
0000
0000
2030
0000
0000
0000
0000
,  // measure 35
3020
0032
0023
0000
0000
0000
0000
0000
,  // measure 36
0000
0000
0000
0000
0000
0000
0000
0000
0000
2030
3020
0230
0000
0000
0000
0000
,  // measure 37
0320
0000
2030
0000
0000
0000
0000
3002
,  // measure 38
0203
0000
0020
0300
0000
0000
2000
0030
0000
0000
3020
0000
0000
0000
0230
0000
,  // measure 39
0000
0000
0320
0000
0000
0000
0000
0000
0000
0000
0000
0000
0000
0000
0000
2030
,  // measure 40
0000
3200
0000
0000
0000
0000
0000
0000
0000
0000
0000
0300
0020
0000
0000
0032
,  // measure 41
0000
0000
0023
0000
0230
0000
0000
0000
0000
0000
0000
0000
0000
0000
0000
2000
,  // measure 42
0300
3200
0000
0000
0000
0000
0000
0000
0000
0310
1000
0020
0000
0000
0000
0000
,  // measure 43
0000
0030
0100
0010
0200
0000
0300
0000
1000
0000
0010
1000
0020
0000
0000
0130
,  // measure 44
0000
0001
0002
0203
0320
0230
0302
0203
,  // measure 45
0320
0000
0130
0010
0200
0000
0310
0000
1000
0000
0001
1000
0002
0000
0000
0103
,  // measure 46
0000
0000
0010
0000
0100
0000
2001
0000
3200
0000
0320
0000
0032
0000
0000
0103
,  // measure 47
0000
0000
0010
0100
0020
0000
0000
1030
0000
0000
0100
0010
0200
0000
1300
0000
,  // measure 48
0000
0100
0000
0120
0000
1030
0000
0100
0000
0000
0001
0100
0002
0000
0103
0000
,  // measure 49
0000
0010
0000
2010
0000
3200
0000
0302
0000
0023
1000
0130
0000
0000
0010
0000
,  // measure 50
0000
0100
0000
0101
0000
1000
0000
0100
0000
0000
0010
1000
0010
0000
1000
0000
,  // measure 51
0000
0001
0000
1000
0000
0001
1000
0000
0000
0010
0100
0000
0001
1000
0000
0010
,  // measure 52
0100
0000
0001
1000
0000
0010
0100
0000
0001
1000
0000
0100
0010
0000
0001
1000
,  // measure 53
0002
0200
0000
0000
0000
0000
0000
0000
0000
0000
0000
0000
0000
0000
0000
0000
,  // measure 54
0300
2000
0000
0000
0000
0000
0000
0000
,  // measure 55
3003
0000
1000
0010
2000
0000
0000
0000
0000
0000
0000
0000
3020
0000
0000
0230
,  // measure 56
0000
0000
0302
0000
2003
0000
0000
3020
0000
0230
0000
0000
0000
0000
0000
0000
,  // measure 57
0302
0000
0023
0000
0230
0000
0000
0000
0000
0000
0310
1000
0020
0000
0000
0000
,  // measure 58
0000
0000
0000
0000
,  // measure 59
0000
1030
0010
0200
0000
0000
0000
0000
0000
0000
0000
0000
0310
0000
2000
0000
,  // measure 60
0000
0000
3001
0000
0200
0000
0000
0000
0000
0000
0000
0320
0000
0000
2000
0030
,  // measure 61
0000
0000
3100
0020
0000
0000
0000
0000
0000
0000
0000
0000
0000
0000
0000
0000
,  // measure 62
0000
0000
0000
0000
0000
0000
0000
0000
0000
0000
0000
0001
0000
0000
0000
0001
,  // measure 63
0030
0000
0001
0100
0002
0000
0000
0000
0000
0000
0000
2000
0003
0000
0020
3000
,  // measure 64
0000
0000
0130
0000
0002
0000
2003
0000
3000
0020
0000
0000
0000
0000
0000
0130
,  // measure 65
0000
1000
0001
0020
0000
0000
0000
0000
0000
0000
0230
0000
0000
0000
0000
0000
,  // measure 66
0000
0000
0000
0000
,  // measure 67
0000
0300
1000
0100
0020
0000
0000
0000
0000
0000
0000
0000
1030
0000
0000
0001
,  // measure 68
0000
0100
0220
0000
0000
0000
0000
0000
,  // measure 69
0330
0000
0010
1000
2020
0000
0000
0000
0000
3030
0010
0100
0020
0000
0000
0000
,  // measure 70
0000
0000
0000
0000
1030
0000
0000
0002
0000
0000
0103
0000
0000
0010
0000
0000
,  // measure 71
0100
0010
2002
0000
0000
0000
0000
0000
,  // measure 72
0000
0000
0000
0000
,  // measure 73
0000
3003
0000
0000
;
