#TITLE:mosaic;
#SUBTITLE:;
#ARTIST:Auridy;
#TITLETRANSLIT:;
#SUBTITLETRANSLIT:;
#ARTISTTRANSLIT:;
#CREDIT:;
#BANNER:mosaic-banner.png;
#BACKGROUND:mosaic-background.png;
#LYRICSPATH:;
#CDTITLE:;
#MUSIC:132. mosaic.mp3;
#OFFSET:-2.272;
#SAMPLESTART:0.050;
#SAMPLELENGTH:12.000;
#SELECTABLE:YES;
#BPMS:0.000=188.000,66.000=94.000,67.000=188.000,69.000=94.000,70.000=188.000,72.000=94.000,73.000=188.000,79.000=94.000,80.000=188.000,82.000=94.000,83.000=188.000,85.000=94.000,86.000=188.000,140.000=94.000,141.000=188.000,143.000=94.000,144.000=188.000,146.000=94.000,147.000=188.000,153.000=94.000,154.000=188.000,156.000=94.000,157.000=188.000,159.000=94.000,160.000=188.000,182.000=376.000,190.000=188.000;
#STOPS:;
#BGCHANGES:;

//---------------dance-single - ----------------
#NOTES:
     dance-single:
     :
     Hard:
     18:
     1.000,1.000,1.000,0.047,0.370:
2200
0000
0000
3300
0110
1000
0101
0100
,
0110
0100
0110
0100
0110
1000
0001
0100
,
0011
0100
0010
0100
0110
0100
0110
0100
,
0010
0100
0010
0100
0010
1000
0100
0010
,
0100
0110
0100
0110
0100
0001
1000
0010
,
0100
0001
1000
0010
0100
0010
0100
0001
,
0100
0010
0100
0001
1010
0100
0010
0100
,
0001
0100
0010
1000
0010
1010
1010
1010
,
1010
0100
0010
0100
0110
0110
0110
0110
,
0110
0110
0110
0110
0011
0011
0011
0011
,
0100
0010
0100
0010
0110
0000
1000
0100
,
0010
1000
0001
0100
0010
1000
0100
0010
,
0001
0100
0010
0001
0011
0011
0011
0011
,
0110
0110
0110
0110
1100
1100
1100
0100
,
0100
0010
0100
0010
0100
0000
1000
0100
,
0000
0010
0001
0010
0100
1000
0100
0010
,
0001
0000
0010
0000
0100
0000
1000
0000
0100
0010
1000
0001
0100
0010
0001
0000
,
0100
0000
0001
0000
1000
0010
0100
0001
1000
0100
0010
0000
1000
0000
0010
0000
,
0100
0001
0100
0010
0100
0010
0001
0000
0100
0000
0001
0000
0100
0000
0010
0000
,
1000
0000
0100
0000
0010
0000
0001
0000
0010
0000
0100
0000
1000
0110
0010
0100
,
1000
0001
0100
0000
0010
0000
0001
0000
0100
0010
0100
1000
0100
0001
0010
0000
,
0001
0000
0010
0000
0100
1000
0100
0010
0001
0010
0100
0000
0010
0000
0001
0000
,
0010
0010
0010
0010
0010
0010
0010
0010
,
1100
0000
1010
0000
1001
0000
1010
0000
1000
0001
1000
0001
1000
0001
1000
0001
,
1010
0000
0110
0000
0101
0000
0110
0000
0100
0010
0100
0010
0100
0010
0100
0000
,
0110
1010
0011
0110
0010
0010
0010
0010
,
1001
0000
0101
0000
0011
0000
0101
0000
0001
1000
0001
1000
0001
1000
0001
0000
,
1000
0000
0100
0000
0010
0000
0001
0000
1000
0100
0001
0000
1000
0000
0001
0000
,
0100
0000
0010
0000
0100
0000
0010
0000
1000
0010
0001
0000
1000
0000
0001
0000
,
0100
0000
0010
0000
0001
0000
0010
0000
0100
1000
0010
0000
0100
0000
1010
0000
,
0100
0010
0001
0010
0100
0010
0100
0010
,
1000
0000
0100
0000
0010
0000
0001
0000
0100
0010
0001
0000
0100
0000
0001
0000
,
0100
0000
0010
0000
1000
0000
0100
0000
0010
1000
0001
0000
0010
0000
0100
0000
,
1000
0000
0100
0000
0010
0000
0001
0000
0010
0001
0100
0000
1000
0000
0100
0000
,
0010
1010
1010
1010
1010
0100
0010
0100
,
0001
0001
0001
0001
1000
0100
0010
0000
1000
0000
0010
0000
0100
0010
0100
0010
,
0100
0010
0100
0000
0100
0000
0100
0000
0010
0100
0010
0100
0010
0100
0010
0000
,
0010
0010
0001
0010
0001
0010
0001
0010
,
0001
0000
0010
0000
0100
0100
0100
0100
0010
0100
1000
0000
0010
0000
1000
0000
,
0010
0010
0010
0010
0100
0010
0001
0000
0100
0000
0001
0000
0010
0010
0001
0001
,
0010
1000
0010
0000
0001
0000
0001
0000
1001
0000
0100
0000
0001
0000
0100
0000
,
0001
0100
0001
0100
1010
1000
0010
0100
,
0010
0001
0100
0010
1010
0110
0011
1001
,
0110
1001
1100
0101
1010
0011
0110
0220
,
0000
0000
0030
0310
1000
0010
0100
0001
,
0000
0100
0000
0010
2000
0000
0000
0000
,
0000
0000
0000
0000
,
0000
0000
3001
0100
,
0010
0000
0000
0000
1000
0000
0010
0000
0100
0000
0010
0000
1000
0100
0010
0100
,
0010
0001
0010
0100
0010
0100
0010
0100
1000
0000
0100
0000
0010
0000
0001
0000
,
1001
0100
0010
0100
0010
1000
1000
1000
,
1000
0000
0100
0000
0100
0000
0100
0000
0010
0000
0010
0001
0010
1000
0100
0010
,
0001
0010
0001
1000
0100
0001
0010
0000
0100
0000
0010
0000
1000
0000
1000
0000
,
1000
0000
0100
0000
0100
0000
0100
0000
0010
0000
0010
0100
1000
0100
0001
0010
,
1000
0100
0010
0001
0010
1000
0100
0000
0001
0000
1000
0000
1000
0000
1000
0000
,
1000
0001
0001
0001
0110
0110
0011
0011
,
1100
0000
1100
0000
1001
0000
1001
0000
0100
0000
0100
1000
0010
0100
0010
0001
,
1000
0100
0010
1000
0001
0100
0010
0000
0100
0000
0010
0000
0100
0000
0001
0000
,
1000
0100
0010
0001
0100
0010
0100
0010
,
0100
0001
0001
0001
1010
1010
0110
0110
,
0101
0101
0011
0011
1000
1000
0100
0100
,
0010
0010
0001
0001
0001
0000
0001
0001
,
0000
0001
0001
0001
0000
0100
0100
0100
,
0010
0000
0001
0000
1001
1001
1001
1001
,
0101
0101
0101
0101
0110
0110
0110
0110
,
1001
1001
1001
1001
1100
1100
1100
1100
,
0110
0110
0110
0110
0011
0011
0011
0011
,
0101
0101
0101
0101
1010
0101
1010
0101
,
1010
0101
1010
0101
1010
0101
1010
0100
,
0001
0100
0001
0100
0001
0100
0001
0000
0101
0000
0000
0000
0110
0000
1001
0000
,
0000
0110
0011
0110
0000
0110
1100
0110
,
1001
0000
0101
0000
0101
0101
0101
0101
,
1001
0100
0001
1000
1001
1001
1001
1001
,
0101
0101
0101
0101
0000
1010
1010
1010
,
1010
1001
0000
0000
;

//---------------dance-single - ----------------
#NOTES:
     dance-single:
     :
     Medium:
     13:
     0.650,0.591,0.066,0.037,0.000:
0220
0330
1000
0001
,
0100
0000
0010
1000
0001
0100
0010
0100
,
0001
0000
0100
0000
1000
0000
1000
1000
,
0000
0100
0010
0100
0000
1000
0100
0010
,
0001
0100
0000
0100
1000
0100
0010
0000
,
0100
0000
0001
0100
0000
0010
0000
1000
,
0100
0010
0001
0000
0100
0000
0010
1000
,
0000
0001
0100
0010
0000
1000
1000
1000
,
1000
0000
0000
0000
0010
0010
0100
0100
,
0001
0001
1000
1000
0010
0100
0010
0100
,
0001
0001
0001
0001
1000
0000
0010
0100
,
0000
0001
1000
0010
0000
0100
1000
0100
,
0010
0001
0100
0010
1000
0010
1000
0010
,
0100
0010
0100
0010
0100
0001
0100
0001
,
1000
0010
0100
0001
0100
0000
1000
0100
,
0000
0010
1000
0001
0000
0100
0010
1000
,
0001
0000
0100
0000
1000
0001
1000
0000
,
0010
0000
0100
0001
1000
0000
0001
0000
,
1000
0010
0100
0000
0001
0000
1000
0100
,
0010
0001
0100
0010
0100
0001
1000
0001
,
1000
0000
0010
0000
0100
1000
0001
0000
,
1000
0000
0010
1000
0001
0000
0100
0000
,
0010
1000
0100
0010
0001
0010
0100
1000
,
0100
0010
0100
0010
0000
0100
0100
0100
,
1000
0100
0010
0001
0000
0010
0010
0010
,
0100
0001
0100
0010
0000
1000
1000
1000
,
0100
0010
0100
0010
0000
0100
0010
0000
,
1000
0100
0010
0001
0010
0100
0010
0100
,
0001
1000
0100
0010
1000
0010
1000
0010
,
0100
0010
0100
0010
0001
0010
0001
0010
,
0100
0000
1000
0000
0100
0100
0000
0100
,
1000
0100
0010
0000
0100
0001
0100
0000
,
1000
0100
0010
0000
0100
0001
0100
0010
,
1000
0100
0010
0000
0100
0001
0100
0010
,
0000
1000
0100
0010
0001
0000
0100
0000
,
1000
0001
1000
0010
0100
0010
1000
0001
,
1000
0010
1000
0010
1000
0001
0100
0010
,
0100
0010
1000
0001
0100
0010
1000
0100
,
0010
0001
1000
0001
1000
0010
0100
0010
,
1000
0001
0100
0010
0100
0010
1000
0001
,
0100
0010
0100
0010
1000
0100
0010
0001
,
0100
0010
0100
0001
1000
0100
0010
0001
,
0100
0010
0100
0001
1000
0100
0010
0001
,
1000
0100
0010
0001
1000
0100
0010
0001
,
0000
0000
0000
0001
0010
0100
1000
0000
,
0001
0000
2002
0000
,
0000
0000
0000
0000
,
0000
0000
0000
0003
3000
0000
0100
0000
,
0010
0000
1000
0100
0000
0010
0000
1000
,
0100
0010
0001
0000
0100
0000
0010
0100
,
0000
1000
0100
0010
0000
1000
0100
0010
,
0001
0100
0000
0010
0100
0000
0010
0000
,
0100
0000
1000
0100
0010
0001
0100
0010
,
0100
0000
0001
0000
1000
0000
0010
0100
,
0000
1000
0100
0010
0000
1000
0100
0010
,
0001
0010
0100
0010
1000
0100
0010
0100
,
1000
0100
0010
0100
1000
0100
0010
0001
,
0100
0010
0100
0010
0100
0000
0100
0100
,
0000
0010
0100
0010
0000
0100
0010
0100
,
0010
1000
0010
0100
1000
0001
0100
0010
,
0100
0010
0100
0010
1000
0100
0010
0001
,
0100
0001
0100
0001
0101
0000
0100
0110
,
0000
0100
0010
0110
0000
1000
0010
0100
,
0010
0000
0110
0000
1000
0100
0010
0001
,
0100
1000
0100
0010
0100
0010
0100
0001
,
1000
0100
0010
0001
0100
0000
0010
0100
,
0000
0001
1000
0010
0000
0100
0001
1000
,
0010
0100
0001
0010
1000
1000
0100
0100
,
0100
0100
0100
0100
0010
0010
0010
0010
,
0100
0001
0100
0001
0100
0000
0010
0010
,
0000
1000
1000
0001
0000
0100
0010
0100
,
0010
0000
1000
0000
0000
1000
0100
0010
,
0001
0000
0100
0000
1000
0100
0010
0001
,
0100
0010
1000
0010
0000
0100
0001
1000
,
0010
0101
0000
0000
;

//---------------dance-single - ----------------
#NOTES:
     dance-single:
     :
     Easy:
     7:
     0.396,0.417,0.019,0.037,0.000:
2002
3003
0100
0010
,
1000
0001
0100
0010
,
1000
1000
0001
0001
,
0100
0100
0010
0010
,
1000
1000
0100
0100
,
0010
0010
1000
1000
,
0001
0001
0100
0100
,
0010
0010
1000
1000
,
1000
0000
0010
0010
,
0010
0010
1000
1000
,
1000
1000
0100
0100
,
0010
0010
0100
0100
,
0010
0010
1000
1000
,
1000
1000
0001
0001
,
0001
0001
1000
0001
,
1000
0001
0100
0010
,
0100
0000
0010
0000
1000
0001
1000
0000
,
0010
0000
1000
0001
1000
0000
0010
0000
,
0100
0001
1000
0000
0100
0000
0010
0000
,
0001
0000
0010
0000
0100
0000
1000
0100
,
0010
0000
0001
0000
0010
0100
1000
0000
,
0100
0000
0010
1000
0001
0000
1000
0000
,
0010
0100
1000
0100
,
0010
0001
0010
0100
,
0001
0001
0001
0001
,
1000
1000
1000
1000
,
0001
0001
0001
0001
,
1000
0100
0010
0001
,
0100
0010
1000
1000
,
0100
0010
0001
0001
,
0010
0100
0001
1000
,
0010
0010
0100
0100
,
0001
0001
1000
1000
,
0100
0100
0010
0010
,
0001
0001
0001
0001
,
1000
0001
1000
0000
0010
0000
0100
0001
,
1000
0000
0100
0000
0010
1000
0001
0000
,
0100
0010
1000
0100
,
0010
0000
1000
0001
0100
0000
0010
0000
,
0100
0010
1000
0000
0100
0000
0010
1000
,
0001
0100
1000
0100
,
0010
0001
0010
0001
,
0010
0100
0001
0001
,
1000
1000
0100
0100
,
0010
0010
0001
0001
,
0001
0001
2002
0000
,
0000
0000
0000
0000
,
0000
0000
3003
0100
,
0010
1000
0010
0100
,
1000
0100
0010
0001
,
0010
0001
0100
0010
,
0100
0010
1000
1000
,
0100
0100
0010
0010
,
0001
0001
0100
0100
,
0010
0010
1000
1000
,
0100
0100
0010
1000
,
0010
1000
0010
0001
,
0010
0001
0100
0010
,
0100
0010
0100
0001
,
0100
0010
1000
0100
,
0010
0001
0100
0010
,
1000
0000
0001
0000
0100
0000
0000
0100
,
0000
0000
0000
0100
0000
0000
0000
0000
,
0100
0000
1000
0100
,
1000
0100
0010
0100
,
0010
0100
0001
0001
,
0001
0001
0100
0100
,
0100
0100
1000
1000
,
0100
0100
0010
0010
,
0001
0000
0001
0000
1000
0000
0000
0001
,
0000
0000
0000
1000
0000
0000
0001
0000
,
1000
0000
0000
0000
0000
0001
0000
0000
,
1000
0000
0001
0000
0000
1000
0000
0000
,
0001
0000
0000
1000
0000
0001
0000
0000
,
1000
0001
0000
0000
;

//---------------dance-single - Copied from----------------
#NOTES:
     dance-single:
     Copied from:
     Beginner:
     4:
     0.229,0.278,0.037,0.019,0.000:
1001
0000
1000
0000
,
0000
0000
0001
0000
,
1000
0000
0001
0000
,
1000
0000
0000
0000
,
0010
0000
1000
0000
,
0001
0000
0100
0000
,
0010
0000
1000
0000
,
0001
0000
0000
0000
,
0001
0000
1000
0000
,
0001
0000
1000
1000
,
1000
0000
0010
0000
,
0100
0000
0010
0000
,
0001
0000
1000
1000
,
0001
0001
0100
0100
,
0010
0010
1000
0000
,
0001
1000
0000
0000
,
0000
0000
1000
0001
,
0000
0100
0010
0000
,
1000
0001
0000
0100
,
0010
1000
0001
0100
,
0010
0000
1000
0001
,
0000
0100
0010
0000
,
1000
0000
0000
0000
,
0001
0000
0000
0000
,
1000
1000
0000
0000
,
0001
0001
0000
0000
,
1000
1000
0000
0000
,
1000
1000
0010
0010
,
0100
0100
0010
0010
,
0000
1000
0000
0001
,
0000
0000
0000
0000
,
1000
1000
0001
0001
,
1000
1000
0001
0001
,
0100
0100
0000
0000
,
0000
0000
0100
0100
,
1000
0010
0000
0100
,
0010
0000
1000
0001
,
0000
1001
0000
0000
,
0000
1000
0001
0000
,
1000
0001
0000
0100
,
0010
0000
1000
0000
,
0000
0000
0001
0001
,
0000
0000
1000
1000
,
0010
0010
0100
0100
,
0000
0000
1000
0000
,
0000
0000
2002
0000
,
0000
0000
0000
0000
,
0000
0000
3003
0000
,
0100
0000
0010
1000
,
0010
1000
0010
0000
,
0001
0000
0001
0000
,
0100
0010
0100
0000
,
0010
0000
0001
0000
,
1000
0001
1000
0000
,
0010
0000
0100
0000
,
0000
0000
1000
0001
,
1000
0001
0100
0010
,
0000
0000
1000
0000
,
0001
0000
1000
0000
,
0001
0000
1000
1000
,
0001
0001
1000
1000
,
0001
0000
0100
0000
,
0010
0000
0100
0000
,
0010
0000
1000
1000
,
0100
0100
0010
0010
,
0000
0000
1000
0000
,
0001
0000
1000
0000
,
0001
0000
1000
0000
,
0001
0000
1000
0000
,
0010
0000
1000
0000
,
0100
0000
0100
0000
,
0100
0000
0000
0000
,
1000
0000
0000
0000
,
0010
0000
0000
0000
,
1000
1001
0000
0000
;

//---------------dance-single - Copied from----------------
#NOTES:
     dance-single:
     Copied from:
     Challenge:
     19:
     1.000,1.000,1.000,0.037,0.468: // measure 1
0022
0000
0000
0033
0110
0001
1010
0010
,  // measure 2
0110
0010
0110
0010
0110
0001
1000
0010
,  // measure 3
1100
0010
0100
0010
0110
0010
0110
0010
,  // measure 4
0100
0010
0100
0010
0100
0001
0010
0100
,  // measure 5
0010
0110
0010
0110
0010
1000
0001
0100
,  // measure 6
0010
1000
0001
0100
0010
0100
0010
1000
,  // measure 7
0010
0100
0010
1000
0101
0010
0100
0010
,  // measure 8
1000
0010
0100
0001
0100
0101
0101
0101
,  // measure 9
0101
0010
0100
0010
0110
0110
0110
0110
,  // measure 10
0110
0110
0110
0110
1100
1100
1100
1100
,  // measure 11
0010
0100
0010
0100
0110
0000
0001
0010
,  // measure 12
0100
0001
1000
0010
0100
0001
0010
0100
,  // measure 13
1000
0010
0100
1000
1100
1100
1100
1100
,  // measure 14
0110
0110
0110
0110
0011
0011
0011
0010
,  // measure 15
0010
0100
0010
0100
0010
0000
0001
0010
,  // measure 16
0000
0100
1000
0100
0010
0001
0010
0100
,  // measure 17
1000
0000
0100
0000
0010
0000
0001
0000
0110
0101
1001
1010
0010
0100
1000
0000
,  // measure 18
0010
0000
1000
0000
1001
0110
0011
1001
0001
0010
0100
0000
0001
0000
0100
0000
,  // measure 19
1010
1010
0011
0110
0010
0100
1000
0000
0010
0000
1000
0000
0010
0000
0100
0000
,  // measure 20
0001
0000
0010
0000
0100
0000
1000
0000
0100
0000
0010
0000
0001
0110
1100
0110
,  // measure 21
0011
1000
0010
0000
0100
0000
1000
0000
0110
1100
0011
1001
0010
1000
0100
0000
,  // measure 22
1000
0000
0100
0000
0010
1001
0110
0110
1000
0100
0010
0000
0100
0000
1000
0000
,  // measure 23
0100
0100
0100
0100
0100
0100
0100
0100
,  // measure 24
0011
0000
0101
0000
1001
0000
0101
0000
0001
1000
0001
1000
0001
1000
0001
1000
,  // measure 25
0101
0000
0110
0000
1010
0000
0110
0000
0010
0100
0010
0100
0010
0100
0010
0000
,  // measure 26
0110
0101
1100
0110
0100
0100
0100
0100
,  // measure 27
1001
0000
1010
0000
1100
0000
1010
0000
1000
0001
1000
0001
1000
0001
1000
0000
,  // measure 28
0001
0000
0010
0000
0100
0000
1000
0000
0001
0010
1000
0000
0001
0000
1000
0000
,  // measure 29
0010
0000
0100
0000
0010
0000
0100
0000
0001
0100
1000
0000
0001
0000
1000
0000
,  // measure 30
0010
0000
0100
0000
1000
0000
0100
0000
0010
0001
0100
0000
0010
0000
0101
0000
,  // measure 31
0010
0100
1000
0100
0010
0100
0010
0100
,  // measure 32
0001
0000
0010
0000
0100
0000
1000
0000
0010
0100
1000
0000
0010
0000
1000
0000
,  // measure 33
0010
0000
0100
0000
0001
0000
0010
0000
0100
0001
1000
0000
0100
0000
0010
0000
,  // measure 34
0001
0000
0010
0000
0100
0000
1000
0000
0100
1000
0010
0000
0001
0000
0010
0000
,  // measure 35
0100
0101
0101
0101
0101
0010
0100
0010
,  // measure 36
1100
1010
1001
1000
0001
0010
0100
0000
0001
0000
0100
0000
1010
0110
0011
1100
,  // measure 37
0010
0100
0010
0000
0010
0000
0010
0000
1100
0011
0110
1010
0100
0010
0100
0000
,  // measure 38
0100
0100
1000
0100
1000
0100
1000
0100
,  // measure 39
1000
0000
0100
0000
0011
0110
1010
0011
0100
0010
0001
0000
0100
0000
0001
0000
,  // measure 40
0110
0101
0110
1100
0010
0100
1000
0000
0010
0000
1000
0000
0110
0110
1001
1001
,  // measure 41
0100
0001
0100
0000
1000
0000
1000
0000
1001
0000
0010
0000
1000
0000
0010
0000
,  // measure 42
1000
0010
1000
0010
0101
0001
0100
0010
,  // measure 43
0100
1000
0010
0100
0101
0110
1100
1001
,  // measure 44
0110
1001
0011
1010
0101
1100
0110
0220
,  // measure 45
0000
0000
0300
0130
0001
0100
0010
1000
,  // measure 46
0000
0010
0000
0100
1000
0100
1000
0100
,  // measure 47
0010
0100
0010
0001
0010
0100
1000
0100
,  // measure 48
0010
1000
0100
0010
1100
0010
0110
1000
,  // measure 49
0110
0000
1000
0000
0011
0000
0100
0000
1010
0000
0100
0000
0011
0010
0100
0010
,  // measure 50
0100
1000
0100
0010
0100
0010
0100
0010
0001
0000
0010
0000
0100
0010
1000
0100
,  // measure 51
0010
0001
0010
1000
0100
0001
0010
0000
0100
0000
1001
0000
0101
0000
0011
0000
,  // measure 52
0101
0000
0110
0000
0110
0000
0110
0000
0100
0000
0100
1000
0100
0001
0010
0100
,  // measure 53
1000
0100
1000
0001
0010
1000
0100
0000
0010
0000
0100
0010
0001
1000
0001
0100
,  // measure 54
0001
1000
0010
0100
0010
0001
0010
0000
0100
0000
0100
0010
0001
0010
1000
0100
,  // measure 55
0001
0010
0100
1000
0100
0001
0010
0000
1000
0000
0011
0000
0011
0000
0101
0000
,  // measure 56
0101
1000
1000
1000
0110
0110
1100
1100
,  // measure 57
0011
0000
0011
0000
1001
0000
1001
0000
0010
0000
0010
0001
0100
0010
0100
1000
,  // measure 58
0001
0010
0100
0001
1000
0010
0100
0000
0010
0000
0100
0000
0010
0000
1000
0100
,  // measure 59
0001
1000
0010
0001
0100
0010
1000
0000
0010
0000
0100
0000
0010
0000
0100
0000
,  // measure 60
0010
1000
1000
1000
0101
0101
0110
0110
,  // measure 61
1010
0000
1010
0000
1100
0000
1100
0000
0001
0100
0001
1000
0010
0100
0010
0001
,  // measure 62
0100
0010
0100
0000
1100
0000
1100
0000
1100
0000
0000
0000
1010
0000
1010
0000
,  // measure 63
0000
1001
1001
1001
0000
0110
1010
0011
,  // measure 64
0110
0000
1000
0000
1001
1001
1001
1001
,  // measure 65
1010
1010
1010
1010
0110
0110
0110
0110
,  // measure 66
1001
1001
1001
1001
0011
0011
0011
0011
,  // measure 67
0110
0110
0110
0110
1100
1100
1100
1100
,  // measure 68
1010
1010
1010
1010
0101
1010
0101
1010
,  // measure 69
0101
1010
0101
1010
0101
1010
0101
0010
,  // measure 70
1000
0010
1000
0010
1000
0010
1000
0000
1010
0000
0000
0000
0110
0000
1001
0000
,  // measure 71
0000
0110
1100
0110
0000
0110
0011
0110
,  // measure 72
1001
0000
1010
0000
1010
1010
1010
1010
,  // measure 73
1001
0000
0010
0000
1000
0000
0001
0000
1001
0000
1001
0100
1001
0000
1001
0000
,  // measure 74
1010
1010
1010
1010
0000
0101
0101
0101
,  // measure 75
0101
1001
0000
0000
;
