#TITLE:evans;
#SUBTITLE:;
#ARTIST:DJ YOSHITAKA;
#TITLETRANSLIT:;
#SUBTITLETRANSLIT:;
#ARTISTTRANSLIT:;
#GENRE:;
#CREDIT:;
#BANNER:evans.png;
#BACKGROUND:evans-bg.png;
#LYRICSPATH:;
#CDTITLE:;
#MUSIC:evans.mp3;
#OFFSET:-0.212;
#SAMPLESTART:0.010;
#SAMPLELENGTH:12.000;
#SELECTABLE:YES;
#BPMS:0.000=185.000
,179.500=370.000
,183.500=185.000
;
#STOPS:34.000=0.081,
34.500=0.081,
179.500=0.649,
201.500=0.081,
202.000=0.081,
202.500=0.324,
232.000=0.081,
232.500=0.081,
249.500=0.162,
280.500=0.324
;
#BGCHANGES:;
#KEYSOUNDS:;
#ATTACKS:;

//---------------dance-single - ----------------
#NOTES:
     dance-single:
     :
     Hard:
     16:
     0.879,1.000,1.000,0.072,0.606,559.000,113.000,8.000,0.000,0.000,0.000,0.879,1.000,1.000,0.072,0.606,559.000,113.000,8.000,0.000,0.000,0.000:
0000
0000
0000
0000
,
1000
0010
1000
0010
0000
0000
0100
0000
,
0010
1010
0000
0000
0101
0000
0101
0000
,
0101
0000
1000
0010
1010
0000
0100
0000
,
0010
0000
0000
0000
0100
0000
0000
0000
0010
1000
0010
0000
1000
0010
1000
0000
,
1010
0000
0110
0000
1000
0100
0010
0001
,
0100
0101
0000
0000
1010
0000
1010
0000
,
0110
0100
0010
0100
1001
0100
0010
1000
,
0110
1010
0000
0000
0101
0110
0101
1000
,
0000
0110
0000
1000
0100
0010
0100
0001
,
0100
0000
0010
0000
0000
0000
0001
0010
0100
0000
0010
0000
0001
0000
1000
0000
,
0000
0010
0000
0100
0010
0100
0010
1000
,
1010
0000
0000
0101
0000
0110
0000
1010
,
0000
1010
0000
0100
0010
0001
0010
0110
,
0000
0000
0110
0000
0000
0000
1000
0100
0010
0000
0100
0000
0001
0000
1010
0000
,
0000
0100
0000
0110
0000
0001
0000
1010
,
0100
0010
0001
0100
0010
1000
0010
2002
,
0000
0000
0000
0000
,
0000
0000
0000
0000
0000
3003
0000
1001
,
0000
0010
0000
0000
0100
0000
0000
1000
0010
1000
0010
1000
0010
1000
0010
0000
,
0000
0001
0000
0000
0100
0000
0000
0010
1000
0010
1000
0010
1000
0010
1000
0000
,
0000
0100
0000
0000
0010
0000
0000
0100
0010
0100
0010
0100
0010
0100
0010
0000
,
0000
0001
0000
0000
1000
0000
0000
0010
0100
0010
0100
0010
0100
0010
0100
0000
,
0000
0010
0000
0000
0001
0000
0000
0010
0001
0010
0001
0010
0001
0010
0001
0000
,
0000
1000
0000
0000
0010
0000
0000
0100
1000
0100
1000
0100
1000
0100
1000
0000
,
0000
0010
0000
0000
1000
0000
0000
0001
1000
0001
1000
0001
1000
0001
1000
0000
,
0000
0001
0000
0000
1000
0000
0000
1000
0001
0000
1000
0000
0001
0000
1001
0000
,
0000
1000
0100
0000
0000
0000
0000
0001
0010
0000
0000
0000
0000
0000
0100
0000
0010
0000
0100
0000
0010
0000
0100
0000
0010
0000
0100
0000
0010
0000
0000
0000
,
0000
1000
0010
0000
0000
0000
0000
0001
0100
0000
0000
0000
0000
0000
0010
0000
0100
0000
0010
0000
0100
0000
0010
0000
0100
0000
0010
0000
0100
0000
0000
0000
,
0000
0010
1000
0000
0000
0000
0000
1000
0010
0000
0000
0000
0000
0000
0001
0000
1000
0000
0001
0000
1000
0000
0001
0000
1000
0000
0001
0000
1000
0000
0000
0000
,
0000
0001
0010
0000
0000
0000
0000
0100
1000
0000
0000
0000
0000
0000
0010
0000
1000
0000
0010
0000
1000
0000
0010
0000
1000
0000
0010
0000
1000
0000
0000
0000
,
0000
0010
0100
0000
0000
0000
0000
1000
0001
0000
0000
0000
0000
0000
1000
0000
0010
0000
1000
0000
0010
0000
1000
0000
0010
0000
1000
0000
0010
0000
0000
0000
,
0000
0001
0100
0000
0000
0000
0000
1000
0010
0000
0000
0000
0000
0000
0100
0000
0001
0000
0100
0000
0001
0000
0100
0000
0001
0000
0100
0000
0001
0000
0000
0000
,
0000
0100
0010
0000
0000
0000
0000
0100
1000
0000
0000
0000
0000
0000
0001
0000
0100
0000
0001
0000
0100
0000
0001
0000
0100
0000
0001
0000
0100
0000
0000
0000
,
0010
0000
0001
0000
0100
0000
0010
0000
0100
0010
0001
0000
0100
0010
1001
0000
,
0000
0000
0110
0000
0000
0000
0110
0000
0000
0000
1000
0000
0100
0010
0110
0000
,
0000
0000
0101
0000
0000
0000
0101
0000
0000
0000
0100
0000
0010
0100
0110
0000
,
0000
0000
0110
0000
0000
0000
0110
0000
1000
0000
0100
0000
0010
0001
0101
0000
,
0000
0000
0100
0000
0000
0000
0010
0000
0000
0000
0100
0000
0010
1000
1100
0000
,
0000
0000
1000
0000
0100
0000
0010
0000
0000
0000
1000
0000
0010
1000
1010
0000
,
0000
0000
0100
0000
0010
0000
0001
0000
0100
0000
0010
0000
0100
0010
0110
0000
,
0000
0000
1000
0000
0000
0000
1010
0000
0000
0000
0100
0000
0001
0100
0101
0000
,
0000
0010
0000
1010
0000
0001
0000
0110
,
1000
0000
1010
0000
1000
0000
0101
0000
0100
0000
0110
0000
0100
0000
1000
0100
,
1000
0100
0010
0100
0010
0001
0010
0001
0010
0100
0010
0100
1000
0100
2002
0000
,
0000
0000
0000
3003
0000
0000
0000
1001
,
0000
0000
0110
0000
0000
0000
1000
0000
0010
0100
1000
0000
0010
0000
1010
0000
,
0000
0000
1000
0000
1000
0010
0000
0001
0100
0000
0010
0000
0100
0000
0110
0000
,
0000
0000
0100
0000
0000
0000
0010
0001
0100
0000
0010
0000
0001
0000
0110
0000
,
0000
0000
0110
0000
0000
0000
1000
0000
0100
0000
0010
0100
0001
1000
1001
0000
,
0000
0000
0110
0000
0000
0000
0110
0000
0110
0000
0220
0330
0110
0000
0000
0000
,
1000
0100
0010
0001
1001
0000
0110
0000
,
1000
0010
0100
0000
0010
0000
0001
0000
1001
0000
0000
0000
0100
0000
0010
0000
,
0110
0000
0000
0000
0100
0000
0000
0000
1000
0010
0100
0000
0010
0000
1001
0000
,
0000
1010
0100
0010
0110
0000
0110
0000
,
1000
0100
0010
0001
1001
0000
0110
0010
,
0100
1000
0010
0000
0010
0000
0100
0000
0110
0000
0000
0000
0100
0000
0000
0000
,
0001
1000
0001
1000
1001
0000
0110
0000
,
0110
0110
0110
0101
0000
0010
0000
0100
,
0010
0000
0100
0000
0010
0000
1010
0000
0000
0000
0101
0000
0000
0000
1000
0001
,
0100
0010
0001
1001
0000
0110
0000
0110
,
0000
0000
0101
0000
0000
0000
1000
0001
0100
0000
0010
0000
0110
0000
0000
0000
,
1000
0001
0100
1001
1001
0000
0100
0000
,
0010
0000
0100
0010
1100
0010
0101
0000
,
0110
0000
1010
0000
0100
0010
0110
0000
,
0001
0000
0000
0000
1001
0000
0000
0000
1001
0000
0000
0000
1010
0000
0000
0100
,
0000
0010
0110
0000
1001
0010
0100
0000
,
0010
1000
1001
0000
0100
0000
0010
0000
,
0110
0000
0110
0000
1000
0010
1010
0000
,
0100
0000
0001
0010
0011
0000
0100
0010
,
0100
0010
1000
0001
0100
0000
0010
0100
,
0010
0000
0000
0000
0100
0000
0000
0000
0010
0001
0100
0000
0010
0000
0001
0000
,
0100
0000
0010
0000
1000
0100
0010
0001
,
1001
0000
0100
0000
1000
0100
0010
0001
,
1001
0000
0000
0000
0100
0000
0000
0000
0010
1000
0100
0000
0010
0001
0100
0000
,
1010
0000
0000
0000
0100
0000
0000
0000
0001
0000
0100
0000
0001
0000
0100
0001
,
0101
0000
1000
0010
1010
0000
0001
0100
0101
0000
0100
0010
0110
0000
0000
0000
,
0001
0010
0001
0010
0100
0010
0100
1000
0100
1000
0100
0010
0100
0010
0001
0010
,
2002
0000
0000
0000
,
0000
0000
0000
0000
,
0000
0000
0000
0000
,
3003
0000
0000
0000
;

//---------------dance-single - ----------------
#NOTES:
     dance-single:
     :
     Medium:
     14:
     0.741,0.990,0.905,0.054,0.235,467.000,100.000,6.000,0.000,0.000,0.000,0.741,0.990,0.905,0.054,0.235,467.000,100.000,6.000,0.000,0.000,0.000:
0000
0000
0000
0000
,
0100
1000
0100
1000
0000
0000
0001
0000
,
1000
0100
0000
0000
0011
0000
0011
0000
,
0011
0000
0100
1000
0000
0000
0001
0000
,
1000
0000
0001
0000
1000
0001
0100
0010
,
1100
0000
1001
0000
0100
0001
1000
0010
,
0001
0011
0000
0000
1100
0000
1100
0000
,
1001
0000
1000
0001
0010
0000
1000
0100
,
1000
1100
0000
0000
0011
1001
0011
0000
,
0000
1001
0000
0100
0001
1000
0001
0010
,
0001
1000
0000
0010
0001
1000
0010
0100
,
0000
1000
0000
0001
1000
0001
1000
0100
,
1100
0000
0000
0011
0000
1001
0000
1100
,
0000
1100
0000
0001
1000
0010
1000
1001
,
0000
0000
1001
0000
0000
0000
0100
0001
1000
0000
0001
0000
0010
0000
1100
0000
,
0000
0001
0000
1001
0000
0010
0000
1100
,
0001
1000
0010
0001
1000
0100
1000
0220
,
0000
0000
0000
0000
,
0000
0000
0000
0000
0000
0330
0000
0110
,
0000
1000
0000
0000
0001
0000
0000
0000
1000
0000
1000
0000
1000
0000
1000
0000
,
0000
0010
0000
0000
0001
0000
0000
0000
0100
0000
0100
0000
0100
0000
0100
0000
,
0000
0001
0000
0000
1000
0000
0000
0000
1000
0000
1000
0000
1000
0000
1000
0000
,
0000
0010
0000
0000
0100
0000
0000
0000
0001
0000
0001
0000
0001
0000
0001
0000
,
0000
1000
0000
0000
0010
0000
0000
0000
0010
0000
0010
0000
0010
0000
0010
0000
,
0000
0100
0000
0000
1000
0000
0000
0000
0100
0000
0100
0000
0100
0000
0100
0000
,
0000
1000
0000
0000
0100
0000
0000
0000
0100
0000
0100
0000
0100
0000
0100
0000
,
0000
0010
0000
0000
0100
0000
0000
0000
0010
0000
0100
0000
0010
0000
0110
0000
,
0000
0100
0000
0000
0000
0000
0000
0010
0000
0000
0000
0000
0000
0000
0000
0000
1000
0000
0000
0000
1000
0000
0000
0000
1000
0000
0000
0000
1000
0000
0000
0000
,
0000
0100
0000
0000
0000
0000
0000
0010
0000
0000
0000
0000
0000
0000
0000
0000
0001
0000
0000
0000
0001
0000
0000
0000
0001
0000
0000
0000
0001
0000
0000
0000
,
0000
1000
0000
0000
0000
0000
0000
0100
0000
0000
0000
0000
0000
0000
0000
0000
0100
0000
0000
0000
0100
0000
0000
0000
0100
0000
0000
0000
0100
0000
0000
0000
,
0000
0010
0000
0000
0000
0000
0000
0000
0100
0000
0000
0000
0000
0000
0000
0000
0100
0000
0000
0000
0100
0000
0000
0000
0100
0000
0000
0000
0100
0000
0000
0000
,
0000
1000
0000
0000
0000
0000
0000
0100
0000
0000
0000
0000
0000
0000
0000
0000
1000
0000
0000
0000
1000
0000
0000
0000
1000
0000
0000
0000
1000
0000
0000
0000
,
0000
0010
0000
0000
0000
0000
0000
0100
0000
0000
0000
0000
0000
0000
0000
0000
0010
0000
0000
0000
0010
0000
0000
0000
0010
0000
0000
0000
0010
0000
0000
0000
,
0000
0001
0000
0000
0000
0000
0000
0001
0000
0000
0000
0000
0000
0000
0000
0000
0001
0000
0000
0000
0001
0000
0000
0000
0001
0000
0000
0000
0001
0000
0000
0000
,
1000
0010
0001
1000
0001
0010
0001
0110
,
0000
0000
1001
0000
0000
0000
1001
0000
0000
0000
0100
0000
0001
1000
0001
0000
,
0000
0000
0011
0000
0000
0000
0011
0000
0000
0000
0001
0000
1000
0001
1000
0000
,
0000
0000
1001
0000
0000
0000
1001
0000
0100
0000
0001
0000
1000
0010
0001
0000
,
0000
0000
0001
0000
0000
0000
1000
0000
0000
0000
0001
0000
1000
0100
0001
0000
,
0000
0000
0100
0000
0001
0000
1000
0000
0000
0000
0100
0000
1000
0100
1000
0000
,
0000
0000
0001
0000
1000
0000
0010
0000
0001
0000
1000
0000
0001
1000
0001
0000
,
0000
0100
0000
1100
0000
0001
0010
0011
,
0000
1000
0000
1100
0000
0010
0000
1001
,
0100
0000
1100
0000
0100
0000
0011
0000
0001
0000
1001
0000
0001
0000
0100
0001
,
0100
0001
1000
0001
1000
0010
1000
0010
1000
0001
1000
0001
0100
0001
0200
0000
,
0000
0000
0000
0300
0000
0000
0000
0110
,
0000
1001
0000
0100
1000
0100
1000
1100
,
0000
0000
0100
0000
0100
0000
0000
0010
0000
0000
1000
0000
0001
0000
1001
0000
,
0000
0001
0100
1000
0001
1000
0010
1001
,
0000
1001
0000
0100
0001
1000
0010
0010
,
0000
0000
1001
0000
0000
0000
1001
0000
1001
0000
2002
3003
1001
0000
0000
0000
,
0100
0001
1000
0010
0110
0000
1001
0000
,
0100
1000
0001
0000
1000
0000
0010
0000
0110
0000
0000
0000
0001
0000
1000
0000
,
1001
0000
0000
0000
0001
0000
0000
0000
0100
1000
0001
0000
1000
0000
0110
0000
,
0000
1100
0001
1000
1001
0000
1001
0000
,
0100
0001
1000
0010
0110
0000
1001
1000
,
0001
0100
1000
0000
1000
0000
0001
0000
1001
0000
0000
0000
0001
0000
0000
0000
,
0010
0100
0010
0100
0110
0000
1001
0000
,
1001
1001
1001
0011
0000
1000
0000
0001
,
1000
0000
0001
0000
1000
0000
1100
0000
0000
0000
0011
0000
0000
0000
0100
0010
,
0001
1000
0010
0110
0000
1001
0000
1001
,
0000
0000
0011
0000
0000
0000
0100
0010
0001
0000
1000
0000
1001
0000
0000
0000
,
0100
0010
0001
0110
0110
0000
0001
0000
,
1000
0000
0001
1000
0101
1000
0011
0000
,
1001
0000
1100
0000
0001
1000
1001
0000
,
0010
0000
0000
0000
0110
0000
0000
0000
0110
0000
0000
0000
1100
0000
0000
0001
,
0000
1000
1001
0000
0110
1000
0001
0000
,
1000
0100
0110
0000
0001
0000
1000
0000
,
1001
0000
1001
0000
0100
1000
1100
0000
,
0001
0000
0010
1000
1010
0000
0001
1000
,
0001
1000
0100
0010
0001
0000
1000
0001
,
1000
0000
0000
0000
0001
0000
0000
0000
1000
0010
0001
0000
1000
0000
0010
0000
,
0001
0000
1000
0000
0100
0001
1000
0010
,
0110
0000
0001
0000
0100
0001
1000
0010
,
0110
0000
0001
0000
1000
0001
1000
0001
,
1100
0000
0001
0000
0010
0001
0010
0001
,
0011
0100
1100
0010
0011
0001
1001
0000
,
0010
1000
0010
1000
0001
1000
0001
0100
0001
0100
0001
1000
0001
1000
0010
1000
,
0200
0000
0000
0000
,
0000
0000
0000
0000
,
0000
0000
0000
0000
,
0300
0000
0000
0000
;

//---------------dance-single - ----------------
#NOTES:
     dance-single:
     :
     Beginner:
     3:
     0.162,0.181,0.154,0.009,0.000,107.000,17.000,1.000,0.000,0.000,0.000,0.162,0.181,0.154,0.009,0.000,107.000,17.000,1.000,0.000,0.000,0.000:
0000
0000
0000
0000
,
0010
0000
0000
0000
,
1000
0000
0000
0000
,
0010
0000
0000
0000
,
0001
0000
0001
0000
,
1000
0000
0000
0000
,
0001
0000
0000
0000
,
1000
0000
0010
0000
,
1000
0000
0001
0000
,
0000
1000
0000
0000
0000
0000
0000
0000
,
0000
0010
0000
0000
0000
1000
0000
0000
,
0000
0000
0000
0000
0000
0001
0000
0000
,
0000
0000
0000
0100
0000
0000
0000
0000
,
0000
1001
0000
0000
0000
0000
0000
0000
,
0000
0010
0000
0000
0000
1000
0000
0000
,
0000
0001
0000
0000
0000
0100
0000
0000
,
0000
0000
0000
0000
0000
1000
0000
0001
,
0000
0000
0000
0000
0000
0000
0000
0100
,
0000
0000
0000
0000
0000
0000
0000
1000
,
0000
0000
0000
0000
0000
0000
0000
0001
,
0000
0000
0000
0000
0000
0000
0000
0010
,
0000
0000
0000
0000
0000
0000
0000
0100
,
0000
0000
0000
0000
0000
0000
0000
0010
,
0000
0000
0000
0000
0000
0000
0000
1000
,
0000
0000
0000
0000
0000
0000
0000
0001
,
0000
0000
0000
0000
0000
0000
0000
0010
,
0000
0000
0000
0000
0000
0000
0000
1000
,
0000
0000
0000
0000
0000
0000
0000
0010
,
0000
0000
0000
0000
0000
0000
0000
0100
,
0000
0000
0000
0001
0000
0000
0000
1000
,
0000
0000
0000
0000
0000
0000
0000
0010
,
0000
0000
0000
0010
0000
0000
0000
0010
,
0000
0000
0000
0000
0000
0000
0000
1000
,
0000
0000
0000
0001
0000
0000
0000
1000
,
0000
0000
0000
0000
0000
0000
0000
1001
,
0000
0000
0000
0000
0000
0000
0000
0010
,
0000
0000
0000
0000
0000
0000
0000
1000
,
0000
0000
0000
0000
0000
0000
0000
0001
,
0000
0000
0000
0000
0000
0000
0000
1001
,
0000
0000
0000
0000
0000
0000
0000
1001
,
0000
0000
0000
0000
0000
0000
0000
1001
,
0000
0000
0000
0000
0000
0000
0000
0010
,
0000
0000
0000
0010
0000
0000
0000
0100
,
0000
0000
0000
0100
0000
0000
0000
1000
,
0000
0000
0000
1000
0000
0000
0000
0001
,
0000
0000
0000
0000
0000
0000
0000
0001
,
0000
0000
0000
0000
0000
0000
0000
1001
,
0000
0000
0000
0000
0000
0000
0000
0010
,
0000
0000
0000
0010
0000
0000
0000
1000
,
0000
0000
0000
0000
0000
0000
0000
0001
,
0000
0000
0000
1000
0000
0000
0001
0000
,
0000
0000
0100
0000
,
0100
0000
0100
0000
,
0000
0000
1001
0000
,
1001
0000
1001
0000
,
0000
0000
0010
0000
,
0010
0000
1000
0000
,
0000
0000
0001
0000
,
1000
0000
0000
0000
0000
0000
0000
0001
,
0000
0000
0000
0001
0000
0000
0000
1000
,
0000
0000
0000
1000
0000
0000
0000
0010
,
0000
0000
0000
0100
0000
0000
0000
0000
,
0000
0000
0000
1001
0000
0000
0000
0000
,
0000
0000
0000
0110
,
0000
0110
0000
1000
,
0000
0001
0000
0000
,
0000
1000
0000
1000
,
0000
0001
0000
0100
,
0000
1001
0000
0010
,
0000
1000
0000
0001
,
0000
1000
0000
0000
0000
0000
0000
0000
,
0010
0000
0010
0000
,
0010
0000
1000
0000
,
1001
0000
0000
0000
,
1001
0000
0000
0000
,
1001
0000
0000
0000
,
1001
0000
0000
0000
,
1000
0000
0100
0000
,
0002
0000
0000
0000
,
0000
0000
0000
0000
,
0003
0000
0000
0000
;

//---------------dance-single - ----------------
#NOTES:
     dance-single:
     :
     Easy:
     6:
     0.407,0.398,0.453,0.054,0.000,259.000,50.000,6.000,0.000,0.000,0.000,0.407,0.398,0.453,0.054,0.000,259.000,50.000,6.000,0.000,0.000,0.000:
0000
0000
0000
0000
,
1001
0000
0010
0000
,
0000
1001
0000
0000
0100
0000
0000
0000
,
1001
0000
0010
0000
,
1000
1000
1000
0001
,
1001
0100
0000
0000
,
0000
0010
0000
0000
1000
0000
0000
0000
,
1001
0000
1001
0000
,
0100
0000
0010
1000
,
0000
0010
0000
0000
0000
1000
0000
0000
,
0000
0001
0000
0000
0000
0100
0000
0100
,
0000
0100
0000
0000
0000
1001
0000
0000
,
0000
0000
0000
1000
0000
0000
0000
1001
,
0000
0000
0000
0000
0000
0001
0000
0001
,
0000
0000
0000
0100
0000
0100
0000
0100
,
0000
0000
0000
0110
0000
0000
0000
1001
,
0000
0000
0000
0000
0000
1000
0000
2002
,
0000
0000
0000
0000
0000
0000
0000
3003
,
0000
0000
0000
0000
0000
0000
0000
0100
,
0000
0000
0000
0010
0000
1000
0000
1000
,
0000
0000
0000
0010
0000
0100
0000
0001
,
0000
0010
0000
0010
0000
0000
0000
0100
,
0000
0010
0000
1000
0000
0000
0000
0010
,
0000
0010
0000
0100
0000
1000
0000
1000
,
0000
0001
0000
0001
0000
0001
0000
0100
,
0000
0100
0000
0100
0000
0100
0000
1000
,
0000
1000
0000
1000
0000
1000
0000
0001
,
0000
1000
0000
0010
0000
0100
0000
0000
,
0000
1000
0000
0100
0000
0010
0000
0001
,
0000
0000
0000
0100
0000
0010
0000
1000
,
0000
0000
0000
0001
0000
0000
0000
0100
,
0000
0100
0000
0010
0000
0010
0000
1000
,
0000
1000
0000
0001
0000
0001
0000
1000
,
0000
1000
0000
0001
0000
0001
0000
1000
,
0000
1000
0000
0100
0000
0100
0000
1001
,
0000
0100
0000
0010
0000
0100
0000
0001
,
0000
0010
0000
0010
0000
0100
0000
1001
,
0000
1001
0000
0100
0000
0010
0000
1000
,
0000
0100
0000
0010
0000
1000
0000
1001
,
0000
0100
0000
0010
0000
0100
0000
1001
,
0000
0100
0000
0010
0000
0100
0000
0110
,
0000
1000
0000
1001
0000
0100
0000
0110
,
0000
0100
0000
1001
0000
0100
0000
0100
,
0000
1010
0000
0100
0000
0010
0000
1000
,
0000
0100
0000
0010
0000
0001
0000
2002
,
0000
0000
0000
0000
0000
0000
0000
3003
,
0000
0000
0000
0000
0000
1000
0000
1001
,
0000
0100
0000
0010
0000
0100
0000
1001
,
0000
0100
0000
0010
0000
0100
0000
1001
,
0000
0100
0000
0010
0000
0100
0000
1001
,
0000
0000
0000
1000
0001
1000
0100
0000
,
0010
0100
1001
0100
,
0010
0100
1001
0100
,
1010
0100
0010
0100
,
1000
0010
0101
1000
,
0010
0100
1001
0100
,
1000
1000
0001
0001
,
0100
0010
1000
0001
,
1000
0001
1000
0010
0000
0100
0000
0010
,
0000
0100
0000
1001
0000
0100
0000
0010
,
0000
1000
0000
1001
0000
1000
0000
1010
,
0000
0100
0000
0010
0000
0100
0000
0001
,
0000
1000
0000
1001
1001
0000
0100
0000
,
0010
0100
0001
0001
,
0001
1001
1000
1010
,
0100
1001
0100
0010
,
1000
1001
0100
0010
,
1000
1001
0100
0010
,
0100
1001
0100
0110
,
0100
1000
0001
1000
,
0001
1000
0000
0000
1000
0000
1000
0000
,
0001
0100
0010
0010
,
0010
1000
0001
0100
,
0110
0000
1000
0001
,
1001
0000
0100
0110
,
0110
1000
0001
1000
,
1001
0000
0110
0000
,
1000
0100
0010
0001
,
2002
0000
0000
0000
,
0000
0000
0000
0000
,
3003
0000
0000
0000
;
