#TITLE:evans;
#SUBTITLE:~prototype~;
#ARTIST:DJ YOSHITAKA;
#TITLETRANSLIT:;
#SUBTITLETRANSLIT:;
#ARTISTTRANSLIT:;
#CREDIT:;
#BANNER:evans ~prototype~.png;
#BACKGROUND:evans ~prototype~-bg.png;
#LYRICSPATH:;
#CDTITLE:;
#MUSIC:evans ~prototype~.mp3;
#OFFSET:-0.081;
#SAMPLESTART:0.050;
#SAMPLELENGTH:12.000;
#SELECTABLE:YES;
#BPMS:0.000=184.960,179.500=370.000,183.500=185.000;
#STOPS:34.000=0.081
,34.500=0.081
,179.500=0.649
,201.500=0.081
,202.000=0.081
,202.500=0.324
,250.000=0.162
,281.500=0.162
;
#BGCHANGES:;

//---------------dance-single - ----------------
#NOTES:
     dance-single:
     :
     Hard:
     13:
     0.668,0.630,0.804,0.083,0.023:
0000
0000
0000
0000
,
1000
0010
1000
1020
0000
0000
0130
0000
,
0010
0110
0000
0000
1001
0000
1001
0000
,
1001
0000
0100
0010
0110
0000
1000
0001
,
1000
0000
0100
0000
1000
0100
1000
0100
,
0110
0000
0110
0000
1000
0100
0010
0001
,
0100
1001
0000
0000
0110
0000
0110
0000
,
1001
0000
0100
0010
1010
0000
0100
0000
,
0001
2000
0000
0000
3001
1000
0001
0000
,
0000
0001
0000
0100
0000
0010
0000
1000
,
0000
0100
0000
1000
0010
1000
0010
1000
,
0000
0101
0000
1000
0010
1000
0000
0010
,
2000
0000
0000
3001
0000
1001
0000
1001
,
0000
1001
0000
0100
0010
0100
0001
1001
,
0000
0100
0000
1000
0010
1000
0010
1010
,
0000
0100
0000
0101
0000
0100
0000
0010
,
0110
1000
0000
0001
0000
1001
0000
2002
,
0000
0000
0000
0000
,
0000
0000
0000
0000
0000
3003
0000
1000
,
0000
0010
0000
0100
0000
1000
0010
0000
,
0100
0000
0001
0000
1000
0000
0010
0100
,
0000
0001
0000
1000
0000
1000
0100
0000
,
0010
0000
0010
0000
0001
0010
0100
1000
,
0000
0100
0000
0010
0100
0010
0100
0000
,
1000
0000
0100
0000
0010
0001
0010
0100
,
0000
1000
0000
0100
0000
0010
1000
0000
,
0010
0000
0100
0000
1000
0100
0010
0110
,
0000
0001
0000
0100
0000
0010
1000
0000
,
0010
0000
0100
0000
1000
0100
0010
0001
,
0000
0100
0000
0010
0000
0001
0010
0000
,
0100
0000
1000
0000
1000
0100
0010
0001
,
0000
0100
0000
0001
0010
0100
1000
0000
,
0010
0000
0100
0000
1000
0100
0010
0001
,
0000
1000
0000
0010
0000
0100
0000
0001
,
0010
0100
1000
0100
0010
0001
1000
1001
,
0000
0000
0100
0000
0000
0000
0010
0000
0000
0000
0100
0000
0010
1000
0100
0000
,
0000
0000
1010
0000
0000
0000
0100
0000
0000
0000
0010
0001
0100
0000
0110
0000
,
0000
0000
1010
0000
0000
0000
0100
0000
0010
0000
0100
0000
0001
0010
0100
0000
,
0000
0000
0010
0000
0000
0000
1000
0000
0000
0000
1000
0000
0100
1000
0010
0000
,
0000
0100
0010
0100
0000
0001
0100
0110
,
0000
1000
0010
0100
0000
1000
0100
1010
,
0000
0100
0000
0101
0000
1000
0010
1010
,
0000
1010
0000
1001
0000
1010
0000
1000
,
0100
0010
0001
0010
0100
1000
0100
1000
,
1000
0010
0010
0100
0100
0001
0001
2002
,
0000
0000
0000
3003
0000
0000
0000
1010
,
0000
0100
0000
1000
0100
1010
0100
0101
,
0000
0110
0000
0110
0000
0110
1000
0100
,
0010
1000
0000
1000
0100
0010
0100
0110
,
0000
1001
0000
1010
0000
1010
0100
0110
,
0000
0001
0000
1010
1010
1010
1010
0000
,
0100
0010
0100
0010
0110
0000
1000
0000
,
0001
1000
0001
1000
1001
0000
0100
0000
,
0110
0000
1000
0001
1000
0010
0100
0110
,
0000
1000
0010
1000
1001
0000
0110
0000
,
0110
0000
1000
0100
0010
0000
0100
0000
,
0001
0010
0100
0010
0110
0000
1000
0000
,
0010
0000
0100
0001
1001
0000
1010
0000
,
0101
0000
0000
0100
0000
0000
0010
0000
0110
0000
0000
0000
1000
0000
0000
0000
,
0010
1000
0100
0010
0101
0000
0110
0000
,
1000
0100
0010
0001
1001
0000
0100
0000
,
1010
0000
0100
0010
0100
0010
1000
0100
,
0010
0001
1000
0110
0110
0110
0010
0000
,
0000
0000
0000
1000
0000
0010
0000
1000
,
0000
0010
0000
1010
0000
1000
0010
1010
,
0000
1000
0001
1001
0000
1001
0000
1001
,
0000
0100
0010
0110
0000
1000
0010
0010
,
0000
1000
0000
0001
0000
1000
0000
0010
,
0000
1010
0000
1001
0000
0100
0010
0110
,
0000
1000
0100
0010
0000
1000
0000
0001
,
0100
0010
0100
0010
1000
0000
0010
0000
,
0100
0010
0100
0000
0010
0000
1000
0100
,
0010
0001
0100
0000
0010
0000
1000
0000
,
0100
0001
1001
0000
0100
0000
0010
0100
,
0010
0100
0110
0000
1000
0000
1000
0010
,
1000
0001
1001
0000
0100
0000
0010
0100
,
0010
0100
0110
0000
1001
0000
1010
0000
,
1001
0000
0100
0010
0001
1000
0100
0010
,
0001
0100
2002
0000
0000
0000
0000
0000
,
0000
0000
0000
0000
,
0000
3003
0000
0000
;

//---------------dance-single - ----------------
#NOTES:
     dance-single:
     :
     Medium:
     12:
     0.587,0.630,0.564,0.046,0.009:
0000
0000
0000
0000
,
0100
1000
0100
1000
0000
0000
0001
0000
,
1000
0001
0000
0000
0110
0000
0010
0000
,
0110
0000
0001
1000
0001
0000
0100
0010
,
0100
0000
0001
0000
0100
0001
0100
0001
,
1000
0000
1001
0000
0100
0001
1000
0010
,
0000
0110
0000
0000
1000
0000
0001
0000
,
0110
0000
0001
1000
0100
0000
0001
0000
,
0010
0100
0000
0000
0010
0100
0010
0000
,
0000
0010
0000
0001
0000
1000
0000
0100
,
0000
0001
0000
0100
1000
0100
0000
0100
,
0000
0011
0000
0100
1000
0100
0000
1000
,
0001
0000
0000
0010
0000
0110
0000
0110
,
0000
0110
0000
0001
1000
0001
0000
0110
,
0000
0001
0000
0100
1000
0100
0000
1100
,
0000
0001
0000
0011
0000
0001
0000
1000
,
0001
0000
0000
0010
0000
0100
0000
0220
,
0000
0000
0000
0000
,
0000
0000
0000
0000
0000
0330
0000
0100
,
0000
1000
0000
0001
0000
0100
1000
0000
,
0001
0000
0010
0000
0100
0000
1000
0001
,
0000
0010
0000
0100
0000
0100
0001
0000
,
1000
0000
1000
0000
0010
1000
0001
0100
,
0000
0001
0000
1000
0001
1000
0001
0000
,
0100
0000
0001
0000
1000
0010
1000
0001
,
0000
0100
0000
0001
0000
1000
0100
0000
,
1000
0000
0001
0000
0100
0000
1000
0001
,
0000
0010
0000
0001
0000
1000
0100
0000
,
1000
0000
0001
0000
0100
0000
1000
0010
,
0000
0001
0000
1000
0000
0010
1000
0000
,
0001
0000
0100
0000
0100
0001
1000
0010
,
0000
0001
0000
0010
1000
0001
0100
0000
,
1000
0000
0001
0000
0100
0001
1000
0010
,
0000
0100
0000
1000
0000
0001
1000
0000
,
0010
0001
0100
0001
1000
0010
0100
0110
,
0000
0001
0000
1000
0000
0001
1000
0000
,
0000
1100
0000
0001
0000
1000
0001
0000
,
0000
1100
0000
0001
0000
0001
0010
0001
,
0000
1000
0000
0100
0000
0100
0001
1000
,
0000
0001
1000
0001
0000
0010
0001
1000
,
0000
0100
1000
0001
0000
0100
0001
1000
,
0000
0001
0000
0011
0000
0100
0000
1100
,
0000
1100
0000
0110
0000
1100
0000
0100
,
0001
1000
0010
1000
0001
0100
0001
0100
,
0000
1000
0000
0001
0000
0010
0000
0220
,
0000
0000
0000
0330
0000
0000
0000
1100
,
0000
0001
0000
0100
0001
1000
0010
0001
,
0000
1001
0000
1001
0000
1000
0100
0000
,
1000
0000
0010
0100
0001
0000
0001
1000
,
0000
0110
0000
1100
0000
0100
0001
1010
,
0000
0010
0000
0100
1000
0100
1100
0000
,
0001
1000
0001
0000
1001
0000
0100
0000
,
0010
0100
0010
0000
0110
0000
0001
0000
,
1001
0000
0100
0010
0100
1000
0000
1001
,
0000
0100
1000
0000
0110
0000
1001
0000
,
1001
0000
0100
0001
0000
0010
0000
0100
,
0010
1000
0000
1000
0001
0000
0100
0000
,
1000
0000
0001
0010
0110
0000
1100
0000
,
0011
0000
0000
0001
0000
0000
1000
0000
1001
0000
0000
0000
0100
0000
0000
0000
,
1000
0100
0001
1000
0010
0000
1001
0000
,
0100
0001
1000
0000
0110
0000
0001
0000
,
1100
0000
0001
1000
0001
1000
0100
0001
,
1000
0010
0100
1001
1001
1001
0000
0000
,
0000
0000
0000
0100
0000
1000
0000
0100
,
0000
1000
0000
1100
0000
0100
0000
1100
,
0000
0100
0000
0110
0000
0110
0000
0110
,
0000
0001
0000
0000
1000
0000
1001
0000
0000
0000
0100
0000
1000
0000
1000
0000
,
0000
0100
0000
0010
0000
0100
0000
1000
,
0000
1100
0000
0110
0000
0001
0000
1001
,
0000
0100
0001
1000
0000
0100
0000
0010
,
0001
1000
0001
1000
0100
0000
1000
0000
,
0001
1000
0001
0000
1000
0000
0100
0001
,
1000
0010
0001
0000
1000
0000
0100
0000
,
0001
0010
0100
0000
0001
0000
1000
0001
,
1000
0001
1001
0000
0100
0000
0100
1000
,
0100
0010
0110
0000
0001
0000
1000
0001
,
1000
0001
1001
0000
0110
0000
1100
0000
,
0110
0000
0001
1000
0010
0100
0001
1000
,
0010
0001
0020
0000
0000
0000
0000
0000
,
0000
0000
0000
0000
,
0000
0030
0000
0000
;

//---------------dance-single - ----------------
#NOTES:
     dance-single:
     :
     Beginner:
     3:
     0.144,0.222,0.139,0.028,0.000:
0000
0000
0000
0000
,
0010
0000
0000
0000
,
0001
0000
0000
0000
,
1000
0000
0000
0000
,
0001
0000
0000
0000
,
0100
0000
0000
0000
,
0010
0000
0000
0000
,
1000
0000
0000
0000
,
0001
0000
1000
0000
,
0000
0010
0000
0000
0000
0000
0000
0000
,
0000
1000
0000
0000
0000
0000
0000
0000
,
0000
0001
0000
0000
0000
0000
0000
0010
,
0000
0000
0000
0000
0000
0000
0000
1000
,
0000
0000
0000
0000
0000
0000
0000
0001
,
0000
0000
0000
0000
0000
0000
0000
0010
,
0000
0000
0000
0100
0000
0000
0000
0010
,
0000
0000
0000
0000
0000
1000
0000
0001
,
0000
0000
0000
0000
,
0000
0000
0000
0000
0000
0000
0000
0010
,
0000
0000
0000
0000
0000
0000
0000
0100
,
0000
0000
0000
0000
0000
0000
0000
0010
,
0000
0000
0000
0000
0000
0000
0000
1000
,
0000
0000
0000
0000
0000
0000
0000
0001
,
0000
0000
0000
0000
0000
0000
0000
0100
,
0000
0000
0000
0000
0000
0000
0000
0010
,
0000
0000
0000
0000
0000
0000
0000
1000
,
0000
0000
0000
0000
0000
0000
0000
0001
,
0000
0000
0000
0000
0000
0000
0000
0100
,
0000
0000
0000
0000
0000
0000
0000
0010
,
0000
0000
0000
0000
0000
0000
0000
0010
,
0000
0000
0000
0000
0000
0000
0000
0010
,
0000
0000
0000
0000
0000
0000
0000
0100
,
0000
0000
0000
0000
0000
0000
0000
0010
,
0000
0000
0000
0000
0000
0000
0000
0010
,
0000
0000
0000
0000
0000
0000
0000
0001
,
0000
0000
0000
0000
0000
0000
0000
1000
,
0000
0000
0000
0000
0000
0000
0000
0110
,
0000
0000
0000
0000
0000
0000
0000
0001
,
0000
0000
0000
0000
0000
0000
0000
1001
,
0000
0000
0000
0000
0000
0000
0000
1001
,
0000
0000
0000
0000
0000
0000
0000
1010
,
0000
0000
0000
0000
0000
0000
0000
1001
,
0000
0000
0000
0000
0000
0000
0000
0110
,
0000
0000
0000
0000
0000
0000
0000
1000
,
0000
0000
0000
0000
0000
0000
0000
0002
,
0000
0000
0000
0003
,
0000
0000
0000
0000
0000
0000
0000
1000
,
0000
0000
0000
0000
0000
0000
0000
0010
,
0000
0000
0000
0000
0000
0000
0000
1000
,
0000
0000
0000
0000
0000
0000
0000
0010
,
0000
0000
0000
0020
0000
0000
0030
0000
,
0000
0000
1000
0000
,
0000
0000
0001
0000
,
0000
0000
0100
0000
,
0100
0000
0010
0000
,
0000
0000
0001
0000
,
0000
0000
1000
0000
,
0000
0000
0010
0000
,
1000
0000
0001
0000
,
0000
0000
1001
0000
,
0000
0000
1000
0000
,
0001
0000
1000
0000
,
0001
0000
1001
0000
,
0000
0000
0000
0000
0000
0000
0000
1000
,
0000
0000
0000
1000
0000
0000
0000
0000
,
0000
0000
0000
0010
0000
0000
0000
0010
,
0000
0000
0000
0010
0000
0000
0000
0000
,
0000
0000
0000
1001
0000
0000
0000
0000
,
0000
0000
0000
0110
0000
0000
0000
1000
,
0000
0000
0000
1001
0000
0000
0000
0000
,
0000
0000
0000
0001
0000
0000
0000
0000
,
0000
0100
0000
0000
,
0000
0100
0000
0000
,
0000
0010
0000
0010
,
0000
1001
0000
0100
,
0000
1001
0000
0010
,
0000
1001
0000
0110
,
0000
1000
0000
0100
,
0000
0002
0000
0000
,
0000
0000
0000
0000
,
0000
0000
0000
0000
0000
0000
0000
0000
0000
0000
0000
0000
0000
0000
0000
0000
0000
0000
0000
0000
0000
0000
0000
0000
0000
0000
0000
0000
0000
0000
0000
0000
0000
0000
0000
0000
0000
0000
0000
0000
0000
0000
0000
0000
0000
0000
0000
0000
0000
0003
0000
0000
0000
0000
0000
0000
0000
0000
0000
0000
0000
0000
0000
0000
0000
0000
0000
0000
0000
0000
0000
0000
0000
0000
0000
0000
0000
0000
0000
0000
0000
0000
0000
0000
0000
0000
0000
0000
0000
0000
0000
0000
0000
0000
0000
0000
0000
0000
0000
0000
0000
0000
0000
0000
0000
0000
0000
0000
0000
0000
0000
0000
0000
0000
0000
0000
0000
0000
0000
0000
0000
0000
0000
0000
0000
0000
0000
0000
0000
0000
0000
0000
0000
0000
0000
0000
0000
0000
0000
0000
0000
0000
0000
0000
0000
0000
0000
0000
0000
0000
0000
0000
0000
0000
0000
0000
0000
0000
0000
0000
0000
0000
0000
0000
0000
0000
0000
0000
0000
0000
0000
0000
0000
0000
0000
0000
0000
0000
0000
0000
0000
0000
0000
0000
0000
0000
0000
0000
0000
0000
0000
0000
;

//---------------dance-single - ----------------
#NOTES:
     dance-single:
     :
     Easy:
     6:
     0.380,0.444,0.407,0.046,0.000: // measure 1
0000
0000
0000
0000
,  // measure 2
0001
0000
1000
0000
,  // measure 3
0000
1001
0000
0000
0100
0000
0000
0000
,  // measure 4
1001
0000
0100
0000
,  // measure 5
0010
0000
1000
0001
,  // measure 6
1000
1001
0000
0000
,  // measure 7
0000
0001
0000
0000
1000
0000
0000
0000
,  // measure 8
1001
0000
0110
0000
,  // measure 9
1000
0000
0001
1000
,  // measure 10
0000
0100
0000
0000
0000
1010
0000
0000
,  // measure 11
0000
0110
0000
0000
0000
1001
0000
0000
,  // measure 12
0000
0110
0000
0000
0000
1001
0000
0000
,  // measure 13
0000
0000
0000
1000
0000
0000
0000
0100
,  // measure 14
0000
0000
0000
1001
0000
0000
0000
0010
,  // measure 15
0000
0000
0000
1001
0000
0000
0000
1001
,  // measure 16
0000
0000
0000
1001
0000
0000
0000
0110
,  // measure 17
0000
1000
0000
0100
0000
0010
0000
2002
,  // measure 18
0000
0000
0000
0000
,  // measure 19
0000
0000
0000
0000
0000
3003
0000
0100
,  // measure 20
0000
0000
0000
0010
0000
0000
0000
1000
,  // measure 21
0000
0000
0000
0001
0000
0001
0000
0001
,  // measure 22
0000
0000
0000
0100
0000
0000
0000
0010
,  // measure 23
0000
0000
0000
1000
0000
0001
0000
1000
,  // measure 24
0000
0000
0000
0010
0000
0010
0000
0010
,  // measure 25
0000
0000
0000
0100
0000
0010
0000
0100
,  // measure 26
0000
1000
0000
1000
0000
0000
0000
0001
,  // measure 27
0000
1000
0000
0001
0000
0100
0000
1010
,  // measure 28
0000
0000
0000
0001
0000
0100
0000
0001
,  // measure 29
0000
0000
0000
1000
0000
0010
0000
1000
,  // measure 30
0000
0000
0000
0100
0000
0100
0000
0100
,  // measure 31
0000
0000
0000
0010
0000
0010
0000
0010
,  // measure 32
0000
1000
0000
1000
0000
1000
0000
0010
,  // measure 33
0000
0010
0000
0100
0000
0100
0000
0010
,  // measure 34
0000
0010
0000
0001
0000
0001
0000
1000
,  // measure 35
0000
1000
0000
0100
0000
0100
0000
1001
,  // measure 36
0000
0100
0000
0010
0000
0100
0000
1001
,  // measure 37
0000
0100
0000
0010
0000
0100
0000
1001
,  // measure 38
0000
0010
0000
0100
0000
0010
0000
1001
,  // measure 39
0000
0100
0000
0001
0000
0100
0000
1001
,  // measure 40
0000
0010
0000
0100
0000
1000
0000
0100
,  // measure 41
0000
0100
0000
0010
0000
0100
0000
1001
,  // measure 42
0000
0100
0000
1001
0000
0010
0000
0011
,  // measure 43
0000
0100
0000
1100
0000
0100
0000
0010
,  // measure 44
0000
0100
0000
0010
0000
0100
0000
1000
,  // measure 45
0000
1000
0000
0100
0000
0100
0000
0002
,  // measure 46
0000
0000
0000
0000
0000
0000
0000
1003
,  // measure 47
0000
0000
0000
0100
0000
0010
0000
1000
,  // measure 48
0000
0001
0000
0001
0000
0001
0000
0100
,  // measure 49
0000
0010
0000
1000
0000
1000
0000
1000
,  // measure 50
0000
0100
0000
0010
0000
0100
0000
0001
,  // measure 51
0000
0000
0000
1000
0001
1000
0010
0000
,  // measure 52
0000
0000
0100
0000
,  // measure 53
0010
0010
0010
1000
,  // measure 54
1000
0000
1000
0000
0001
0000
0000
0100
,  // measure 55
0000
0010
1000
0001
,  // measure 56
0001
0001
0100
0100
,  // measure 57
0010
0010
1000
0000
,  // measure 58
0001
0000
1000
1000
,  // measure 59
0010
0100
1010
0100
,  // measure 60
0001
0100
1001
0100
,  // measure 61
0010
0010
0010
0000
,  // measure 62
1001
0000
0100
0100
,  // measure 63
1000
0000
1000
0000
1001
0100
0000
0000
,  // measure 64
0000
0000
0000
0100
0000
1000
0000
0100
,  // measure 65
0000
0010
0000
1001
0000
0000
0000
0010
,  // measure 66
0000
0000
0000
0101
0000
0000
0000
1010
,  // measure 67
0000
0000
0000
0101
0000
0000
0000
1000
,  // measure 68
0000
0100
0000
1010
0000
0000
0000
0000
,  // measure 69
0000
0100
0000
0110
0000
0000
0000
1001
,  // measure 70
0000
0000
0000
0100
0000
0100
0000
1000
,  // measure 71
0000
1000
0000
0001
0000
0000
0100
0000
,  // measure 72
0100
0010
0010
1000
,  // measure 73
1000
1000
0010
0010
,  // measure 74
0100
1001
1000
0100
,  // measure 75
0001
1001
0100
0100
,  // measure 76
0100
1010
0100
0001
,  // measure 77
0100
0011
0100
1100
,  // measure 78
0100
0110
1000
0100
,  // measure 79
0010
2002
0000
0000
,  // measure 80
0000
0000
0000
0000
,  // measure 81
0003
3000
0000
0000
0000
0000
0000
0000
;
