#TITLE:euphoric field;
#SUBTITLE:ef ~A tale of melodies~ Opening Theme;
#ARTIST:ELISA;
#TITLETRANSLIT:;
#SUBTITLETRANSLIT:;
#ARTISTTRANSLIT:;
#CREDIT:;
#BANNER:euphoric field.png;
#BACKGROUND:euphoric field-bg.png;
#LYRICSPATH:;
#CDTITLE:;
#MUSIC:euphoric field.mp3;
#OFFSET:0.000;
#SAMPLESTART:0.050;
#SAMPLELENGTH:12.000;
#SELECTABLE:YES;
#BPMS:0.000=149.980;
#STOPS:;
#BGCHANGES:;

//---------------dance-single - ----------------
#NOTES:
     dance-single:
     :
     Hard:
     14:
     0.731,0.831,0.669,0.097,0.237:
0000
0000
0000
0000
0000
0000
0001
1000
1001
0000
0000
0000
0101
0000
0000
0000
,
0100
1000
0010
0000
0100
0000
0010
0000
1001
0000
0100
0000
0010
0100
1000
0000
,
1001
0000
0100
0000
0010
0001
1000
0000
1001
0000
0100
0001
0010
0000
1000
0000
,
1001
0000
0100
0000
0010
0000
0100
0000
0010
0000
0100
0000
1000
0000
0010
1000
,
1010
0000
1000
0100
0101
0000
0100
0010
0110
0000
1000
0001
1001
0000
0100
1000
,
0010
0000
0100
0000
0010
0000
0100
0000
0010
0000
1000
0100
1100
0000
0100
0000
,
0010
0000
1000
0000
0100
0000
0010
0000
0001
0000
0100
0001
2002
0000
0000
0000
,
0000
0000
3003
0110
,
1001
0000
0000
0000
1100
0000
0100
0000
0010
0000
0100
0010
0002
0000
0000
0000
,
0000
0100
0000
0000
1000
0003
2000
0000
,
0000
0010
0000
0000
0001
3000
0011
0110
,
0010
0000
1000
0001
0100
0000
0010
0000
0001
0000
1000
0000
0100
0000
0010
0000
,
0100
0010
0100
0001
0010
0100
1001
1001
,
0010
0100
1000
0100
0010
0001
0100
0010
,
0100
0010
1000
0100
0010
0001
1001
1001
,
0001
0100
1000
0100
0010
0001
0010
0100
,
0001
0100
0010
0001
0010
0100
1001
0100
,
0010
0100
0010
0100
1000
0100
1100
0100
,
0100
0010
0001
0010
0001
0010
0011
0011
,
0001
0010
0100
0010
0100
1000
0100
0010
,
1000
0100
0010
0001
0010
0100
1010
0110
,
1000
0010
0101
0010
0100
0010
0101
0010
,
0001
0010
0100
0010
0100
0001
0101
0010
,
0001
0010
0001
0100
1000
0100
0010
0001
,
0010
1000
0100
0000
0010
0001
0100
0000
0001
0000
0100
0000
1001
0000
0100
0000
,
0010
0001
0010
0001
0011
0011
0100
0010
,
0100
0001
0100
0010
0110
0100
0101
0010
,
0100
0010
0100
0001
1001
0100
0110
0001
,
0101
1010
0100
0010
0100
0010
1001
0100
,
0110
0100
0001
0100
1000
0100
1100
0100
,
0010
0100
0001
0100
0010
0100
1001
0100
,
0010
0000
0100
0000
0001
0000
0100
0000
0010
0000
1000
0010
1010
0000
0100
0000
,
0001
0000
0100
0000
0010
0000
0100
0000
0001
0000
1000
0001
1001
0000
0100
0000
,
0010
0000
0100
1000
1001
0000
0100
0000
0010
0000
1000
0100
1100
0000
0100
0010
,
0110
0000
0010
0001
0011
0000
0001
0010
0011
0000
0010
0100
0110
0000
0100
1000
,
0010
0000
0100
0000
0010
0000
0100
0001
0010
0000
1000
0000
1001
0000
0100
1000
,
0010
0000
0100
0000
0010
0000
0100
0010
0001
0000
1000
0000
0010
0000
0100
0010
,
0001
0000
0100
0000
0010
0100
1000
0000
0100
0000
0010
0000
0001
0000
0010
0001
,
1001
0000
0010
1000
1010
0000
0100
0001
0101
0000
0100
0010
0110
0000
0100
0000
,
0010
0000
0100
0000
0010
0000
0100
0000
1000
0000
0100
1000
0001
0000
0100
0000
,
0010
0000
0100
0000
0010
0000
0100
0010
0001
0000
1000
0000
0100
0000
0010
0100
,
0001
0000
0010
0000
0100
0000
1000
0001
0100
0000
0010
0000
0100
0000
0010
0001
,
0100
0000
0010
0000
0100
0000
1000
0001
0100
0000
0010
0000
1010
0000
0100
0000
,
0001
0000
0100
1000
0010
0000
0100
0000
0110
0000
0100
0010
0001
0000
0100
0000
,
1001
0000
0100
1000
0010
0000
0100
0000
1010
0000
0100
0010
0001
0000
0100
0000
,
0110
1000
0100
0010
0100
0001
0100
0010
,
2000
0010
0100
0001
0100
0010
3002
0000
,
0000
0100
1000
2003
,
0010
0000
0001
0000
0010
3001
2002
0000
,
0000
0000
0000
0000
,
0000
0000
0000
0000
,
0000
0000
0000
0000
,
0000
0000
0000
0000
,
0000
0000
0000
0000
,
0000
0000
0000
0000
,
3003
0000
0000
0000
;

//---------------dance-single - ----------------
#NOTES:
     dance-single:
     :
     Medium:
     12:
     0.632,0.682,0.464,0.097,0.000:
0000
0000
0000
0010
0110
0000
0011
0000
,
0001
0100
0001
1000
0010
0001
1000
0001
,
0100
0001
1000
0010
0110
0001
0010
0100
,
0110
0001
1000
0001
1000
0001
0100
1000
,
1100
0100
0011
0001
1001
0100
0110
0001
,
0100
0001
1000
0001
1000
0100
1000
0001
,
1000
0100
0001
1000
0010
0001
0220
0000
,
0000
0000
0330
1001
,
0110
0000
0101
0001
1000
0001
1020
0000
,
0000
0001
0000
0000
0100
0030
0200
0000
,
0000
1000
0000
0000
0010
0300
0010
1001
,
1000
0100
0010
1000
0010
0100
0001
1000
,
0001
1000
0001
0010
1000
0001
0010
0100
,
1000
0001
0100
0001
1000
0010
0001
1000
,
0001
1000
0100
0001
1000
0010
0100
0010
,
0010
0001
0100
0001
1000
0010
1000
0001
,
0010
0001
1000
0010
1000
0001
0100
1000
,
0010
1000
0010
1000
0100
1000
0100
1000
,
0001
0010
0001
0010
0001
0010
0001
0010
,
0001
0010
1000
0010
1000
0100
1000
0010
,
0100
1000
0010
0001
0010
1000
0010
1010
,
0100
0010
0001
0010
1000
0010
0001
0010
,
0001
0010
1000
0010
1000
0001
1000
1010
,
0001
0010
0001
1000
0100
1000
0010
0001
,
0010
1100
0010
1001
0001
1000
0101
1000
,
0010
0001
0010
0001
0011
0001
1000
0010
,
1000
0001
1000
0010
1010
1000
0001
0010
,
1000
0010
1000
0001
0101
1000
1010
0001
,
1001
0100
1000
0010
1000
0010
0101
1000
,
1010
1000
0001
1000
0100
1000
1100
1000
,
0010
1000
0001
1000
0010
1000
0101
1000
,
0010
1000
0001
1000
0010
0100
0110
1000
,
0001
1000
0010
1000
0001
0100
0101
1000
,
0010
1000
0101
1000
0010
0100
1100
1000
,
1010
0010
0011
0001
0011
0010
1010
1000
,
0110
1000
0010
1000
0001
0100
0101
1000
,
0010
1000
0010
1000
0001
0100
0010
1000
,
0001
1000
0010
0100
1000
0010
0001
0010
,
0101
0010
0110
1000
1001
1000
1010
1000
,
0010
1000
0010
1000
0100
1000
0100
1000
,
0010
1000
0010
1000
0001
0100
1000
0010
,
0001
0010
1000
0100
0001
0010
1000
0010
,
0001
0010
1000
0100
0001
1000
0010
1000
,
0001
1000
0010
1000
0010
1000
0001
1000
,
0100
1000
0010
1000
0100
1000
0001
1000
,
0010
0100
1000
0010
1000
0001
1000
0010
,
0200
0010
1000
0001
1000
0010
0302
0000
,
0000
1000
0100
0203
,
0010
0001
0310
0202
,
0000
0000
0000
0000
,
0000
0000
0000
0000
,
0000
0000
0000
0000
,
0000
0000
0000
0000
,
0000
0000
0000
0000
,
0000
0000
0000
0000
,
0303
0000
0000
0000
;

//---------------dance-single - ----------------
#NOTES:
     dance-single:
     :
     Easy:
     6:
     0.344,0.445,0.399,0.140,0.000: // measure 1
0000
0000
1100
1001
,  // measure 2
0001
0001
1000
0010
,  // measure 3
0100
0010
1100
2000
,  // measure 4
0000
3000
0010
0000
0010
0000
0100
0000
,  // measure 5
0110
1001
0011
1100
,  // measure 6
0200
0000
0000
0320
,  // measure 7
0000
0000
0030
2200
,  // measure 8
0000
0000
3300
0011
,  // measure 9
1100
0101
0010
2010
,  // measure 10
0000
0000
0000
0000
0100
3000
0200
0000
,  // measure 11
0000
0000
0000
0000
1000
0300
1000
0000
,  // measure 12
0010
1000
1000
0000
,  // measure 13
0010
0001
0000
1000
,  // measure 14
0010
0000
0000
0200
,  // measure 15
0000
0300
0000
0000
0010
0000
0100
0000
,  // measure 16
1000
0000
0010
0010
,  // measure 17
1000
0010
0010
0100
,  // measure 18
1000
1000
0100
0100
,  // measure 19
0001
0001
0001
0001
,  // measure 20
0001
0010
0010
0010
,  // measure 21
0100
1000
1000
1000
,  // measure 22
0100
0001
0010
0001
,  // measure 23
0001
0010
0010
0010
,  // measure 24
0001
0001
0100
1000
,  // measure 25
1000
1000
0001
0101
,  // measure 26
1000
1000
1001
0010
,  // measure 27
0010
0010
1010
0001
,  // measure 28
0010
0010
0101
1010
,  // measure 29
0011
0010
0010
0101
,  // measure 30
1010
0001
0100
0110
,  // measure 31
1000
0001
1000
0101
,  // measure 32
1000
0001
1000
1100
,  // measure 33
0001
1000
0001
0101
,  // measure 34
1000
0101
1000
0110
,  // measure 35
1010
1001
1001
1010
,  // measure 36
1100
1000
0001
0101
,  // measure 37
1000
1000
0001
1000
,  // measure 38
0001
1000
0010
0001
,  // measure 39
0101
1100
0011
1010
,  // measure 40
1000
1000
0100
0100
,  // measure 41
1000
1000
0001
0010
,  // measure 42
0001
0010
0001
0010
,  // measure 43
0001
0010
0001
1000
,  // measure 44
0001
1000
1000
0001
,  // measure 45
0100
1000
0100
0001
,  // measure 46
1000
0010
0010
0010
,  // measure 47
0200
0010
0010
0302
,  // measure 48
0000
0010
0100
0203
,  // measure 49
1000
0001
1300
0202
,  // measure 50
0000
0000
0000
0000
,  // measure 51
0000
0000
0000
0000
,  // measure 52
0000
0000
0000
0000
,  // measure 53
0000
0000
0000
0000
,  // measure 54
0000
0000
0000
0000
,  // measure 55
0000
0000
0000
0000
,  // measure 56
0303
0000
0000
0000
;

//---------------dance-single - ----------------
#NOTES:
     dance-single:
     :
     Challenge:
     14:
     0.650,0.656,0.550,0.097,0.156:
0000
0000
0000
0100
0110
MMMM
1100
0000
,
1000
0010
0001
0000
1000
0000
0001
0000
0110
0000
1000
0000
0001
1000
0010
0000
,
0110
0000
1000
0000
0001
0100
0010
0000
0110
0000
1000
0000
MMMM
0000
0000
0000
,
0110
1000
0001
1000
0001
1000
0010
MMMM
,
0010
0000
MMMM
0000
1000
0000
MMMM
0000
0001
0000
MMMM
0000
0100
0000
1000
0010
,
0001
0000
1000
0000
0001
0000
1000
0000
0001
0000
0010
1000
1010
0000
1000
0000
,
0001
0000
0010
0000
1000
0000
0001
0000
0100
0000
1000
0100
0220
0000
0000
0000
,
0000
0000
0000
0000
0330
MMMM
1001
MMMM
,
0110
0000
MMMM
0000
1010
0000
1000
0000
0001
0000
1000
0001
0200
0000
0000
0000
,
0000
1000
0000
0000
0010
0300
0020
0000
,
0000
0001
0000
0000
0100
0030
0101
MMMM
,
0001
0000
0010
0100
1000
0000
0001
0000
0100
0000
0010
0000
1000
0000
0001
0000
,
1000
0001
1000
0100
0001
1000
0110
MMMM
,
0001
1000
0010
1000
0001
0100
1000
0001
,
1000
0001
0010
1000
0001
0100
0110
MMMM
,
0100
1000
0010
1000
0001
0100
0001
1000
,
0100
1000
0001
0100
0001
1000
0110
MMMM
,
0001
1000
0001
1000
0010
1000
1010
1000
,
1000
0001
0100
0001
0100
0001
0101
MMMM
,
0100
0001
1000
0001
1000
0010
1000
0001
,
0010
1000
0001
0100
0001
1000
0011
MMMM
,
0010
0001
1100
0001
1000
0001
1100
0001
,
0100
0001
1000
0001
1000
0100
1100
MMMM
,
0100
0001
0100
1000
0010
1000
0001
0100
,
0001
0010
1000
0000
0001
0100
1000
0000
0100
0000
1000
0000
0110
0000
1000
0000
,
0001
0100
0001
0100
0101
MMMM
1000
0001
,
1000
0100
1000
0001
1001
MMMM
1100
0001
,
1000
0001
1000
0100
0110
MMMM
1001
0100
,
1100
0011
1000
0001
1000
0001
0110
1000
,
1001
1000
0100
1000
0010
1000
1010
1000
,
0001
1000
0100
1000
0001
1000
0110
1000
,
0001
0000
1000
0000
0100
0000
1000
0000
0001
0000
0010
0001
0011
0000
1000
0000
,
0100
0000
1000
0000
0001
0000
1000
0000
0100
0000
0010
0100
0110
0000
1000
0000
,
0001
0000
1000
0010
0110
0000
1000
0000
0001
0000
MMMM
0000
1010
0000
MMMM
0000
,
1001
0000
MMMM
0000
0101
0000
MMMM
0000
0101
0000
MMMM
0000
1001
0000
1000
0010
,
0001
0000
1000
0000
0001
0000
1000
0100
0001
0000
0010
0000
0110
0000
1000
0010
,
0001
0000
1000
0000
0001
0000
1000
0001
0100
0000
0010
0000
0001
0000
1000
0001
,
0100
0000
1000
0000
0001
1000
0010
0000
1000
0000
0001
0000
0100
0000
MMMM
0000
,
0110
MMMM
0011
MMMM
1100
MMMM
1001
1000
,
0001
0000
1000
0000
0001
0000
1000
0000
0010
0000
1000
0010
0100
0000
1000
0000
,
0001
0000
1000
0000
0001
0000
1000
0001
0100
0000
0010
0000
1000
0000
0001
1000
,
0100
0000
0001
0000
1000
0000
0010
0100
1000
0000
0001
0000
1000
0000
0001
0100
,
1000
0000
0001
0000
1000
0000
0010
0100
1000
0000
0001
0000
MMMM
0000
1000
0000
,
0100
0000
1000
0010
0001
0000
1000
0000
1001
0000
1000
0001
0100
0000
1000
0000
,
0110
0000
1000
0010
0001
0000
1000
0000
0011
0000
1000
0001
0100
0000
1000
0000
,
1001
0010
1000
0001
1000
0100
1000
0001
,
0020
0001
1000
0100
1000
0001
0230
0000
,
0000
1000
0010
0320
,
0001
0000
0100
0000
0001
0130
0220
0000
,
0000
0000
0000
0000
,
0000
0000
0000
0000
,
0000
0000
0000
0000
,
0000
0000
0000
0000
,
0000
0000
0000
0000
,
0000
0000
0000
0000
,
0330
MMMM
0000
0000
;

//---------------dance-single - ----------------
#NOTES:
     dance-single:
     :
     Beginner:
     2:
     0.131,0.148,0.054,0.108,0.000:
0000
0000
1100
0000
,
0001
0000
0001
0000
,
0100
0000
0100
0000
,
0010
0000
0010
0000
,
0100
0000
0100
0000
,
1000
0000
1000
0000
,
0100
0000
0010
0002
,
0000
0000
0000
0000
,
0003
0000
0000
2000
,
0000
0000
3000
0002
,
0000
0000
0003
0200
,
0000
0000
0300
0020
,
0000
0030
0000
2000
,
0000
3000
0000
0002
,
0000
0003
0000
0200
,
0000
0300
0000
0020
,
0000
0030
0000
1000
,
0000
0000
1000
0010
,
0000
0000
0000
0001
,
0000
0000
0001
0100
,
0000
0000
0000
0010
,
0000
0000
0010
0100
,
0000
0000
0000
0100
,
0000
0000
0100
0010
,
0000
0000
0000
1000
,
0000
0000
0001
1000
,
0000
0000
1000
0001
,
0000
0000
0001
1000
,
0000
0000
1000
0001
,
0000
0000
0010
0100
,
0000
0000
1000
1000
,
0000
0000
0001
0001
,
0000
0000
0000
0100
,
0000
0010
0000
1000
,
0001
1000
0001
0100
,
0000
0000
0000
0010
,
0000
0000
0000
0100
,
0000
0000
0000
0000
,
0001
0000
0100
0000
,
0000
0000
0000
1000
,
0000
0000
0000
0010
,
0000
0000
0000
0001
,
0000
0000
0000
0110
,
0000
0000
0000
1000
,
0000
0000
0000
0001
,
0000
0000
0000
0100
,
0000
0000
0000
1001
,
0000
0000
0000
1001
,
0000
0000
0000
2001
,
0000
0000
0000
0000
,
0000
0000
0000
0000
,
0000
0000
0000
0000
,
0000
0000
0000
0000
,
0000
0000
0000
0000
,
0000
0000
0000
0000
,
0000
3000
0000
0000
0000
0000
0000
0000
0000
0000
0000
0000
0000
0000
0000
0000
0000
0000
0000
0000
0000
0000
0000
0000
0000
0000
0000
0000
0000
0000
0000
0000
0000
0000
0000
0000
0000
0000
0000
0000
0000
0000
0000
0000
0000
0000
0000
0000
0000
0000
0000
0000
0000
0000
0000
0000
0000
0000
0000
0000
0000
0000
0000
0000
0000
0000
0000
0000
0000
0000
0000
0000
0000
0000
0000
0000
0000
0000
0000
0000
0000
0000
0000
0000
0000
0000
0000
0000
0000
0000
0000
0000
0000
0000
0000
0000
0000
0000
0000
0000
0000
0000
0000
0000
0000
0000
0000
0000
0000
0000
0000
0000
0000
0000
0000
0000
0000
0000
0000
0000
0000
0000
0000
0000
0000
0000
0000
0000
0000
0000
0000
0000
0000
0000
0000
0000
0000
0000
0000
0000
0000
0000
0000
0000
0000
0000
0000
0000
0000
0000
0000
0000
0000
0000
0000
0000
0000
0000
0000
0000
0000
0000
0000
0000
0000
0000
0000
0000
0000
0000
0000
0000
0000
0000
0000
0000
0000
0000
0000
0000
0000
0000
0000
0000
0000
0000
0000
0000
0000
0000
0000
0000
;
