#TITLE:Yellow Sunrise;
#SUBTITLE:;
#ARTIST:xac;
#TITLETRANSLIT:;
#SUBTITLETRANSLIT:;
#ARTISTTRANSLIT:;
#GENRE:;
#CREDIT:;
#BANNER:Yellow Sunrise.png;
#BACKGROUND:Yellow Sunrise-bg.png;
#LYRICSPATH:;
#CDTITLE:;
#MUSIC:Yellow Sunrise.mp3;
#OFFSET:-0.055;
#SAMPLESTART:100.010;
#SAMPLELENGTH:12.000;
#SELECTABLE:YES;
#BPMS:0.000=174.000
,200.000=87.000
,232.000=174.000
;
#STOPS:
;
#BGCHANGES:;
#KEYSOUNDS:;
#ATTACKS:;

//---------------dance-single - ----------------
#NOTES:
     dance-single:
     :
     Hard:
     16:
     0.700,0.951,0.153,0.048,0.337,585.000,19.000,6.000,0.000,0.000,0.000,0.700,0.951,0.153,0.048,0.337,585.000,19.000,6.000,0.000,0.000,0.000:
0000
0000
0000
0000
,
0000
0000
0000
0000
,
0000
0000
0000
0000
,
0000
0000
0000
0000
,
0000
0000
0000
0000
,
0000
0000
0000
0000
,
0010
0000
0010
0000
1000
1000
0010
0000
,
1000
0000
0010
0000
0001
0001
0001
0100
,
0110
0000
0100
0000
1100
0000
0010
0000
0100
0010
0110
0000
0100
0000
0010
1000
,
1010
0000
1000
0000
0100
0010
0110
0000
0010
0000
0010
0100
0110
0000
1000
0000
,
0110
0100
0010
0100
0010
0100
0010
0000
,
1000
0100
0001
0100
0010
0100
0010
0000
,
0010
0100
0010
0010
0100
0010
0100
0000
,
1000
0100
1000
1000
1000
0010
0100
0010
,
0100
0100
0010
1000
0010
0100
0000
0010
,
0010
0100
0010
0100
0001
0100
0000
0010
,
1000
1000
1000
0010
0100
0010
0100
0010
,
0100
0100
0010
1000
0001
0100
0001
0100
,
0010
0000
0010
0000
0100
0010
0100
0010
,
0100
1000
0100
0010
0100
0010
0100
0010
,
0100
0000
0010
0010
0100
0001
0100
0010
,
0100
0000
0010
0010
0000
1000
1000
0000
,
0001
0000
0100
0000
0010
0010
0100
0001
,
0100
0000
0010
0100
0010
0100
0010
1000
,
0100
0000
1000
1000
0100
0100
0010
0010
,
1000
0000
1000
0000
0001
0000
0001
0000
0100
0010
0100
0010
0100
0010
0100
0010
,
0100
0000
0010
0100
0010
0000
0010
0000
0100
0010
0100
0000
0100
0000
0010
0000
,
1000
0001
1000
0001
1000
0001
1000
0001
0100
0010
0100
0010
0100
0010
0100
0010
,
0200
0000
0000
0000
0301
0000
0100
0010
0001
0000
0100
0000
0000
0000
0100
0001
,
0010
0000
0010
0100
0010
1000
0100
0000
0100
0000
0100
0000
0100
0010
0001
1000
,
1001
0000
0100
0010
0100
0010
1000
0100
,
0010
0000
0001
0010
0100
0000
0010
1000
0100
0000
0010
0001
0100
0000
0010
0100
,
1000
1000
0001
0001
0100
0100
0010
0010
,
1000
0100
0010
0100
0010
0100
0001
0100
,
1000
0100
1000
0100
0010
0100
0010
0001
0010
0001
0010
0100
0010
0100
1000
0100
,
1000
0100
1000
0100
0010
0100
0010
0001
0010
0001
0010
0100
0010
0100
1000
0100
,
2000
0000
0000
0000
3010
0100
0010
0000
0100
0000
0010
0100
0010
0000
0100
1000
,
0010
0000
0100
0001
1000
0000
0100
1000
0010
0000
0001
1000
0100
0000
0010
0001
,
0100
0001
1010
0100
0010
0001
0110
0010
,
0100
0010
1010
0100
0010
0100
0101
0100
,
0010
1000
1000
1000
,
2000
0000
0000
0000
,
3001
0100
0010
0100
0010
0100
0010
0100
,
1000
1000
0100
0100
0010
0010
0100
0001
,
0100
0010
1000
0010
0100
0010
0100
0010
,
1000
1000
0100
0010
0100
0010
0100
0010
,
0001
0001
0100
0010
0100
0010
0100
0010
,
1000
1000
0100
0010
0100
0010
0001
0010
,
0100
0100
0010
1000
0100
0010
0001
0010
,
0010
0010
0100
0001
0100
0010
0100
0010
,
1001
0000
0100
0000
0100
0000
0100
0000
0100
0000
0010
0000
1000
0000
1000
0100
,
0010
0001
0100
0000
0010
0000
0010
0000
0010
0000
0010
0000
1000
0000
1000
0100
,
0010
0001
0100
0000
0010
0000
0010
0000
0010
0000
0010
0000
0100
0000
0100
1000
,
0100
0010
0001
0000
0100
0000
0010
0000
0100
0000
0010
0000
0100
0010
0100
0010
,
1000
1000
1000
1000
1000
0001
0001
0001
,
0100
0010
0010
0010
1000
0100
0100
0100
,
0010
0010
0010
0010
0001
0001
0001
0001
,
1000
0000
0100
0000
0010
0100
0010
0100
0010
0100
1000
0100
0010
0001
0100
0010
,
0100
0000
0100
0010
0100
0000
0010
0000
0100
0010
0100
0000
0100
0000
0010
0000
,
0100
0010
0100
0010
0100
1000
0100
1000
0100
0010
0100
0010
0200
0000
0000
0000
,
0301
0000
0001
0010
0100
0000
0100
0000
0010
0000
0100
0000
0000
0000
0110
0000
,
1000
0100
0010
0001
0100
0010
0100
0010
,
1001
0100
0010
0100
0000
0110
0010
0100
,
0001
0001
1000
1000
1000
0001
0001
0001
,
0100
0100
0010
0010
1000
1000
0100
0000
,
0110
0010
0100
0001
0100
0010
0100
0010
,
1000
0100
1000
0000
0010
0100
0010
0000
0100
0010
0100
0000
0001
0010
0001
0000
,
1000
0001
1000
0000
0100
0010
0100
0000
0010
0100
0010
0000
0001
1000
0001
0000
,
0010
0000
0001
1000
0010
0000
0100
0000
1000
0001
0100
0000
0010
0000
0001
0000
,
0200
0310
2000
3010
,
0100
0000
0010
0100
1010
0100
0010
0001
,
0100
0010
0100
0010
0100
0010
0100
0010
,
1000
1000
0100
0100
0010
0010
0001
0001
,
0100
0100
1000
0100
0010
0001
0100
0010
,
1001
0000
0000
0000
;

//---------------dance-single - ----------------
#NOTES:
     dance-single:
     :
     Medium:
     15:
     0.623,0.892,0.072,0.048,0.285,528.000,9.000,6.000,0.000,0.000,0.000,0.623,0.892,0.072,0.048,0.285,528.000,9.000,6.000,0.000,0.000,0.000:
0000
0000
0000
0000
,
0000
0000
0000
0000
,
0000
0000
0000
0000
,
0000
0000
0000
0000
,
0000
0000
0000
0000
,
0000
0000
0000
0000
,
0001
0000
0001
0000
0010
0010
0001
0000
,
0010
0000
0001
0000
0100
0100
0100
0000
,
1000
0000
1000
0000
1000
0000
0000
0000
1000
0001
1000
0000
1000
0000
0001
0010
,
0001
0000
0010
0000
1000
0001
1000
0000
0001
0000
0001
1000
0001
0000
0000
0000
,
1001
0000
0001
1000
0001
1000
0001
0000
,
0010
1000
0100
1000
0001
1000
0001
0000
,
0001
1000
0001
0001
1000
0001
1000
0000
,
0010
1000
0010
0010
0010
0001
1000
0000
,
1000
1000
0001
0010
0001
1000
0000
0001
,
0001
1000
0001
1000
0100
1000
0001
0000
,
0010
0010
0010
0001
1000
0001
1000
0001
,
1000
1000
0001
0010
0100
1000
0100
1000
,
0001
0000
0001
0000
1000
0001
1000
0010
,
1000
0000
1000
0001
1000
0001
1000
0001
,
1000
0000
0001
0001
1000
0100
1000
0001
,
1000
0000
0001
0001
0000
0010
0010
0000
,
0100
0000
1000
0000
0001
0001
1000
0100
,
1000
0000
0001
1000
0001
1000
0001
0010
,
1000
0000
0010
0010
1000
1000
0001
0001
,
0010
0000
0010
0000
0100
0000
0100
0000
1000
0001
1000
0000
1000
0001
1000
0000
,
1000
0000
0001
1000
0001
0000
0001
0000
1000
0001
1000
0000
1000
0000
0001
0000
,
0010
0100
0010
0100
0010
0000
0010
0100
1000
0001
1000
0000
1000
0001
1000
0001
,
2000
0000
0000
0000
3000
0000
1000
0001
0100
0000
0000
0000
0000
0000
1000
0100
,
0001
0000
0001
1000
0001
0000
1000
0000
1000
0000
1000
0000
1000
0001
0100
0010
,
0100
0000
1000
0001
1000
0001
0010
1000
,
0001
0000
0100
0001
1000
0000
0001
0010
1000
0000
0001
0100
1000
0000
0001
1000
,
0010
0010
0100
0100
1000
1000
0001
0001
,
0010
1000
0001
1000
0001
1000
0100
0000
,
1000
0100
1000
0100
1000
0100
0001
0100
0001
0100
0001
0100
1000
0100
1000
0000
,
0001
0010
0001
0010
0001
0010
1000
0010
1000
0010
0001
0010
0001
0010
0001
0000
,
0020
0000
0000
0000
0031
1000
0001
0000
0000
0000
0001
1000
0001
0000
1000
0100
,
1000
0000
0100
0010
0100
0000
0010
0100
0010
0000
0001
0010
0001
0000
0001
0100
,
1000
0000
0011
0000
0001
0100
1001
0000
,
1000
0001
0011
0000
0001
1000
1100
1000
,
0001
0010
0010
0010
,
0020
0000
0000
0000
,
0130
1000
0001
1000
0001
1000
0001
0000
,
0010
0010
1000
1000
0001
0001
1000
0000
,
1000
0001
0010
0001
1000
0001
1000
0000
,
0010
0010
1000
0001
1000
0001
1000
0000
,
0100
0100
1000
0001
1000
0001
1000
0000
,
0010
0010
1000
0001
1000
0001
0100
0000
,
1000
1000
0001
0010
1000
0001
0100
0000
,
0001
0001
1000
0100
1000
0001
1000
0000
,
0100
1000
1000
1000
0000
0001
0010
0010
,
0001
0100
1000
0000
0001
0000
0001
0000
0001
0000
0000
0000
0010
0000
0010
0000
,
0001
0100
1000
0000
0001
0000
0001
0000
0001
0000
0000
0000
0000
0000
1000
0010
,
1000
0000
0100
0000
1000
0000
0001
0000
0000
0000
0001
0000
1000
0001
1000
0000
,
0010
0010
0010
0010
0000
0100
0100
0100
,
1000
0001
0001
0001
0000
1000
1000
1000
,
0001
0000
0001
0000
0100
0100
0100
0100
,
0000
0000
1000
0000
0001
1000
0001
1000
0001
0000
0010
1000
0001
0100
1000
0000
,
1000
0000
1000
0001
1000
0000
0000
0000
1000
0001
1000
0000
1000
0000
0000
0000
,
1000
0001
1000
0001
1000
0010
0000
0010
1000
0001
1000
0001
2000
0000
0000
0000
,
3100
0000
0100
0001
1000
0000
1000
0000
0001
0000
1000
0000
0000
0000
1000
0000
,
0010
1000
0001
0100
1000
0001
1000
0000
,
0110
1000
0001
1000
0000
1001
0001
1000
,
0100
0100
0010
0010
0000
0100
0100
0100
,
1000
1000
0001
0001
0000
0010
1000
0000
,
1001
0000
1000
0100
1000
0001
1000
0000
,
0010
1000
0010
0000
0001
1000
0001
0000
1000
0001
1000
0000
0100
0001
0100
0000
,
0010
0100
0010
0000
1000
0001
1000
0000
0001
1000
0001
0000
0100
0010
0100
0000
,
0001
0000
0100
0010
0100
0000
1000
0000
0010
0100
0010
0000
0001
0000
0100
0000
,
2000
3001
0020
0031
,
1000
0000
0001
1000
0001
1000
0001
0000
,
1000
0001
1000
0001
1000
0001
1000
0000
,
0010
0010
1000
1000
0001
0001
0100
0000
,
1000
1000
0010
1000
0001
0100
1000
0000
,
0110
0000
0000
0000
;

//---------------dance-single - ----------------
#NOTES:
     dance-single:
     :
     Easy:
     11:
     0.511,0.773,0.072,0.048,0.121,430.000,9.000,6.000,0.000,0.000,0.000,0.511,0.773,0.072,0.048,0.121,430.000,9.000,6.000,0.000,0.000,0.000:
0000
0000
0000
0000
,
0000
0000
0000
0000
,
0000
0000
0000
0000
,
0000
0000
0000
0000
,
0000
0000
0000
0000
,
0000
0000
0000
0000
,
1000
1000
0100
1000
,
0100
1000
0010
0010
,
0001
0000
0000
0000
0001
0000
0000
0000
0001
1000
0001
0000
0000
0000
1000
0100
,
1000
0000
0000
0000
0001
1000
0001
0000
0000
0000
1000
0001
1000
0000
0000
0000
,
1001
0000
1000
0001
1000
0100
0000
0000
,
0100
0001
0010
0001
1000
0001
0000
0000
,
1000
0001
1000
1000
0001
1000
0000
0000
,
0100
0001
0100
0100
0100
0000
0001
0000
,
0001
0001
1000
0100
1000
0000
0000
0000
,
1000
0001
1000
0001
0010
0000
0000
0000
,
0100
0100
0100
1000
0001
0000
0001
1000
,
0001
0000
1000
0100
0010
0001
0000
0001
,
1000
0000
1000
0000
0001
1000
0001
0000
,
0001
0000
0001
1000
0001
0000
0001
1000
,
0001
0000
1000
1000
0001
0010
0000
1000
,
0001
0000
1000
1000
0000
0100
0100
0000
,
0010
0000
0001
0000
1000
1000
0000
0010
,
0001
0000
1000
0001
1000
0000
1000
0100
,
0001
0000
0100
0100
0001
0000
1000
1000
,
0100
0000
0010
0010
0001
0001
0100
0100
,
0010
1000
1000
1000
0001
0001
0001
1000
,
0100
0010
0100
0000
0100
0000
0100
0010
0100
0000
0100
0000
0100
0000
0100
0010
,
0200
0000
0300
0001
0010
0000
0000
0001
,
1000
1000
1000
0001
0001
0001
0000
0010
,
0010
1000
0001
1000
0000
1000
0100
0000
,
1000
0010
0001
1000
0000
1000
0001
0000
,
0100
0100
0010
0010
0000
0001
1000
0000
,
0100
0001
1000
0001
0000
0001
0010
0000
,
0001
0010
0001
0010
0001
0000
1000
0010
1000
0010
1000
0000
0001
0010
0001
0000
,
1000
0100
1000
0100
1000
0000
0001
0100
0001
0100
0001
0000
1000
0100
1000
0000
,
0200
0000
1300
1000
0000
1000
1000
0001
,
0001
0010
0010
0100
0100
1000
1000
1000
,
0001
1100
1000
1001
,
0001
1100
1000
0011
,
1000
0100
0100
0100
,
0200
0000
0000
0000
,
0310
0001
1000
0001
1000
0001
1000
0000
,
0100
0100
0001
0000
1000
1000
0001
0000
,
0001
1000
0100
1000
0001
1000
0001
0000
,
0100
0100
0001
0000
0001
1000
0001
0000
,
0010
0010
0001
1000
0001
1000
0001
0000
,
0100
0100
0001
0000
0001
1000
0010
0000
,
0001
0001
1000
0100
0001
1000
0010
0000
,
1000
1000
0001
0000
0001
0000
0001
0000
,
0010
0001
0000
0001
0000
1000
0100
0100
,
0000
0000
0001
0010
1000
0000
0000
0000
1000
0000
0000
0000
0100
0010
0000
1000
,
0000
0010
0001
0000
1000
0000
0000
0000
1000
0000
0000
0000
0010
0000
0000
0001
,
0100
0010
0000
1000
0000
1000
0001
0001
,
0100
0000
0100
0100
0000
0010
0010
0010
,
0000
1000
1000
1000
0000
0001
0001
0001
,
0000
0000
1000
0000
0010
0010
0010
0010
,
0000
0000
0001
0000
1000
0001
1000
0000
1000
0000
0100
0001
1000
0000
0001
0000
,
0001
0000
0001
1000
0001
0000
0000
0000
0001
1000
0001
0000
0000
0000
0000
0000
,
0001
1000
0001
0000
0001
0100
0000
0100
0001
1000
0001
0000
0002
0000
0000
0000
,
0013
0010
0001
0001
1000
0001
0000
0001
,
0100
0001
1000
0010
0001
0000
0001
0000
,
0110
0001
1000
0000
0000
1001
1000
0001
,
0010
0000
0100
0100
0000
0010
0010
0000
,
0001
0001
1000
1000
0000
0100
0001
0000
,
1001
0000
0001
0010
0001
1000
0001
0000
,
0100
0100
1000
1000
0001
0001
0010
0010
,
0100
0100
0001
0001
1000
1000
0010
0010
,
1000
0010
0010
0001
0100
0100
1000
0010
,
0002
1003
0200
1300
,
0001
0000
1000
0001
1000
0001
1000
0000
,
0001
1000
0001
1000
0001
1000
0001
0000
,
0100
0100
0001
0000
1000
1000
0010
0000
,
0001
0001
0100
0000
1000
0010
0001
0000
,
0110
0000
0000
0000
;

//---------------dance-single - ----------------
#NOTES:
     dance-single:
     :
     Beginner:
     6:
     0.241,0.238,0.048,0.016,0.000,202.000,6.000,2.000,0.000,0.000,0.000,0.241,0.238,0.048,0.016,0.000,202.000,6.000,2.000,0.000,0.000,0.000:
0000
0000
0000
0000
,
0000
0000
0000
0000
,
0000
0000
0000
0000
,
0000
0000
0000
0000
,
0000
0000
0000
0000
,
0000
0000
0000
0000
,
1000
1000
0100
0000
,
0100
1000
0010
0000
,
0001
0001
0001
0000
,
1000
0001
0000
1000
,
1001
0000
1000
0000
,
0100
0010
1000
0000
,
1000
1000
0001
0000
,
0100
0100
0100
0000
,
0001
1000
1000
0000
,
1000
1000
0010
0000
,
0100
0100
0001
0001
,
0001
0000
0010
0000
,
1000
1000
0001
0001
,
0001
0000
0001
0001
,
0001
1000
0001
0000
,
0001
1000
0000
0100
,
0010
0001
1000
0000
,
0001
1000
1000
1000
,
0000
0100
0001
0000
,
0100
0010
0001
0000
,
0010
1000
0001
0000
,
0100
0100
0100
0000
,
0200
0000
0310
0000
,
1000
1000
0001
0000
,
0010
0001
0000
0100
,
1000
0001
0000
0001
,
0100
0010
0000
1000
,
0100
1000
0000
0010
,
0001
0001
1000
0001
,
0000
1000
0001
1000
,
0100
1000
0000
1000
,
0001
0010
0100
1000
,
0000
1001
0000
1001
,
0000
0110
0000
0110
,
0000
0100
0100
0100
,
0200
0000
0000
0000
,
0310
1000
1000
1000
,
0000
0001
1000
0001
,
0000
0100
0001
0001
,
0000
0001
0001
0001
,
0000
0001
0001
0001
,
0000
0001
0001
0010
,
0000
1000
0001
0010
,
0000
0001
0001
0001
,
0010
0000
0000
0100
,
0000
1000
1000
0100
,
0000
1000
1000
0010
,
0100
0000
0000
0001
,
0100
0100
0000
0010
,
0000
1000
0000
0001
,
0000
1000
0010
0010
,
0010
1000
0000
1000
,
0001
0001
0001
0000
,
0001
0001
0001
0000
,
0010
0001
1000
0000
,
0100
1000
0001
0000
,
0100
1000
0000
1000
,
0010
0100
0000
0010
,
0001
1000
0000
0001
,
1000
0001
0001
0001
,
0000
1000
0001
0010
,
0100
0000
1000
0010
,
1000
0010
0000
1000
,
0001
1000
0100
1000
,
0000
1000
1000
1000
,
0000
0001
0001
0001
,
0000
0001
1000
0010
,
0010
0100
1000
0000
,
0110
0000
0000
0000
;
