#TITLE:Unicorn tail;
#SUBTITLE:;
#ARTIST:DJ Yoshitaka;
#TITLETRANSLIT:;
#SUBTITLETRANSLIT:;
#ARTISTTRANSLIT:;
#CREDIT:;
#BANNER:Unicorn tail.png;
#BACKGROUND:Unicorn tail-bg.png;
#LYRICSPATH:;
#CDTITLE:;
#MUSIC:Unicorn tail.mp3;
#OFFSET:0.000;
#SAMPLESTART:100.050;
#SAMPLELENGTH:12.000;
#SELECTABLE:YES;
#BPMS:0.000=170.000,359.000=85.000;
#STOPS:;
#BGCHANGES:;

//---------------dance-single - ----------------
#NOTES:
     dance-single:
     :
     Hard:
     13:
     0.518,0.695,0.170,0.092,0.067:
0000
0000
0000
0000
,
0000
0000
0000
0000
,
0000
0000
0000
0000
,
0000
0000
0000
0000
,
0000
0000
0000
0000
,
0000
0000
0000
0000
,
0000
0000
0000
0000
,
0000
0000
0000
0000
,
1001
0000
0100
0000
0010
1000
1000
0000
,
0100
0010
0001
0100
0010
0100
0010
0000
,
0100
0100
1000
0000
0100
0000
0010
0000
,
0001
0010
0100
1000
0100
0001
0001
0000
,
0100
0000
0010
0000
1000
0100
0001
0000
,
1001
0000
0100
0010
0100
0001
0100
0000
,
1001
0100
0110
0002
,
1003
0100
0000
0010
0001
0000
0100
0000
,
2002
0000
0000
0000
,
0000
0000
0000
3003
,
1000
0000
0100
0000
0010
0000
1000
0001
,
0000
0100
0000
0010
0000
1000
0100
0010
,
0001
0000
0100
0000
0100
0000
1000
0100
,
0000
0010
0000
0001
0000
1000
0100
0001
,
0100
0000
0010
0000
0010
0000
1000
0100
,
0000
0001
0000
0001
0000
0001
0000
0010
,
1000
0000
0100
0010
0001
0000
0100
0010
,
0000
0010
0000
0010
1000
0100
0001
0000
,
0100
0000
0010
0000
0001
0010
1000
0000
,
0100
0001
0100
0010
0100
0010
0100
0010
,
1000
0000
0100
0000
0010
0001
0100
0010
,
0100
0000
1000
0000
0100
0010
0001
0100
,
0010
0000
1000
0000
0100
0000
1000
0100
,
0010
0001
0010
0100
1000
0001
2000
0000
,
3001
0000
0001
0000
0100
0010
0100
0000
,
1000
0100
0010
0000
0001
0000
0001
0000
,
1000
0100
0010
0000
0100
0001
0100
0000
,
0001
0010
0100
1000
0001
0001
1000
1000
,
0000
0010
0100
0000
0010
0000
0100
0000
,
1000
0001
2002
3003
,
1001
0000
1000
0000
0001
0000
1000
0010
,
0001
0010
1000
0010
0001
0010
1000
0000
,
0001
0001
1000
1000
,
1000
0100
0010
0001
0010
0100
1000
0000
,
0001
0000
0001
0000
0001
0000
1000
0100
,
0001
0100
1000
0100
0000
0010
0001
0010
,
0010
0000
1000
0000
0100
0000
1000
0100
,
0001
0100
1000
0100
0000
1000
0010
0001
,
0010
0000
1000
0000
0001
0000
1000
0100
,
0001
0100
1000
0100
0000
1000
0010
0001
,
0010
0000
1000
0100
0001
0000
1000
0010
,
0001
0010
1000
0010
0001
0010
1000
0010
,
0001
0000
1000
0000
1001
0000
1000
0100
,
0010
0001
0010
1000
0000
0100
0010
0001
,
0010
0000
0100
0000
1001
0000
1000
0100
,
0001
0100
1000
0100
0000
1000
0010
0001
,
1000
0000
1001
0000
1001
0000
1000
1000
,
0010
1000
0000
0000
1000
1000
0010
0000
,
0100
0010
0100
0000
0001
0001
2000
0000
,
3001
0100
0000
0100
0010
0000
1000
0000
,
1000
0000
1000
0000
1000
0100
0010
0001
,
0001
0000
1000
0000
0100
0010
1000
0001
,
0001
0000
0100
0000
1000
0100
0010
0000
,
1000
0100
0001
0000
0100
1000
0100
0001
,
0100
0000
0010
0000
1000
0010
0001
0010
,
1000
0010
0001
0010
1000
0001
2000
0000
,
3001
0000
0100
0000
1000
0100
0001
0000
,
1000
1000
0001
0001
,
1000
0100
0010
0000
0001
0010
0100
0000
,
1000
0100
0001
0100
1000
0100
0001
0100
,
1000
0000
0010
0000
0001
0010
1000
0000
,
1000
0001
2002
3003
,
0100
0000
0010
0000
1000
0100
0010
0000
,
0001
0001
1000
0000
1000
1000
0002
0000
,
1003
0100
0010
0100
,
1000
0001
2002
3003
,
0110
0000
1000
0000
0100
0000
1000
0100
,
0000
0010
0000
0010
0000
0001
0010
0100
,
0010
0000
1000
0000
1000
0000
0100
0010
,
0000
0010
0000
0010
0000
0001
0100
0000
,
1001
0100
0010
0100
,
1001
0100
0010
0100
,
1100
0100
0110
0100
,
0011
1000
0100
0010
0100
0010
1000
0100
,
0010
0000
1000
0000
0100
0000
1000
0100
,
0010
0001
0010
0100
0000
1000
0100
0001
,
0100
0000
1010
0000
0101
0000
1000
0100
,
0000
0010
0000
0010
0000
0100
0001
0010
,
1000
0000
0101
0000
1010
0000
1000
0100
,
0010
0001
0100
0010
0000
1000
0100
0010
,
0001
0000
1000
0000
0010
0000
0100
0010
,
0000
1000
0000
1000
0001
0000
1000
0010
,
0100
0000
0010
0000
1000
0100
0000
0001
0000
0001
0000
1000
0010
0001
0010
0000
,
0100
0000
0100
0000
1000
1000
0000
0010
0000
0010
0000
1000
0000
0100
0101
0000
,
0010
0000
0010
0000
1000
0100
0000
0001
0000
0001
0000
0100
0000
0010
0010
0000
,
1000
0100
0001
0000
0010
0010
0000
0100
0000
0001
0000
0000
0000
0000
0000
0000
;

//---------------dance-single - ----------------
#NOTES:
     dance-single:
     :
     Challenge:
     14:
     0.577,0.728,0.269,0.092,0.142:
0000
0000
0000
0000
,
0000
0000
0000
0000
,
0000
0000
0000
0000
,
0000
0000
0000
0000
,
0000
0000
0000
0000
,
0000
0000
0000
0000
,
0000
0000
0000
0000
,
0000
0000
0000
0000
,
1001
0000
0010
0000
0100
0001
0001
0000
,
0010
0100
1000
0010
0100
0010
0100
0000
,
0010
0010
0001
0000
0010
0000
0100
0000
,
1000
0100
0010
0001
0010
1000
1000
0000
,
0110
0000
0100
0000
0001
0010
1000
0000
,
1001
0000
0010
0100
0010
1000
0010
0000
,
1001
0010
0210
0320
,
0031
0010
0000
0100
1000
0000
0010
0000
,
2002
0000
0000
0000
,
0000
0000
0000
3003
,
0001
0000
0010
0000
0100
0000
0001
1000
,
0000
0010
0000
0100
0000
0001
0010
0100
,
1000
0000
0010
0000
0010
0000
0001
0010
,
0000
0100
0000
1000
0000
0001
0010
1000
,
0010
0000
0100
0000
0100
0000
0001
0010
,
0000
1000
0000
1000
0000
1000
0000
0100
,
0001
0000
0010
0100
1000
0000
0010
0100
,
0000
0000
0100
0000
0000
0000
0100
0000
0001
0010
0001
0000
1000
0000
0000
0000
,
0010
0000
0000
0000
0100
0000
0000
0000
1000
0000
0100
0010
0001
0000
0001
0000
,
0010
0000
1000
0000
0010
0000
0100
0000
0010
0100
0010
0000
0010
0000
0100
0000
,
0001
0000
0010
0000
0100
1000
0010
0100
,
0010
0000
0000
0000
0001
0000
0000
0000
0010
0001
0100
0000
1000
0000
0010
0000
,
0100
0000
0001
0000
0010
0000
0001
0001
,
0100
1000
0100
0010
0001
1000
0002
0000
,
1003
0000
1000
0000
0010
0100
0010
0000
,
0001
0000
0010
0000
0100
0000
0000
0000
1000
0001
1000
0000
1000
0000
0000
0000
,
0001
0010
0100
0000
0010
1000
0010
0000
,
1000
0000
0100
0000
0010
0000
0001
0000
1000
0001
1000
0000
0001
0000
0001
0000
,
0000
0100
0010
0000
0100
0000
0010
0000
,
0001
1000
2002
3003
,
1001
0000
0001
0000
1000
0000
0001
0100
,
1000
0010
0100
0000
0001
0000
0100
0000
1000
0000
0100
0000
0001
0000
0000
0000
,
1000
1000
0001
0001
,
0001
0000
0010
0000
0100
0000
1000
0000
0100
0010
0100
0010
0100
0000
0000
0000
,
1100
0000
0110
0000
0011
0000
0001
0010
,
1000
0010
0001
0010
0000
0100
1000
0100
,
0100
0000
1100
0000
0011
0000
0001
0010
,
1000
0010
0001
0010
0000
0001
0100
1000
,
0100
0000
1001
0000
0110
0000
0001
0010
,
1000
0010
0001
0010
0000
0001
0100
1000
,
0100
0000
0001
0010
1000
0000
0001
0100
,
1000
0100
0001
0100
1000
0100
0001
0100
,
1000
0000
0011
0000
1100
0000
0001
0010
,
0100
1000
0100
0001
0000
0010
0100
1000
,
0100
0000
1010
0000
0101
0000
0001
0010
,
1000
0010
0001
0010
0000
0001
0100
1000
,
0001
0000
1001
0000
1001
0000
0001
0001
,
0100
0001
0000
0001
0001
0001
0100
0000
,
0010
0100
0010
0000
1000
1000
0002
0000
,
1003
0000
0010
0000
0000
0000
0010
0000
0100
0010
0100
0010
0001
0000
0000
0000
,
0001
0000
0000
0000
0001
0000
0000
0000
0001
0010
0001
0000
0100
0000
1000
0000
,
1000
0000
0000
0000
0001
0000
0000
0000
0010
0001
0100
0000
0001
0000
1000
0000
,
1000
0000
0010
0000
0001
0010
0100
0100
,
0001
0010
1000
0000
0010
0001
0010
1000
,
0010
0000
0100
0000
0001
0100
1000
0100
,
0001
0010
0100
0000
1000
0000
0100
0000
0001
0000
1000
0000
0002
0000
0000
0000
,
1003
0000
0010
0000
0001
0010
1000
0000
,
0001
0001
1000
1000
,
0001
0010
0001
0000
0100
0000
0000
0000
1000
0000
0100
0000
0010
0000
0010
0000
,
0001
0000
0010
0000
1000
0000
0010
0000
0001
0100
0010
0000
1000
0000
0010
0000
,
0001
0000
0100
0000
1000
0100
0001
0000
,
0001
0000
0000
0000
1000
0000
0000
0000
0001
2000
0001
0000
3001
0000
0000
0000
,
0010
0000
0100
0000
0001
0010
0100
0100
,
1000
0001
1000
0000
0001
0000
0001
0000
0001
0000
0001
0000
2000
0000
0000
0000
,
3001
0000
0001
0000
0010
0100
0010
0000
0100
0000
0100
0000
0010
0000
0010
0000
,
0001
0001
1000
1000
2002
0000
3003
0000
,
0110
0000
0001
0000
0010
0000
0001
0010
,
0000
0100
0000
0100
0000
1000
0100
0010
,
0100
0000
0001
0000
0001
0000
0010
0100
,
0000
0100
0000
0100
0000
1000
0010
0001
,
1001
0000
0010
0000
0100
0000
0010
0001
,
1001
0000
0010
0000
0100
0000
0010
0001
,
0011
0000
0010
0100
0110
0000
0010
0100
,
1100
1000
0011
0100
0110
0100
1001
0010
,
0101
0000
0110
0000
1010
0000
0001
0010
,
0100
1000
0100
0010
0000
0001
0010
1000
,
0010
0000
0101
0000
1010
0000
0001
0010
,
0000
0100
0000
0100
0000
0010
1000
0100
,
0001
0000
1010
0000
0101
0000
0001
0010
,
0100
1000
0010
0100
0000
0001
0010
0100
,
1000
0000
0001
0010
0100
0000
0010
0100
,
0000
0000
0001
0000
0000
0000
0001
0000
1000
0100
0010
0001
1000
0000
0100
0000
,
0010
0000
0100
0000
0001
0010
0000
1000
0000
1000
0000
0001
0100
1000
0100
0000
,
0010
0000
0010
0000
0001
0001
0000
0100
0000
0100
0000
0001
0010
1000
0010
0000
,
0100
0000
0100
0000
0001
0010
0000
1000
0000
1000
0000
0010
0000
0100
0100
0000
,
0001
0010
1000
0000
0100
0100
0000
0010
0000
1000
0000
0000
0000
0000
0000
0000
;

//---------------dance-single - ----------------
#NOTES:
     dance-single:
     :
     Medium:
     11:
     0.435,0.464,0.064,0.071,0.028:
0000
0000
0000
0000
,
0000
0000
0000
0000
,
0000
0000
0000
0000
,
0000
0000
0000
0000
,
0000
0000
0000
0000
,
0000
0000
0000
0000
,
0000
0000
0000
0000
,
0000
0000
0000
0000
,
1001
0000
0100
0000
0010
1000
1000
0000
,
0100
0010
0001
0000
0010
0100
0010
0000
,
0100
0100
1000
0000
0100
0000
0010
0000
,
0001
0010
0100
0000
0100
0001
0001
0000
,
0100
0000
0010
0000
1000
0100
0001
0000
,
1000
0000
0100
0000
0100
0001
0100
0000
,
0001
0100
0110
0001
,
0000
0100
0000
0000
0001
0000
0100
0000
,
2002
0000
0000
0000
,
0000
0000
0000
3003
,
1000
0000
0100
0000
0010
0000
1000
0001
,
0000
0100
0000
0010
0000
1000
0000
0010
,
0001
0000
0100
0000
0100
0000
1000
0100
,
0000
0010
0000
0001
0000
1000
0000
0001
,
0100
0000
0010
0000
0010
0000
1000
0100
,
0000
0001
0000
0001
0000
0000
0000
0010
,
1000
0000
0100
0010
0000
0000
0100
0010
,
0000
0010
0000
0010
1000
0100
0001
0000
,
0100
0000
0010
0000
0001
0010
1000
0000
,
0100
0001
0100
0000
0100
0010
0100
0010
,
1000
0000
0100
0000
0010
0001
0100
0000
,
0100
0000
1000
0000
0100
0010
0000
0100
,
0010
0000
1000
0000
0100
0000
1000
0100
,
0010
0000
0010
0100
1000
0001
2000
0000
,
3001
0000
0001
0000
0100
0010
0100
0000
,
1000
0100
0010
0000
0001
0000
0001
0000
,
1000
0010
0100
0000
0010
1000
0010
0000
,
1000
0100
0010
0000
1000
1000
0001
0001
,
0000
0100
0010
0000
0100
0000
0010
0000
,
0001
1000
0002
0000
,
1003
0000
0001
0000
1000
0000
0001
0100
,
1000
0000
1000
0100
0001
0100
0001
0000
,
1000
1000
0001
0001
,
0001
0010
0100
1000
0020
0000
0130
0000
,
1000
0000
1000
0000
1000
0000
0001
0010
,
0000
1000
0000
0010
0000
0100
1000
0100
,
0001
0000
0001
0000
0010
0000
0001
0010
,
0000
0010
0000
0010
0000
0001
0100
1000
,
0100
0000
0001
0000
1000
0000
0001
0010
,
0000
0100
0000
0100
0000
0001
0000
1000
,
0100
0000
0001
0010
1000
0000
0001
0100
,
0000
0100
0000
0010
0000
0010
0000
0100
,
1000
0000
0001
0000
1001
0000
0001
0010
,
0000
1000
0000
0001
0000
0010
0100
1000
,
0100
0000
0010
0000
1001
0000
0001
0010
,
0000
1000
0000
1000
0000
0001
0100
1000
,
0001
0000
1000
0000
0001
0000
0001
1000
,
0000
0001
0000
0001
0000
0001
0000
0100
,
0010
0000
0010
0000
1000
1000
0002
0000
,
1003
0010
0000
0010
0100
0000
0001
0000
,
0001
0000
0001
0000
0001
0010
0100
1000
,
0000
0000
0001
0000
0010
0100
0001
1000
,
0000
0000
0010
0000
0001
0010
0100
0000
,
0001
0010
1000
0000
0010
0001
0010
1000
,
0010
0000
0100
0000
0001
0100
1000
0000
,
0001
0100
1000
0100
0001
1000
0002
0000
,
1003
0000
0010
0000
0001
0010
1000
0000
,
0001
0001
1000
1000
,
0001
0010
0100
0000
1000
0100
0010
0000
,
0001
0000
1000
0000
0001
0010
1000
0010
,
0001
0000
0100
0000
1000
0100
0001
0000
,
0001
1000
0001
1000
,
0010
0000
0100
0000
0001
0010
0100
0000
,
1000
1000
0001
0000
0001
0001
2000
0000
,
3001
0010
0100
0010
,
0001
1000
2002
3003
,
0110
0000
0001
0000
0010
0000
0001
0010
,
0000
0100
0000
0100
0000
1000
0000
0010
,
0100
0000
0001
0000
0001
0000
0010
0100
,
0000
0100
0000
0100
0000
1000
0010
0000
,
1001
0010
0100
0010
,
1001
0010
0100
0010
,
0001
0010
0100
0010
,
1000
0001
0010
0100
0010
0000
0001
0010
,
0100
0000
0001
0000
0010
0000
0001
0010
,
0000
1000
0000
0010
0000
0001
0010
1000
,
0010
0000
0100
0000
0010
0000
0001
0010
,
0000
0100
0000
0100
0000
0010
1000
0100
,
0001
0000
1000
0000
0001
0000
0001
0010
,
0000
1000
0000
0100
0000
0001
0000
0100
,
1000
0000
0001
0000
0100
0000
0010
0100
,
0000
0001
0000
0001
1000
0000
0001
0000
,
0100
0000
0010
0000
0000
0000
0000
1000
0000
1000
0000
0000
0000
0000
0000
0000
,
0001
0000
0001
0000
0000
0000
0000
0100
0000
0100
0000
0000
0000
0000
0000
0000
,
0010
0000
0010
0000
0000
0000
0000
1000
0000
1000
0000
0000
0000
0000
0000
0000
,
0001
0000
0001
0000
0000
0000
0000
0100
0000
0100
0000
0000
0000
0000
0000
0000
;

//---------------dance-single - ----------------
#NOTES:
     dance-single:
     :
     Easy:
     7:
     0.334,0.365,0.035,0.057,0.011: // measure 1
0000
0000
0000
0000
,  // measure 2
0000
0000
0000
0000
,  // measure 3
0000
0000
0000
0000
,  // measure 4
0000
0000
0000
0000
,  // measure 5
0000
0000
0000
0000
,  // measure 6
0000
0000
0000
0000
,  // measure 7
0000
0000
0000
0000
,  // measure 8
0000
0000
0000
0000
,  // measure 9
1001
0100
0010
1000
,  // measure 10
0100
0000
0001
0000
0010
0100
0010
0000
,  // measure 11
0100
1000
0100
0010
,  // measure 12
0001
0100
0100
0001
,  // measure 13
0100
0010
1000
0001
,  // measure 14
1000
0000
0100
0000
0100
0001
0100
0000
,  // measure 15
0001
0100
0110
0001
,  // measure 16
0000
0100
0000
0000
0001
0000
0100
0000
,  // measure 17
0020
0000
0000
0000
,  // measure 18
0000
0000
0000
0030
,  // measure 19
1000
0100
0010
1000
,  // measure 20
0000
0100
0000
0010
0000
1000
0000
0000
,  // measure 21
0001
0100
0100
1000
,  // measure 22
0000
0010
0000
0001
0000
1000
0000
0000
,  // measure 23
0100
0010
0010
1000
,  // measure 24
0000
0001
0000
0001
0000
0000
0000
0000
,  // measure 25
1000
0000
0100
0000
0010
0000
0000
0010
,  // measure 26
0000
0010
0000
0010
0000
0000
0001
0000
,  // measure 27
0100
0000
0010
0000
0000
0010
1000
0000
,  // measure 28
0000
0001
0100
0000
0000
0010
0100
0000
,  // measure 29
1000
0000
0100
0000
0000
0001
0100
0000
,  // measure 30
0100
1000
0100
0100
,  // measure 31
0010
1000
0100
1000
,  // measure 32
0010
0010
1000
2000
,  // measure 33
3001
0000
0001
0000
0000
0010
0100
0000
,  // measure 34
0000
0100
0010
0000
0001
0000
0001
0000
,  // measure 35
1000
0100
0010
0010
,  // measure 36
1000
0010
1000
0001
,  // measure 37
0000
0100
0010
0000
0100
0000
0010
0000
,  // measure 38
0001
1000
0002
0000
,  // measure 39
1003
0001
1000
0001
,  // measure 40
1000
0000
1000
0100
0001
0000
0001
0000
,  // measure 41
1000
1000
0001
0001
,  // measure 42
0001
0100
0020
0130
,  // measure 43
1000
1000
1000
0001
,  // measure 44
0000
1000
0000
0010
0000
0100
0000
0000
,  // measure 45
0001
0001
0010
0001
,  // measure 46
0000
0010
0000
0010
0000
0001
0000
1000
,  // measure 47
0100
0001
1000
0001
,  // measure 48
0000
0100
0000
0100
0000
0001
0000
0100
,  // measure 49
0000
0001
0000
0010
0000
0001
0000
0100
,  // measure 50
0000
0100
0000
0010
0000
0010
0000
0000
,  // measure 51
1000
0001
1001
0001
,  // measure 52
0000
1000
0000
0001
0000
0010
0000
1000
,  // measure 53
0100
0000
0010
0000
1000
0000
0001
0010
,  // measure 54
0000
1000
0000
1000
0000
0001
0000
1000
,  // measure 55
0001
0000
1000
0000
0001
0000
0001
1000
,  // measure 56
0000
0001
0000
0001
0000
0001
0000
0100
,  // measure 57
0010
0010
1000
0002
,  // measure 58
1003
0010
0100
0001
,  // measure 59
0001
0000
0001
0000
0001
0000
0100
1000
,  // measure 60
0000
0000
0001
0000
0010
0000
0001
1000
,  // measure 61
0000
0010
0001
0100
,  // measure 62
0001
1000
0010
0010
,  // measure 63
0010
0100
0001
1000
,  // measure 64
0001
0000
1000
0000
0001
1000
0002
0000
,  // measure 65
1003
0010
0001
1000
,  // measure 66
0001
0001
1000
1000
,  // measure 67
0001
0100
1000
0010
,  // measure 68
0001
1000
0001
1000
,  // measure 69
0001
0100
1000
0001
,  // measure 70
0001
1000
0001
1000
,  // measure 71
0010
0100
0001
0100
,  // measure 72
1000
0001
0001
2000
,  // measure 73
3001
0010
0100
0010
,  // measure 74
0001
1000
2000
0000
,  // measure 75
3001
0001
0010
0001
,  // measure 76
0000
0100
0000
0100
0000
1000
0000
0000
,  // measure 77
0100
0000
0001
0000
0001
0000
0000
0100
,  // measure 78
0000
0100
0000
0100
0000
0000
0010
0000
,  // measure 79
1001
0000
0100
0000
,  // measure 80
1001
0000
0010
0000
,  // measure 81
0001
0010
0100
0000
,  // measure 82
1000
0100
0010
0001
,  // measure 83
0100
0000
0001
0000
0010
0000
0001
0010
,  // measure 84
0000
1000
0000
0010
0000
0001
0000
1000
,  // measure 85
0010
0100
0010
0001
,  // measure 86
0000
0100
0000
0100
0000
0010
0000
0100
,  // measure 87
0001
1000
0001
0001
,  // measure 88
0000
1000
0000
0100
0000
0001
0000
0100
,  // measure 89
1000
0000
0001
0000
0100
0000
0010
0100
,  // measure 90
0000
0010
0000
0001
0000
0000
1000
0000
,  // measure 91
0000
0000
0000
0000
0000
0000
0000
0000
0000
0001
0000
0000
0000
0000
0000
0000
,  // measure 92
0000
0000
0000
0000
0000
0000
0000
0000
0000
0100
0000
0000
0000
0000
0000
0000
,  // measure 93
0000
0000
0010
0000
0000
0000
0000
0000
0000
1000
0000
0000
0000
0000
0000
0000
,  // measure 94
0000
0001
0000
0000
0000
0000
1000
0000
;

//---------------dance-single - ----------------
#NOTES:
     dance-single:
     :
     Beginner:
     3:
     0.108,0.228,0.007,0.021,0.000: // measure 1
0000
0000
0000
0000
,  // measure 2
0000
0000
0000
0000
,  // measure 3
0000
0000
0000
0000
,  // measure 4
0000
0000
0000
0000
,  // measure 5
0000
0000
0000
0000
,  // measure 6
0000
0000
0000
0000
,  // measure 7
0000
0000
0000
0000
,  // measure 8
0000
0000
0000
0000
,  // measure 9
1001
0000
0000
0000
,  // measure 10
0000
0000
0000
0000
,  // measure 11
0010
0000
0000
0000
,  // measure 12
0000
0000
0000
0000
,  // measure 13
0100
0000
0000
0000
,  // measure 14
0001
0000
0000
0000
,  // measure 15
1000
0000
1000
0000
,  // measure 16
1000
0000
0000
0000
,  // measure 17
0200
0000
0000
0000
,  // measure 18
0000
0000
0000
0300
,  // measure 19
0010
0000
0000
0000
,  // measure 20
0000
0000
0000
0000
,  // measure 21
0100
0000
0000
0000
,  // measure 22
0000
0000
0000
0000
,  // measure 23
1000
0000
0000
0000
,  // measure 24
0000
0000
0000
0000
,  // measure 25
0001
0000
0000
0000
,  // measure 26
0000
0000
0000
0000
,  // measure 27
0100
0100
0100
0000
,  // measure 28
0000
0000
0000
0000
,  // measure 29
0001
0001
0001
0000
,  // measure 30
0000
0000
0000
0000
,  // measure 31
1000
1000
1000
0000
,  // measure 32
1000
0001
1000
0001
,  // measure 33
0000
0000
0000
0000
,  // measure 34
0010
0100
0010
0100
,  // measure 35
0000
0000
0000
0000
,  // measure 36
1000
0000
0000
0000
,  // measure 37
0001
0000
0000
0000
,  // measure 38
0100
0000
0000
0000
,  // measure 39
0100
0000
0000
0000
,  // measure 40
0010
0000
0000
0000
,  // measure 41
0001
0000
1000
0000
,  // measure 42
0001
1000
0001
1000
,  // measure 43
0000
0000
0000
0000
,  // measure 44
0001
0000
0001
0000
,  // measure 45
0000
0000
0000
0000
,  // measure 46
1000
0000
1000
0000
,  // measure 47
0000
0000
0000
0000
,  // measure 48
0000
0000
0000
0000
,  // measure 49
0001
0000
0001
0000
,  // measure 50
0001
0000
1000
0000
,  // measure 51
0001
0000
0000
0000
,  // measure 52
0100
0000
0100
0000
,  // measure 53
0100
0000
0000
0000
,  // measure 54
0000
0000
0000
0000
,  // measure 55
0010
0000
0010
0000
,  // measure 56
0010
0000
0000
0000
,  // measure 57
0001
0000
1000
0000
,  // measure 58
0000
0000
0000
0000
,  // measure 59
1000
0000
0000
0000
,  // measure 60
0001
0000
0000
0000
,  // measure 61
0100
0000
0000
0000
,  // measure 62
0010
0000
0000
0000
,  // measure 63
1000
0000
0000
0000
,  // measure 64
0001
0000
0000
0000
,  // measure 65
0100
0000
0000
0000
,  // measure 66
0010
0000
0000
0000
,  // measure 67
1000
0000
0000
0000
,  // measure 68
1000
0000
0000
0000
,  // measure 69
0001
0000
0000
0000
,  // measure 70
0001
0000
0000
0000
,  // measure 71
1000
0000
0000
0000
,  // measure 72
0010
0000
0000
0000
,  // measure 73
1000
0000
1000
0000
,  // measure 74
0001
0000
2000
0000
,  // measure 75
3000
0000
0000
0000
,  // measure 76
0000
0000
0000
0000
,  // measure 77
0001
0000
0001
0000
,  // measure 78
0001
0000
0000
0000
,  // measure 79
1000
1000
1000
0000
,  // measure 80
0001
0001
0001
0000
,  // measure 81
0100
0100
0100
0000
,  // measure 82
0010
0010
0010
0000
,  // measure 83
1000
0001
1000
0000
,  // measure 84
0000
0000
0000
0000
,  // measure 85
0001
1000
0001
0000
,  // measure 86
0000
0000
0000
0000
,  // measure 87
0010
0100
0010
0000
,  // measure 88
0000
0000
0000
0000
,  // measure 89
1000
0001
1000
0000
,  // measure 90
0000
0000
0000
0002
,  // measure 91
0000
0000
0000
0000
,  // measure 92
0000
0000
0000
0000
,  // measure 93
0003
0000
0000
0000
;
