#TITLE:Twelfth Style -Extended ED ver.-;
#SUBTITLE:beatmaniaIIDX 12 Happy Sky Ending;
#ARTIST:Tatsh;
#TITLETRANSLIT:;
#SUBTITLETRANSLIT:;
#ARTISTTRANSLIT:;
#CREDIT:;
#BANNER:hsending-banner.png;
#BACKGROUND:hsending-background.png;
#LYRICSPATH:;
#CDTITLE:;
#MUSIC:ScreenHappySkyCredits music.ogg;
#OFFSET:0.000;
#SAMPLESTART:64.848;
#SAMPLELENGTH:12.000;
#SELECTABLE:YES;
#BPMS:0.000=98.000;
#STOPS:;
#BGCHANGES:0.000=BGA=1.000=0=0=1,
99999=-nosongbg-=1.000=0=0=0 // don't automatically add -songbackground-
;

//---------------dance-single - ----------------
#NOTES:
     dance-single:
     :
     Hard:
     9:
     0.440,0.463,0.118,0.160,0.257: // measure 1
0000
0000
0000
0000
0000
0000
0000
0000
0010
0001
0100
1000
0100
0001
1000
0001
,  // measure 2
0200
0000
0000
0000
0300
0000
0000
0000
0010
0100
0001
0010
1000
0010
1000
0100
,  // measure 3
0002
0000
0003
0000
1000
0000
0100
0010
,  // measure 4
1000
0001
0100
0010
0001
1000
0100
0010
,  // measure 5
0001
0000
1000
0000
0001
0000
0000
0000
0100
1000
0010
0100
1000
0001
0010
1000
,  // measure 6
0200
0000
0000
0000
0310
0000
0000
0000
0001
1000
0100
0010
0100
1000
0001
0100
,  // measure 7
0002
0000
0003
0000
0100
1000
0010
0100
,  // measure 8
1000
0010
0001
1000
0100
1000
0010
0100
,  // measure 9
1000
0000
0010
0000
0001
0000
0000
0000
0100
1000
0001
0100
1000
0001
0010
1000
,  // measure 10
0200
0000
0000
0000
0310
0000
0000
0000
0010
0100
1000
0010
0001
1000
0100
1000
,  // measure 11
0020
0000
0030
0000
1000
0000
0100
0010
,  // measure 12
0100
0001
1000
0010
0100
0001
0100
0010
,  // measure 13
1000
0000
0001
0000
0010
0000
0000
0000
0100
0010
0100
0001
1000
0100
0010
0001
,  // measure 14
0200
0000
0000
0000
0301
0000
0000
0000
1000
0001
0100
1000
0010
0100
1000
0010
,  // measure 15
0002
0000
0003
0000
0110
1000
0100
0010
,  // measure 16
0100
0001
1000
0100
0010
0001
0010
0001
,  // measure 17
0010
0100
0001
0000
1100
0000
0101
0000
,  // measure 18
1010
0000
0101
0000
0010
0001
0100
0010
,  // measure 19
1000
0010
0100
1000
0100
0000
0010
0110
,  // measure 20
0000
1000
0000
0100
0110
0000
1000
0100
,  // measure 21
0010
0001
0100
0010
0001
0000
1001
0000
,  // measure 22
0110
0000
0000
0000
0100
0000
0001
0100
0000
0000
0000
0000
1001
0000
0000
0000
,  // measure 23
0100
0010
0100
0001
0000
0101
0000
0110
,  // measure 24
0000
1000
0100
1000
0100
0000
0001
1000
,  // measure 25
0100
1000
0100
0010
1000
0100
0010
0100
,  // measure 26
0001
1000
0010
0100
0001
1000
0100
0010
,  // measure 27
0001
0000
0010
0000
0100
0000
1000
0000
0002
0000
0000
0103
0000
0000
0100
0000
,  // measure 28
0010
0000
0100
0000
1000
0000
0100
0000
0002
0000
0000
0013
0000
0000
0100
0000
,  // measure 29
0001
0000
0100
0000
0001
0000
0100
0000
0002
0000
0000
0103
0000
0000
0100
0000
,  // measure 30
0010
0100
0000
0100
0010
0000
1000
0000
0100
0000
0010
0000
0100
0000
0001
0000
,  // measure 31
1000
0100
0000
0010
0000
0000
0001
0000
0100
0000
1000
0000
1000
0000
0001
0000
,  // measure 32
1000
0001
1000
0001
1000
0100
0010
0010
,  // measure 33
0001
0000
0010
0000
0001
0000
0010
0000
0001
0000
0000
0010
0000
0000
0100
0000
,  // measure 34
0100
0000
1000
0010
0100
0000
0010
0000
0100
0000
0001
0000
1000
0000
0000
0000
,  // measure 35
0100
0010
0000
1000
0001
0000
0100
0000
0020
0000
0000
0130
0000
0000
1000
0000
,  // measure 36
1000
0000
0100
0000
1000
0000
0100
0000
1000
0000
0000
0020
0000
0000
0031
0000
,  // measure 37
0010
0000
0001
0000
0010
0000
0001
0000
0020
0000
0000
0031
0000
0000
0100
0000
,  // measure 38
0010
0100
0000
0100
0010
0000
1000
0000
0100
0000
0010
0000
0100
0000
0001
0000
,  // measure 39
1000
0001
0000
0100
0000
0000
0010
0000
0100
0000
0001
0000
1000
0000
0100
0000
,  // measure 40
1000
0100
1000
0100
1000
0010
1000
0100
,  // measure 41
0010
0001
0010
0001
0010
1000
0001
0100
,  // measure 42
1000
0000
0100
1000
0000
0000
0100
0000
0010
0000
0100
0000
0010
0000
0000
0000
,  // measure 43
1000
0001
0000
0100
0010
0000
1000
0000
2000
0000
0000
3001
0000
0000
0001
0000
,  // measure 44
0100
0000
0010
0000
1000
0000
0010
0000
0200
0000
0000
0301
0000
0000
0001
0000
,  // measure 45
1000
0000
0100
0000
0010
0000
0001
0000
0020
0000
0000
0130
0000
0000
1000
0000
,  // measure 46
0100
0010
0000
0100
0001
0000
1000
0000
0100
0000
1000
0000
0100
0000
1000
0000
,  // measure 47
0100
1000
0000
0010
0000
0000
0100
0000
0001
0000
0000
0100
0000
0001
0000
0000
,  // measure 48
0210
0000
0010
0000
0010
0000
0010
0000
0310
0000
0000
1000
0000
0001
0000
0000
,  // measure 49
0201
0000
0001
0000
0001
0000
0001
0000
0301
0000
0000
1000
0000
0000
0000
0000
,  // measure 50
0100
0000
0100
0100
0000
0000
0010
0000
0100
0000
0010
0000
1000
0000
0000
0000
,  // measure 51
0001
0100
0000
0010
1000
0000
0001
0000
0100
0000
0010
0000
0000
0000
0000
0000
,  // measure 52
1000
0100
0000
0100
0000
0000
0001
0000
0100
0000
0000
0010
0000
0000
1000
0000
,  // measure 53
0000
2100
0010
0100
3010
0000
2000
0100
,  // measure 54
3001
0010
0100
0000
1010
0000
1100
0000
,  // measure 55
0010
0000
0000
0000
0100
0000
0000
0000
0010
0000
0000
0000
0000
0000
1000
0200
0002
0000
0000
0000
0000
0000
0000
0000
0000
0000
0000
0000
0000
0000
0000
0000
,  // measure 56
0000
0000
0000
0000
,  // measure 57
0000
0000
0000
0000
,  // measure 58
0000
0000
0000
0000
,  // measure 59
0303
0000
0000
0000
;

//---------------dance-single - ----------------
#NOTES:
     dance-single:
     :
     Medium:
     7:
     0.294,0.302,0.014,0.042,0.000:
0000
0000
0200
0010
,
1300
0000
0002
0100
,
1003
0000
0000
0000
0100
0000
0010
0100
,
0001
1000
0100
0010
0100
0000
0001
0000
,
0001
0001
0002
0000
,
1003
0000
2000
0000
,
3001
0000
0000
0000
0100
0010
1000
0001
,
0100
0010
0100
1000
0100
0000
0010
0000
,
0001
0000
0010
0000
1000
0100
1000
0100
,
1000
0000
0000
0000
0001
0010
0001
0010
,
0001
0000
0000
0000
0100
0010
0100
1000
,
0100
0010
0100
0010
0001
0000
0001
0000
,
0001
0000
0001
0000
1000
0010
0100
0001
,
1000
0000
0100
0000
0010
1000
0001
0100
,
0010
0000
0000
0000
1000
0100
0010
1000
,
0001
0100
0010
1000
0001
0000
0001
0000
,
0100
0010
0100
0010
,
1000
0000
0100
0000
1000
0100
0010
0001
,
0000
0100
0010
1000
0001
0000
0100
0100
,
0000
0001
0000
0010
0010
0000
1000
0010
,
0100
0010
0001
0000
0010
0000
0001
0000
,
0100
1000
1000
0100
,
1000
0010
0100
0001
1000
0000
0100
0000
,
0010
0000
1000
0010
0100
0000
0001
0000
,
0100
0000
0100
0000
0010
1000
0001
0100
,
0010
0100
0001
0000
1000
0000
0001
0000
,
0100
0010
1000
0100
,
1000
0100
0010
0001
0001
0000
0100
0000
,
1000
0100
0010
0001
0010
0000
0001
0000
,
0100
1000
0100
0010
0100
0001
1000
0000
,
0010
0010
0010
0010
0010
0000
0000
0000
,
1000
0100
0010
0001
1000
0000
0000
0000
,
0001
0010
0100
1000
0001
0000
0000
0000
,
0100
0010
1000
0001
0100
0000
0000
0000
,
0010
1000
0001
0100
0010
0000
0000
0000
,
1000
0100
0010
0001
1000
0000
0000
0000
,
0001
0010
0100
1000
0001
0000
0000
0000
,
0100
0010
1000
0001
0100
0000
0010
0000
,
0010
0010
0001
1000
,
1000
0100
1000
0100
1000
0000
0000
0000
,
0001
0010
0001
0010
0001
0000
0010
0000
,
1000
0010
0100
0000
0001
0000
1000
0000
,
0100
1000
0100
0010
1000
0001
0100
0010
,
1000
0100
1000
0100
1000
0000
0010
0000
,
0001
0010
0001
0010
0001
0000
0100
0000
,
0010
0001
0010
0100
1000
0100
0010
0100
,
1000
0100
0010
0010
,
1000
0100
1000
0100
1000
0000
0010
0000
,
0001
0010
0001
0010
0001
0000
0110
0000
,
1000
0100
1000
0100
1000
0000
0010
0000
,
0100
0010
0100
0010
0100
0000
0001
0000
,
0100
1000
0100
0010
0001
0000
0010
0000
,
0001
0100
0010
1000
0001
0000
0010
0001
,
0100
0010
1000
0000
0100
0000
0100
0000
,
0100
0100
2002
0000
,
0000
0000
0000
0000
,
0000
0000
0000
0000
,
0000
0000
0000
0000
,
3003
0000
0000
0000
;

//---------------dance-single - ----------------
#NOTES:
     dance-single:
     :
     Easy:
     5:
     0.190,0.181,0.014,0.076,0.000:
0000
0000
0200
0000
,
0301
0000
0002
0000
,
0103
0000
0010
1000
,
0010
0001
0010
0010
,
0001
0010
2000
0000
,
3000
0001
0002
0000
,
0003
0000
0100
1000
,
0110
0000
0100
1000
,
0100
0010
0002
0000
,
0003
0100
2000
0000
,
3000
0000
0100
0010
,
1000
0002
0100
1000
,
0010
0100
2000
0000
,
3000
0003
0002
0000
,
0003
0010
0100
0010
,
0000
0001
0001
1000
,
0100
0010
1000
0001
,
0000
0010
1000
0100
,
0010
0001
0010
0100
,
1000
0010
0100
0001
,
1000
0010
0100
0001
,
0100
0010
0010
1000
,
0001
0100
0100
1000
,
0100
0100
0001
0001
,
0010
0100
1000
0100
,
1000
0000
0100
0000
,
0000
0100
1000
0100
,
0010
0001
0100
0000
,
0100
1000
0010
0000
,
1000
0100
0001
0010
,
0100
1000
0001
0000
,
1000
0010
0100
0001
,
0100
0010
1000
0001
,
0100
0010
0001
0010
,
0001
1000
0100
0000
,
0100
1000
0010
0000
,
0010
0100
0001
0000
,
1000
0100
0010
0001
,
0010
0100
1000
0000
,
1000
0001
1000
0010
,
0001
0010
0001
1000
,
0010
0100
1000
0100
,
1000
0001
0100
0100
,
0100
1000
0100
0000
,
0001
0001
0010
0000
,
1000
0001
1000
0010
,
0100
0010
1000
0000
,
0001
1000
0001
0000
,
1000
0001
1000
0000
,
0100
0100
0010
0010
,
0001
1000
0010
0000
,
0001
1000
0001
0001
,
1000
0010
0100
0001
,
0001
0001
1000
1000
,
1000
0001
2002
0000
,
0000
0000
0000
0000
,
0000
0000
0000
0000
,
0000
0000
0000
0000
,
3003
0000
0000
0000
;

//---------------dance-single - Copied from----------------
#NOTES:
     dance-single:
     Copied from:
     Beginner:
     2:
     0.143,0.181,0.007,0.062,0.000:
0001
0000
0000
0000
,
1000
0010
0100
0000
,
1000
0000
0001
0000
,
0100
0000
1000
0000
,
0010
0010
0010
0000
,
0000
1000
0001
0000
,
0010
0010
0010
0000
,
1000
0100
0010
0000
,
0001
0001
1000
0000
,
0000
0001
0100
0000
,
0010
1000
0010
0000
,
1000
0000
0010
0000
,
1000
0000
0010
1000
,
0010
0000
1000
0001
,
1000
0000
0100
0000
,
0001
0000
1000
0000
,
0100
0000
0100
0000
,
1000
0000
0010
0000
,
0001
0000
0001
0000
,
0100
0000
1000
0000
,
0010
0000
1000
0001
,
0100
0000
1000
0000
,
0010
0000
0100
0000
,
0010
0000
0100
0000
,
0010
0000
1000
0000
,
0010
0000
1000
1000
,
1000
0000
0001
0000
,
0100
1000
0100
0000
,
0010
0010
0010
0000
,
0001
0001
0001
0000
,
0001
0000
1000
0000
,
0010
0010
0010
0000
,
1000
1000
1000
0000
,
0100
0100
0100
0000
,
0001
0010
0001
0000
,
0100
0100
0100
0000
,
0010
0010
0010
0000
,
1000
1000
1000
0000
,
0001
0010
0001
0000
,
0100
0100
0100
0000
,
0001
0001
0001
0000
,
0100
0000
1000
0000
,
0001
0000
0100
0000
,
1000
0000
1000
0000
,
0100
0000
0100
0000
,
0010
0000
0001
0000
,
1000
0000
0010
0000
,
0200
0300
0100
0000
,
2000
3000
1000
0000
,
0002
0003
0100
0000
,
2000
3000
0200
0300
,
0200
0300
2000
3000
,
0001
0001
0001
0000
,
1000
0100
0010
0000
,
0001
0000
2002
0000
,
0000
0000
0000
0000
,
0000
0000
0000
0000
,
0000
0000
0000
0000
,
3003
0000
0000
0000
;
