#TITLE:The Sampling Paradise;
#SUBTITLE:;
#ARTIST:Mamonis;
#TITLETRANSLIT:;
#SUBTITLETRANSLIT:;
#ARTISTTRANSLIT:;
#GENRE:;
#CREDIT:;
#BANNER:The Sampling Paradise.png;
#BACKGROUND:The Sampling Paradise-bg.png;
#LYRICSPATH:;
#CDTITLE:;
#MUSIC:The Sampling Paradise.mp3;
#OFFSET:-0.072;
#SAMPLESTART:100.030;
#SAMPLELENGTH:12.000;
#SELECTABLE:YES;
#BPMS:0.000=150.000
,67.000=300.000
,68.000=150.000
,215.500=75.000
,215.750=150.000
,217.250=75.000
,217.500=150.000
,218.500=75.000
,218.750=150.000
,220.750=75.000
,221.250=150.000
,222.750=75.000
,223.000=150.000
,223.250=75.000
,223.500=150.000
,224.250=75.000
,224.750=150.000
,226.250=75.000
,226.500=150.000
,227.500=75.000
,227.750=150.000
,229.250=75.000
,230.000=150.000
,231.000=75.000
,231.250=150.000
,232.250=75.000
,232.500=150.000
;
#STOPS:67.000=0.100,
67.500=0.100
;
#BGCHANGES:;
#KEYSOUNDS:;
#ATTACKS:;

//---------------dance-single - ----------------
#NOTES:
     dance-single:
     :
     Hard:
     15:
     0.727,0.766,0.308,0.266,0.520,542.000,37.000,32.000,0.000,0.000,0.000,0.727,0.766,0.308,0.266,0.520,542.000,37.000,32.000,0.000,0.000,0.000:
0000
0000
0000
0000
,
0000
0000
0000
0000
,
0000
0000
0000
0000
,
0000
0000
0000
0000
,
0000
0000
0000
0000
,
1000
0000
0100
1000
0100
0000
0100
0000
1000
0000
0100
1000
0100
0000
0100
0000
,
0001
0000
0010
0001
0010
0000
0010
0001
0010
0001
0010
0001
0010
0000
0010
0000
,
1000
0100
0010
0001
0200
0000
0320
0000
,
2030
0000
0000
0000
0010
0000
0000
0000
0020
0000
0000
3000
0031
0000
0000
0000
,
0100
0000
0010
0000
0100
0000
0010
0100
1000
0100
1000
0000
0100
0000
0010
0000
,
0100
0000
0001
0000
0100
0000
0010
0000
0100
0010
1000
0000
0100
1000
0010
0000
,
0010
0000
0100
0000
0001
0000
0100
0010
0001
0010
0001
0000
0001
0000
0100
0000
,
0010
0000
0100
0001
0010
0100
1000
0100
1000
0000
1000
0000
1000
0000
0100
0001
,
0011
0000
0100
0000
0010
0000
0100
0010
0001
1000
0001
1000
0100
0000
0010
0000
,
0100
0000
1000
0000
0100
0000
0010
0000
1000
0000
1000
0000
0100
0000
0010
1000
,
1010
0000
0001
0000
0100
0000
0010
0000
0100
0010
0100
0010
0001
0000
0100
0000
,
0010
0000
1000
0100
0000
0100
0010
0000
0010
0000
0110
0000
0100
0000
0100
0000
,
1010
0000
0010
0000
0010
0000
0100
1000
0100
1000
0100
0000
1000
0000
0100
0000
,
0010
0000
1000
0010
0001
0010
0100
1000
0000
0000
0100
0000
0010
0100
1000
0000
,
0010
0100
0001
0100
0010
0100
1000
0100
,
0010
0000
0010
0000
0010
0000
0100
0000
0001
0000
0100
0001
0010
0000
0100
0000
,
0110
0000
0100
0010
0100
0000
1000
0000
0110
0000
0010
0100
0010
0000
0100
0000
,
0101
0000
0001
1000
0001
0000
1000
0000
1000
0010
1000
0010
1000
0010
1000
0000
,
0110
0000
0110
0000
0010
0100
0000
0110
0000
0000
1001
0000
0010
0100
0010
0000
,
2002
0000
0000
0000
0000
0000
0000
3003
,
1001
0000
0001
0000
0100
0010
0000
0001
0100
0000
0010
0000
0100
0010
0100
0010
,
0110
0000
0010
0000
0001
1000
0000
0010
0001
0000
1000
0000
0001
1000
0001
1000
,
0110
0000
1000
0000
0010
0100
0000
1000
0010
0000
0100
0000
0010
0100
0010
0100
,
0110
0000
0100
0000
1000
0001
0000
0100
1000
0000
0001
0000
1000
0001
1000
0001
,
1001
0000
1000
0000
0010
0100
0000
1000
0010
0000
0100
0000
0010
0100
0010
0100
,
0101
0000
0010
0000
0100
1000
0000
0001
1000
0000
0001
0000
0010
0010
0001
0001
,
1000
0100
0010
0100
0010
0100
0010
0100
,
2002
0000
0000
3003
,
0100
0000
0010
0000
1000
0010
0000
0110
0000
0000
0000
0000
0110
0000
0000
0000
,
0100
0000
0010
0000
0100
1000
0000
0110
0000
0000
0000
0000
0110
0000
0000
0000
,
1010
0000
0100
0000
0010
0000
0010
0110
0000
0000
0000
0000
0110
0000
0000
0000
,
1001
0000
0100
0010
0100
0010
0200
0000
,
0310
0000
0010
0000
0010
0100
0000
0000
1000
0000
1000
0000
1000
0100
0000
0000
,
0100
0000
0100
0000
0100
0001
0010
0000
0001
0000
0001
0000
0001
1000
0000
0000
,
0010
0100
0010
0000
0100
1000
0100
0000
0010
0001
0010
0000
1000
0100
1000
0000
,
0001
1000
0100
0010
0002
0000
1003
0000
,
0001
0000
0100
0010
0100
0000
0100
0000
0010
0000
0010
0000
0010
0000
1000
0000
,
0100
0000
0010
0000
1000
0100
0010
0000
0100
0000
0100
0000
0100
0000
0010
0000
,
1000
0000
1000
0000
1000
0100
0001
0000
0100
0000
0010
0000
0100
0000
0010
0000
,
1000
1000
1000
0001
0100
0010
2000
0000
,
3001
0100
0010
0100
0010
0010
0010
1000
,
0001
0001
0001
0100
0010
0010
0010
1000
,
0001
0100
0010
1000
0100
0010
0001
0100
,
1100
0000
0000
0100
0000
0000
0110
0000
0000
0010
0000
0000
0010
0000
0011
0000
,
0000
0100
0110
0100
0010
0100
0020
0000
,
1030
0010
0100
0010
1000
0000
0020
0000
,
2030
0100
0100
0100
,
0002
0000
0000
0000
0000
0000
0003
3000
,
1001
0000
0000
0000
0000
0000
0000
0000
0100
0000
0001
0000
0010
0000
0000
0000
0100
0000
0000
0000
0010
0000
0000
0000
2000
0000
0000
0000
0200
3000
0301
0000
,
0000
0100
0000
0010
0000
0200
0310
0000
1000
0000
0020
0130
0000
0010
0000
1000
,
0000
0010
0000
2000
3002
0103
0000
0010
0000
0100
0000
0020
0130
0001
1000
0010
,
0000
0000
0200
0000
0000
0000
0320
0000
0000
0000
0000
0000
0000
0000
1030
0000
0000
0000
0001
0010
0100
0000
0000
0000
0010
0000
0000
0000
1000
0100
0010
0000
,
0000
0000
1000
0000
0000
0000
0010
0000
0000
0000
2000
0000
0000
0000
3200
0000
0301
0000
0000
0000
0020
0000
0000
0000
1030
0100
0010
0000
0000
0000
0100
0000
,
0000
0010
1000
0000
0100
0000
0010
0000
0100
0000
0010
0000
1000
0000
0010
0000
,
2000
0000
0000
0000
0000
0000
0000
0000
0000
0000
0000
0000
0000
0000
0000
3001
0000
0000
0001
0000
0001
0000
0001
0000
,
1000
0100
0010
0000
0100
0010
1000
0000
0100
0010
1000
0000
0100
0010
0001
0000
,
0110
0100
2010
3020
,
0130
0000
0010
0000
0100
1000
0010
0000
0100
0000
0010
0000
0100
0000
0010
0000
,
1000
0000
1000
0000
1000
0001
0100
0000
0010
0000
0001
0000
0100
0000
0010
0000
,
1000
0000
1000
0000
1000
0000
0010
1000
0100
0000
0010
0000
0100
0000
0001
0000
,
1000
1000
0100
0010
0001
0100
0020
0000
,
1030
0001
0001
0100
0010
0100
0010
0100
,
1000
1000
1000
0100
0010
0100
0010
0110
,
1000
1000
0100
0100
0010
0010
0100
0001
,
0101
0000
0000
0010
0000
0000
0110
0000
0000
0000
1000
0000
0010
0100
1000
0200
,
0000
0000
0000
0300
;

//---------------dance-single - ----------------
#NOTES:
     dance-single:
     :
     Medium:
     13:
     0.616,0.769,0.150,0.300,0.262,464.000,18.000,36.000,0.000,0.000,0.000,0.616,0.769,0.150,0.300,0.262,464.000,18.000,36.000,0.000,0.000,0.000:
0000
0000
0000
0000
,
0000
0000
0000
0000
,
0000
0000
0000
0000
,
0000
0000
0000
0000
,
0000
0000
0000
0000
,
1000
0100
0100
0100
1000
0100
0100
0100
,
0001
0010
0010
0010
0001
0010
0010
0010
,
1000
0100
0010
0001
0200
0000
0310
0000
,
2000
0000
3020
0031
,
0100
0000
0010
0000
0100
0000
0010
0000
1000
0100
1000
0000
0100
0000
0010
0000
,
0100
0001
0100
0010
0100
1000
0100
0010
,
0010
0000
0100
0000
0001
0000
0100
0000
0001
0010
0001
0000
0001
0000
0100
0000
,
0010
0000
0100
0000
0010
0000
1000
0100
1000
0000
1000
0000
1000
0000
0100
0001
,
0010
0000
0100
0000
0010
0000
0100
0000
0001
1000
0001
0000
0100
0000
0010
0000
,
0100
1000
0100
0010
1000
1000
0100
0010
,
1010
0001
0100
0010
0100
0100
0001
0100
,
0010
0000
0000
0010
0000
0000
0010
0000
0010
0000
0110
0000
0000
0000
0000
0000
,
0000
0000
1010
0010
0010
0100
0100
0100
,
1000
0000
0100
0000
0010
0000
1000
0000
0001
0000
0100
1000
0000
0000
0100
0000
,
0000
0100
1000
0000
0010
0000
0100
0000
0001
0000
0100
0000
0010
0000
0100
0000
,
1000
0100
0010
0010
0010
0100
0001
0100
,
0010
0100
0110
0100
0100
1000
0110
0010
,
0010
0000
0100
0000
0101
0000
0001
0000
0001
0000
1000
0000
1000
0010
1000
0000
,
1000
0010
1000
0000
0100
0000
0010
0000
0010
0100
0000
0100
0000
0000
0001
0000
,
0010
0100
0000
0000
2002
0000
0000
0000
0000
0000
0000
0000
0000
0000
0000
0000
,
0000
0000
3003
0000
1001
0000
0001
0000
0100
0010
0000
0001
0000
0000
0010
0000
,
0100
0010
0100
0000
0100
0000
0010
0000
0001
1000
0000
0010
0000
0000
1000
0000
,
0001
0000
0001
1000
0001
0000
1000
0000
0010
0000
1000
0000
0010
0000
0100
0000
,
0010
0000
0010
0100
0010
0000
0100
0000
1000
0001
0000
0100
1000
0000
0001
0000
,
1000
0001
1000
0000
1000
0000
1000
0000
0010
0000
1000
0000
0010
0000
0100
0000
,
0010
0000
0010
0100
0001
0000
0010
0000
0100
1000
0000
0001
0000
0000
0001
0000
,
0010
0001
1000
0100
0010
0100
0010
0100
,
0010
0100
0002
0000
0000
0000
0000
0000
,
0003
0000
0000
0000
0100
0000
0010
0000
1000
0010
0000
0100
0000
0000
0000
0000
,
0110
0000
0000
0000
0100
0000
0010
0000
0100
1000
0000
0010
0000
0000
0000
0000
,
0110
0000
0000
0000
1010
0000
0100
0000
0010
0000
0010
0100
0000
0000
0000
0000
,
0110
0000
1001
0000
0100
0010
0100
0010
,
0200
0000
0310
0010
0020
0000
1030
1000
,
2000
0000
3100
0100
0200
0000
0301
0001
,
0002
0000
0013
0010
0100
0100
0010
0010
,
1000
1000
0001
1000
0100
0010
0002
0000
,
1003
0000
0001
0100
0100
0100
0010
0010
,
0010
1000
0100
0010
1000
0010
0100
0100
,
0100
0010
1000
1000
1000
0001
0100
0010
,
0100
0010
1000
1000
1000
0001
0100
0010
,
2000
0000
3001
0100
0010
0100
0010
0010
,
0010
1000
0001
0001
0001
0100
0010
0010
,
0010
1000
0001
0100
0010
1000
0100
0010
,
0001
0000
0100
0000
1000
0000
0000
0100
0000
0000
0010
0000
0000
0001
0000
0000
,
0010
0100
0000
1000
0010
0100
0110
0100
,
0020
0000
1030
0010
0100
0010
1000
0000
,
0020
2030
3200
0320
,
0230
0302
0000
0000
,
0003
0000
1001
0000
0100
0010
0100
0010
,
2000
0000
3020
0031
0000
0100
0000
0010
0000
0200
0310
0000
1000
0000
0020
0130
,
0000
0010
0000
1000
0000
0010
0000
2000
3002
0103
0000
0010
0000
0100
0000
0020
,
0030
0001
0000
0010
0000
0200
0000
0320
0000
0000
0000
1030
0000
0001
0100
0000
,
0010
0000
1000
0010
0000
1000
0000
0010
0000
2000
0000
0000
3001
0000
0020
0000
,
1030
0010
0000
0100
0000
0010
1000
0000
0100
0000
0010
0000
0100
0000
0010
0000
,
1000
0010
2000
0000
0000
0000
0000
3001
,
0001
0000
0001
1000
0001
0000
0000
0000
1000
0000
0000
0000
1000
0000
0000
0000
,
1000
2000
0000
0000
,
3020
0000
0130
0010
0100
0010
0100
0010
,
0100
0010
1000
1000
1000
0100
0010
0001
,
0100
0000
0010
0000
1000
0000
1000
0000
1000
0000
0010
1000
0000
0000
0010
0000
,
0100
0001
1000
1000
0100
0010
0001
0100
,
0020
0000
1030
0001
0001
0100
0010
0100
,
0010
0100
1000
1000
1000
0100
0010
0100
,
0010
0110
1000
1000
0100
0100
0010
0010
,
0100
0000
0001
0000
0101
0000
0000
0010
0000
0000
0110
0000
0000
0000
1000
0000
,
0010
0000
1000
0200
0000
0000
0000
0000
0000
0000
0000
0000
0000
0000
0000
0000
,
0300
0000
0000
0000
;

//---------------dance-single - ----------------
#NOTES:
     dance-single:
     :
     Easy:
     8:
     0.327,0.386,0.183,0.283,0.058,219.000,22.000,34.000,0.000,0.000,0.000,0.327,0.386,0.183,0.283,0.058,219.000,22.000,34.000,0.000,0.000,0.000:
0000
0000
0000
0000
,
0000
0000
0000
0000
,
0000
0000
0000
0000
,
0000
0000
0000
0000
,
0000
0000
0000
0000
,
1001
0100
0010
0100
,
1000
0100
0010
0001
,
0100
0010
0200
0020
,
0000
0000
0000
0330
,
1000
0100
0010
0100
,
0010
0100
1000
0100
,
0001
0100
0010
0010
,
1000
0001
0001
0100
,
0110
0100
0001
0100
,
0010
1000
0100
0010
,
0110
1000
0100
0010
,
0001
0001
0001
1000
,
0000
1001
0100
0010
,
0100
0010
1000
1000
,
0010
0100
0001
0001
,
0100
0010
1000
1000
,
0100
1001
0100
1001
,
1000
0110
0100
0110
,
0100
1001
0110
1001
,
0100
2002
0000
0000
,
0003
3010
0100
0010
,
0100
1000
0100
0010
,
0001
0010
0010
0001
,
0010
0100
1000
0010
,
0100
1000
1000
0001
,
0001
0010
0010
0100
,
0100
2000
0000
0000
,
0000
0002
0000
0000
,
3003
0100
0010
1000
,
0000
0010
0100
0001
,
0000
0010
0010
1000
,
0000
0100
0100
0001
,
0000
0020
0000
0000
,
0000
2000
0000
0000
,
0000
3030
0000
1001
,
1001
2002
0000
0000
,
3003
0100
0010
0100
,
0010
1000
1000
0001
,
0002
1003
1000
0010
,
0020
0130
0100
0010
,
0200
0310
1000
0001
,
0002
1003
0010
0100
,
0200
0310
1000
0100
,
0010
0001
0200
0320
,
2030
3020
0030
0000
,
0000
1001
0100
0010
,
0100
2002
0000
0000
,
3003
0220
0000
0000
,
0330
1001
0100
0100
,
2000
0000
3000
0001
0000
0000
0100
0000
0000
0200
0300
0000
1000
0000
0000
0100
,
0000
0000
0000
0000
0000
0010
0000
2000
3000
0100
0000
0000
0000
0100
0000
0000
,
0000
0001
0000
0000
0000
0200
0000
0320
0000
0000
0000
1030
0000
0000
0100
0000
,
0000
0000
1000
0000
0000
1000
0000
0000
0000
2000
0000
0000
3001
0000
0000
0000
,
1000
0000
0000
0100
0000
0000
1000
0000
0000
0000
0010
0000
0000
0000
0010
0000
,
0000
2000
0000
0000
0000
0000
0000
3000
,
0001
0001
1000
1000
,
1000
2000
0000
0000
,
3020
1030
1000
0100
,
0100
0010
0010
0001
,
0001
0010
0010
0100
,
0100
1000
1000
0001
,
0001
0100
1000
0001
,
0000
0010
0100
0001
,
0000
1001
0000
1001
,
0000
0100
0010
0100
,
0010
2002
0000
0000
,
0000
3003
0000
0000
;

//---------------dance-single - ----------------
#NOTES:
     dance-single:
     :
     Beginner:
     4:
     0.128,0.175,0.067,0.058,0.000,93.000,8.000,7.000,0.000,0.000,0.000,0.128,0.175,0.067,0.058,0.000,93.000,8.000,7.000,0.000,0.000,0.000:
0000
0000
0000
0000
,
0000
0000
0000
0000
,
0000
0000
0000
0000
,
0000
0000
0000
0000
,
0000
0000
0000
0000
,
1001
0000
0000
0000
,
0010
0000
0000
0000
,
0100
0000
0000
0000
,
0020
0000
0000
0000
,
0030
0000
0000
0000
,
1000
0000
0000
0000
,
0010
0000
0000
0000
,
0100
0000
0000
0000
,
1001
0000
0000
0000
,
0001
0000
0000
0000
,
0010
0000
0000
0000
,
0100
0000
0000
0000
,
0000
1001
0000
0000
,
0000
0100
0000
0000
,
0000
0100
0000
0000
,
0000
0010
0000
0000
,
0000
0010
0000
0000
,
0000
0110
0000
0000
,
0000
1001
0000
0000
,
0000
0220
0000
0000
,
0000
0330
0000
0000
,
0000
0000
0000
0000
,
0000
1000
0000
0000
,
0000
0001
0000
0000
,
0000
1000
0000
0000
,
0000
0100
0000
0000
,
0000
0020
0000
0000
,
0000
0030
0000
0000
,
0000
1000
0000
0000
,
0000
0001
0000
0000
,
0000
0100
0000
0000
,
0000
0010
0000
0000
,
0000
1000
1000
1000
,
0000
0100
0100
0100
,
0000
0010
0010
0010
,
0000
0001
0001
0002
,
0000
0003
0000
0000
,
0000
1000
0001
1000
,
0000
0010
0100
0010
,
0000
1000
0001
1000
,
0000
0010
0010
0010
,
0000
0100
0100
0100
,
0000
1000
1000
1000
,
0000
0001
0001
0001
,
0000
0000
0000
0000
,
0000
1000
0000
0000
,
0000
1001
0000
0000
,
0000
0200
0000
0000
,
0000
0310
0000
0010
,
0020
0000
0000
0000
,
0000
0000
0000
0000
,
0000
0000
0000
0000
,
0000
0000
0000
0000
,
0000
0030
0010
0000
,
1000
0000
0000
0000
,
0001
0001
0000
0000
,
0000
0100
0000
0000
,
0010
0001
0000
0000
,
0000
1000
1000
1000
,
0000
0001
0001
0001
,
0000
0100
0100
0100
,
0000
0010
0010
0010
,
0000
0100
0100
0100
,
0000
1000
0000
0001
,
0000
1000
0000
0000
,
0000
0110
0000
0000
;

//---------------dance-single - ----------------
#NOTES:
     dance-single:
     :
     Challenge:
     17:
     0.872,1.000,0.350,0.233,0.891,663.000,42.000,28.000,0.000,0.000,0.000,0.872,1.000,0.350,0.233,0.891,663.000,42.000,28.000,0.000,0.000,0.000:
0000
0000
0000
0000
,
0000
0000
0000
0000
,
0000
0000
0000
0000
,
0000
0000
0000
0000
,
0000
0000
0000
0000
,
1000
0000
0100
1000
0100
1000
0100
0000
1000
0000
0100
0001
0100
0001
0100
0000
,
0001
0000
0010
0001
0010
0000
0010
0001
0010
0001
0010
0001
0010
0000
0010
0000
,
1000
0100
1000
0000
0010
0001
0010
0000
0200
0000
0010
0000
0320
0000
1000
0000
,
1030
0010
1000
0010
2000
0000
0010
0000
3020
0000
0000
0000
0031
0000
0000
0000
,
0100
0000
0010
0000
0100
0000
0010
0100
1000
0100
1000
0000
0100
0000
0010
0000
,
0100
0010
0001
0010
0100
0000
0010
0000
0100
0010
1000
0000
0100
1000
0010
0000
,
0010
0000
0100
0000
0001
0000
0100
0010
0001
0010
0001
0000
0001
0000
0100
0001
,
0010
0000
0100
0001
0010
0100
1000
0100
1000
0000
1000
0000
1000
0000
0100
0001
,
0011
0000
0100
0000
0010
0000
0100
0010
0001
1000
0001
1000
0100
0000
0010
0000
,
0100
0000
1000
0001
0100
0000
0010
0000
1000
0001
1000
0000
0100
0000
0010
1000
,
1010
0000
0001
0000
0100
0000
0010
0001
0100
0010
0100
0010
0001
0000
0100
0000
,
0010
0000
1000
0100
0000
0100
0010
0000
0010
0000
0110
0000
0100
0000
0100
0000
,
1010
0000
0010
0000
0010
0000
0100
1000
0100
1000
0100
0000
1000
0001
0100
0000
,
0010
0000
1000
0010
0001
0010
0100
1000
0000
0000
0100
1000
0010
0100
1000
0100
,
0010
0100
0001
0100
0010
0100
1000
0100
,
0010
0100
0010
0100
0010
0000
0100
0010
0001
0000
0100
0001
0010
0000
0100
0000
,
0110
0000
0100
0010
0100
0000
1000
0000
0110
0000
0010
0100
0010
0000
0100
0000
,
0101
0000
0001
1000
0001
0000
1000
0000
1000
0010
1000
0010
1000
0010
1000
0000
,
0110
0000
0110
0000
0010
0100
0000
0110
0000
0000
1001
0000
0010
0100
0010
0000
,
2002
0000
0000
0000
0000
0000
0000
3003
,
1001
0000
0001
0000
0100
0010
0000
0001
0100
0000
0010
0000
0100
0010
0100
0010
,
0110
0000
0010
0000
0001
1000
0000
0010
0001
0000
1000
0000
0001
1000
0001
1000
,
0110
0000
1000
0000
0010
0100
0000
1000
0010
0000
0100
0000
0010
0100
0010
0100
,
0110
0000
0100
0000
1000
0001
0000
0100
1000
0000
0001
0000
1000
0001
1000
0001
,
1001
0000
1000
0000
0010
0100
0000
1000
0010
0000
0100
0000
0010
0100
0010
0100
,
0101
0000
0010
0000
0100
1000
0000
0001
1000
0000
0001
0000
0010
0010
0001
0001
,
1000
0001
1000
0001
1000
0001
1000
0001
1000
0001
1000
0001
1000
0001
1000
0000
,
2002
0000
0000
3003
,
0100
0000
0010
0000
1000
0010
0000
0110
0000
0000
0010
0000
0110
0000
0000
0000
,
0100
0000
0010
0000
0100
1000
0000
0110
0000
0000
0010
0000
0110
0000
0000
0000
,
1010
0000
0100
0000
0010
0000
0010
0110
0000
0000
0000
0000
0110
0000
0000
0000
,
1001
0000
0100
0010
0100
0010
0200
0000
,
0310
0000
0010
0000
0010
0100
0001
0000
1000
0000
1000
0000
1000
0100
0001
0000
,
0100
0000
0100
0000
0100
0001
0010
0000
0001
0000
0001
0000
0001
1000
0100
0000
,
0010
0100
0010
0000
0100
1000
0100
0000
0010
0001
0010
0000
1000
0100
1000
0000
,
0001
0010
0001
0010
0100
1000
0100
1000
0002
0000
0000
0000
1003
0000
0000
0000
,
0001
0000
0100
0010
0100
0000
0100
0000
0010
0100
0010
0100
0010
0100
1000
0000
,
0100
0000
0010
0000
1000
0100
0010
0000
0100
0010
0100
0010
0100
0001
0010
0000
,
1000
0000
1000
0000
1000
0100
0001
0000
0100
0000
0010
1000
0100
0001
0010
0000
,
1000
1000
1000
0001
0100
0010
2000
0000
,
3001
0000
0100
0000
0010
0100
0010
0000
0010
0000
0010
0000
0010
0000
1000
0100
,
0001
0000
0001
0000
0001
0010
0100
0000
0010
0000
0010
0000
0010
0100
1000
0010
,
0001
0100
0010
1000
0100
0010
0001
0100
,
1100
0000
0000
0101
0000
0000
0110
0000
0000
1010
0000
0000
0110
0000
0011
0000
,
0000
0000
0100
0000
0110
0000
0100
0010
0100
0000
0100
0000
0010
1000
0010
1000
,
0010
0000
0010
0000
0100
0001
0010
0000
1000
0000
0100
0000
0010
0100
0010
0100
,
2000
0100
0100
0100
,
0002
0000
0000
0000
0000
0000
0003
3000
,
1001
0000
0000
0000
0000
0000
0000
0000
0100
0000
0001
0000
0010
0000
0001
0000
0100
0000
1000
0000
0010
0000
0001
0000
2000
0000
0000
0000
0200
3000
0301
0000
,
0010
0100
1000
0010
0001
0200
0310
0001
1000
0100
0020
0130
1000
0010
0001
1000
,
0100
0010
0001
2000
3002
0103
1000
0010
0001
0100
1000
0020
0130
0001
1000
0010
,
0001
0000
0200
0000
0010
0000
0320
0000
0000
0000
1000
0000
0000
0000
1030
0000
0100
0000
0001
0010
0100
0000
1000
0000
0010
0000
0001
0000
1000
0100
0010
0000
,
0001
0000
1000
0000
0100
0000
0010
0000
0001
0000
1000
0010
1000
0010
0100
0010
0001
0000
1000
0000
0010
0000
0100
0000
1000
0100
0010
0000
0001
0000
0100
0000
,
1000
0000
0010
0100
1000
0000
0001
0000
0100
0000
1000
0000
0010
0000
0001
0000
0100
0000
1000
0000
0010
0000
0001
0000
1000
0000
0100
0000
0010
0000
0001
0000
,
2000
0000
0000
0000
0000
0000
0000
0000
0000
0000
0000
0000
0000
0000
0000
3001
0000
0000
0001
0000
0001
0000
0001
0000
,
1000
0100
0010
0001
0100
0010
1000
0001
0100
0010
1000
0010
0100
0010
0001
1000
,
0120
0000
0000
0000
0230
0000
0300
0000
2010
0000
0000
0000
3010
0100
0010
0001
,
0100
0000
0010
0000
0100
1000
0010
0000
0100
0000
0010
0100
0010
0100
0010
0100
,
1000
0000
1000
0000
1000
0001
0100
0000
0010
0000
0001
0000
0100
0001
0010
0100
,
1000
0000
1000
0000
1000
0000
0010
1000
0100
0000
0010
0000
0100
0010
0001
0100
,
1000
0000
1000
0010
0100
0000
0010
0000
0001
0010
0100
1000
0020
0000
0000
0000
,
1030
0000
0001
1000
0001
0000
0100
0000
0010
0000
0100
0001
0010
1000
0100
0000
,
1000
0000
1000
0000
1000
0001
0100
0000
0010
0000
0100
0000
0010
0000
0110
0000
,
1000
1000
0100
0100
0010
0010
0100
0001
,
0101
0000
0000
1010
0000
0000
0110
0000
0000
0000
1001
0000
0010
0100
1000
0200
,
0000
0000
0000
0300
;
