#TITLE:Tenkuu no Yoake;
#SUBTITLE:;
#ARTIST:Cuvelia;
#TITLETRANSLIT:;
#SUBTITLETRANSLIT:;
#ARTISTTRANSLIT:;
#GENRE:;
#CREDIT:;
#BANNER:Tenkuu no Yoake.png;
#BACKGROUND:Tenkuu no Yoake-bg.png;
#LYRICSPATH:;
#CDTITLE:;
#MUSIC:Tenkuu no Yoake.mp3;
#OFFSET:-0.037;
#SAMPLESTART:99.990;
#SAMPLELENGTH:12.000;
#SELECTABLE:YES;
#BPMS:0.000=75.000
,16.000=150.000
;
#STOPS:
;
#BGCHANGES:;
#KEYSOUNDS:;
#ATTACKS:;

//---------------dance-single - ----------------
#NOTES:
     dance-single:
     :
     Hard:
     15:
     0.714,0.880,0.188,0.098,0.565,625.000,25.000,13.000,0.000,0.000,0.000,0.714,0.880,0.188,0.098,0.565,625.000,25.000,13.000,0.000,0.000,0.000:
0000
0000
0000
0000
,
0000
0000
0000
0000
,
0000
0000
0000
0000
,
0000
0000
0000
0000
,
2000
0000
0100
0100
,
3002
0000
0010
0010
,
0203
0000
0001
0001
,
0320
0000
1000
1000
,
1030
0000
0010
0000
1000
0010
0000
0010
1000
0000
0001
0100
0000
0100
0001
0000
,
0001
0000
0010
0000
0100
1000
0000
1000
0100
0000
0100
0010
0000
0010
0100
0000
,
0100
0000
0010
0000
1000
0001
0000
0001
1000
0000
0001
1000
0000
0010
0100
0000
,
0002
0000
0000
0000
1003
0020
0000
0000
,
1030
0000
0000
0100
0000
0000
0001
0000
0010
0000
0010
0000
0010
0000
0010
0000
,
0010
0000
0000
0010
0000
0000
0010
0000
0100
0000
0100
0000
0100
0000
0100
0000
,
0010
0000
0000
0010
0000
0000
0010
0000
1000
0000
0100
0000
0010
0000
0001
0000
,
0100
0000
0000
0100
0000
0000
0100
0000
1000
0000
1000
0000
0010
0000
0010
0000
,
0100
0010
0100
0010
0100
0010
0100
0010
0100
0010
0100
0010
0100
0010
0100
0010
,
1000
0001
1000
0001
1000
0001
1000
0001
1000
0001
1000
0001
1000
0001
1000
0001
,
1000
0000
1000
0010
1000
0000
0001
0100
0001
0000
0010
1000
0010
0000
0100
0001
,
1001
0000
0000
0000
0100
0000
0000
0000
0010
0000
0000
0010
0001
0000
0000
0000
,
1000
0100
1000
0000
0001
0010
0001
0000
0100
0010
0100
0010
0100
0010
0100
0000
,
0001
0010
0001
0000
1000
0100
1000
0000
0010
0100
0010
0100
0010
0100
0010
0000
,
1000
0010
1000
0000
0001
0100
0001
0000
1000
0001
1000
0001
1000
0001
1000
0000
,
0001
0100
0001
0000
1000
0010
1000
0000
0001
1000
0001
1000
0001
1000
0001
0000
,
0001
1000
0001
0000
1000
0001
1000
0000
0010
1000
0010
1000
0010
1000
0010
0000
,
1000
0001
1000
0000
0001
1000
0001
0000
0100
0001
0100
0001
0100
0001
0100
0000
,
0100
0010
0100
0000
0010
0100
0010
0000
1000
0100
1000
0100
1000
0100
1000
0000
,
0100
1000
0100
0000
0010
0100
0010
0000
0010
0000
2010
0000
0000
0000
3000
0000
,
0110
0000
1000
0010
0100
0000
0010
1000
0001
0000
0100
0000
0010
0000
0100
0000
,
0020
0000
0000
0000
1030
0100
1000
0100
0010
0100
0010
0001
0010
0001
0010
0100
,
0010
0100
1000
0100
0010
0000
0100
0010
0001
0010
0100
0000
1000
0100
0001
0100
,
1000
0000
1000
0010
0001
0010
1000
0000
0010
0000
0010
0000
0100
0000
0100
0000
,
1010
0100
0010
0001
0100
0010
0100
0010
,
0110
1000
0100
0001
0010
0100
0010
0100
,
0011
0100
0010
0100
0110
1000
0100
0010
,
1100
0000
0010
0000
0110
0000
0010
0000
0011
0000
0100
0000
0110
0000
1000
0100
,
0001
0000
0000
0000
0000
0000
0000
0000
0000
0000
0000
0100
0010
0000
0010
0000
,
1001
0100
0010
0100
0010
0100
0010
0100
,
1000
1000
0001
0001
0100
0100
0010
0010
,
1000
0100
0010
0001
1000
0100
0010
0001
,
0100
0100
0001
0001
0010
0010
0100
0100
,
1000
0100
0001
0010
0100
1000
0001
0010
,
0100
1000
0100
0010
0001
0100
0100
0100
,
1000
0100
0010
0001
0100
0010
0100
0010
,
1000
0000
0001
1000
0000
0000
1000
0000
1000
0000
0100
0000
0010
0001
0010
0001
,
1000
0010
0100
0010
0100
1000
0100
0010
,
0001
0100
1000
0100
0010
0001
0100
0010
,
1000
0100
0010
0001
1000
0100
0010
0100
,
0100
1000
0100
0001
0010
0100
0010
0100
,
0110
1000
0100
0010
0100
0001
0100
0010
,
1100
0100
0010
0001
0100
0010
0001
0010
,
0110
1000
0100
0010
0011
0100
0010
0100
,
1001
0000
0110
0000
1010
0020
0000
0000
,
0130
0000
0010
0100
0010
0000
1000
0001
1000
0000
0100
0001
0100
0000
0010
0100
,
0010
0000
0001
1000
0001
0000
0100
0010
0100
0000
0010
0001
0010
0000
1000
0100
,
1000
0000
0001
0010
0001
0000
0100
0010
0100
0000
0010
1000
0010
0000
1000
0001
,
1000
0000
0100
0010
0100
0000
0010
1000
0010
0000
0001
0010
0001
0000
0100
0001
,
0100
0000
0000
0100
0010
0000
0000
0010
0100
0000
0000
0100
0010
0000
0000
0010
,
1000
0000
0000
0000
0001
0010
0001
0010
1000
0100
1000
0100
0001
0010
0001
0010
,
1000
0000
0100
0000
0010
0000
0001
0010
0100
0000
0010
0000
0100
0000
0010
0000
,
1000
0100
0000
0110
0001
2000
0000
0000
,
3001
0000
1000
0010
0100
0000
0001
0100
0010
0000
0100
0001
0010
0000
0001
0100
,
1000
0000
0100
1000
0010
0000
1000
0010
0001
0000
0010
1000
0100
0000
0001
0100
,
1000
0000
0010
0001
0100
0000
0010
0100
1000
0000
0100
1000
0010
0000
0010
0100
,
0001
0000
0010
0001
0100
0000
0010
0100
1000
0000
1000
0100
0010
0000
0010
0000
,
0110
0000
1000
0100
0010
0001
0100
0010
,
0110
0000
0000
0000
1000
0100
0010
0001
0010
0100
1000
0100
0010
0001
0010
0100
,
1000
0000
0100
0000
0010
0000
0001
0010
0100
0000
0000
0000
0001
0000
0010
0000
,
0100
1000
0010
0100
0010
2001
0000
3000
,
0011
0000
0000
0000
1000
0100
1000
0100
0010
0100
0010
0001
0010
0001
0100
0000
,
0010
0001
0100
0010
1000
0100
0010
0001
,
0100
0000
0010
0000
0100
0000
0001
0000
1000
0000
0010
0000
0100
0000
0010
0001
,
2200
0000
0000
0000
,
3300
0000
0000
0000
;

//---------------dance-single - ----------------
#NOTES:
     dance-single:
     :
     Medium:
     13:
     0.563,0.660,0.166,0.098,0.343,488.000,22.000,13.000,0.000,0.000,0.000,0.563,0.660,0.166,0.098,0.343,488.000,22.000,13.000,0.000,0.000,0.000:
0000
0000
0000
0000
,
0000
0000
0000
0000
,
0000
0000
0000
0000
,
0000
0000
0000
0000
,
2000
0000
0100
0000
,
3020
0000
0001
0000
,
2030
0000
0010
0000
,
3002
0000
0100
0000
,
1003
0000
0010
0000
0001
1000
0000
0001
1000
0000
0010
0000
1000
0000
1000
0000
,
0010
0000
0001
0000
1000
0010
0000
1000
0010
0000
1000
0000
0001
0000
1000
0000
,
1000
0000
0001
0000
0100
0010
0000
0100
0010
0000
0010
0000
0001
0000
1000
0000
,
0020
0000
0000
0000
0130
0002
0000
0000
,
0103
0000
0000
1000
0000
0000
0010
0000
0001
0000
0001
0000
0000
0000
0000
0000
,
0001
0000
0000
0001
0000
0000
0001
0000
1000
0000
1000
0000
1000
0000
0000
0000
,
0001
0000
0000
0001
0000
0000
0001
0000
0100
0000
1000
0000
0001
0000
0000
0000
,
1000
0000
0000
1000
0000
0000
1000
0000
0100
0000
0100
0000
0001
0000
0000
0000
,
1000
0001
1000
0000
1000
0001
1000
0000
1000
0001
1000
0000
1000
0001
1000
0000
,
0100
0010
0100
0000
0100
0010
0100
0000
0100
0010
0100
0000
0100
0010
0100
0000
,
0100
0100
0100
0010
0010
0001
0001
1000
,
0110
0000
1000
0000
0001
1000
0010
0000
,
0100
0000
0100
0000
0010
0000
0010
0000
1000
0001
1000
0000
1000
0001
1000
0000
,
0010
0000
0010
0000
0100
0000
0100
0000
0001
1000
0001
0000
0001
1000
0001
0000
,
0100
0000
0100
0000
0010
0000
0010
0000
0100
0010
0100
0000
0100
0010
0100
0000
,
0010
0000
0010
0000
0100
0000
0100
0000
0010
0100
0010
0000
0010
0100
0010
0000
,
0010
0000
0010
0000
0100
0000
0100
0000
0001
0100
0001
0000
0001
0100
0001
0000
,
0100
0000
0100
0000
0010
0000
0010
0000
1000
0010
1000
0000
1000
0010
1000
0000
,
1000
0000
1000
0000
0001
0000
0001
0000
0100
1000
0100
0000
0100
1000
0100
0000
,
1000
1000
0001
0001
0000
0201
0000
0300
,
1001
0100
1000
0000
0010
1000
0001
0000
,
0002
0000
0000
0000
0103
0000
0100
0000
0001
1000
0001
0000
0001
0010
0001
0000
,
1000
0001
1000
0001
0000
0000
0010
0100
0010
0100
0000
0000
1000
0010
1000
0010
,
0000
0000
0001
0010
0100
1000
0000
0000
0001
0000
0001
0000
1000
0000
0000
0000
,
0101
1000
0001
0000
1000
0001
1000
0000
,
1001
0100
1000
0000
0001
1000
0001
0000
,
0011
1000
0001
0000
1001
0100
1000
0000
,
1100
0001
1001
0000
0011
1000
1001
0000
,
0002
0000
0000
0000
0000
0000
1003
0001
,
0110
1000
0001
1000
0001
1000
0001
0000
,
0100
0100
0010
0010
1000
1000
0001
0000
,
0100
1000
0001
0010
0100
1000
0001
0000
,
1000
1000
0010
0010
0001
0001
1000
0000
,
0100
1000
0010
0001
1000
0100
0010
0000
,
1000
0100
1000
0001
0010
1000
1000
0000
,
0100
1000
0001
0010
1000
0001
1000
0000
,
0100
0000
0000
0100
0000
0000
0100
0000
0100
0000
1000
0000
0001
0000
0000
0000
,
0100
0001
1000
0001
1000
0100
1000
0000
,
0010
1000
0100
1000
0001
0010
1000
0000
,
0100
1000
0001
0010
0100
1000
0001
0000
,
1000
0100
1000
0010
0001
1000
0001
0000
,
1001
0100
1000
0000
1000
0010
1000
0000
,
1100
1000
0001
0000
1000
0001
0010
0000
,
1001
0100
1000
0000
0011
1000
0001
0000
,
0110
1001
0102
0000
,
1003
0000
0000
1000
0001
0000
0000
0010
0100
0000
0000
0010
1000
0000
0000
1000
,
0001
0000
0000
0100
0010
0000
0000
0001
1000
0000
0000
0010
0001
0000
0000
1000
,
0100
0000
0000
0001
0010
0000
0000
0001
1000
0000
0000
0100
0001
0000
0000
0010
,
0100
0000
0000
0001
1000
0000
0000
0100
0001
0000
0000
0001
0010
0000
0000
0010
,
1000
0000
0000
1000
0001
0000
0000
0001
1000
0000
0000
1000
0001
0000
0000
0001
,
0100
0000
0000
0000
0010
0001
0010
0001
0100
0000
0100
1000
0010
0001
0010
0000
,
0100
0000
1000
0000
0001
0000
0000
0001
1000
0000
0001
0000
1000
0000
0001
0000
,
0100
1000
0000
0000
0010
0200
0000
0000
,
0310
0000
0000
0001
1000
0000
0000
0000
0001
0000
0000
0010
0001
0000
0000
1000
,
0100
0000
0000
0100
0001
0000
0000
0001
0010
0000
0000
0100
1000
0000
0000
1000
,
0100
0000
0000
0010
1000
0000
0000
1000
0100
0000
0000
0100
0001
0000
0000
1000
,
0010
0000
0000
0010
1000
0000
0000
1000
0100
0000
0000
1000
0001
0000
0001
0000
,
1001
0000
0100
1000
0001
0010
1000
0001
,
1000
0000
0000
0000
0100
1000
0001
0000
0100
1000
0100
0000
0001
0100
0001
0000
,
0100
0000
1000
0000
0001
0000
0000
0010
1000
0000
0000
0000
0010
0000
0001
0000
,
1000
0000
0001
1000
0000
0210
0000
0300
,
0011
0000
0000
0000
0100
1000
0100
1000
0001
1000
0001
0010
0001
0000
0000
0000
,
0001
0010
1000
0001
0100
1000
0001
0010
,
1000
0000
0001
0000
1000
0000
0010
0000
0100
0000
0001
0000
1000
0000
0001
0010
,
2000
0000
0000
0000
,
3000
0000
0000
0000
;

//---------------dance-single - ----------------
#NOTES:
     dance-single:
     :
     Easy:
     8:
     0.403,0.440,0.181,0.121,0.113,334.000,24.000,16.000,0.000,0.000,0.000,0.403,0.440,0.181,0.121,0.113,334.000,24.000,16.000,0.000,0.000,0.000:
0000
0000
0000
0000
,
0000
0000
0000
0000
,
0000
0000
0000
0000
,
0000
0000
0000
0000
,
0200
0000
0000
0000
,
0302
0000
0000
0000
,
0203
0000
0000
0000
,
0320
0000
0000
0000
,
0130
0000
0001
0000
0000
0100
0000
0000
0100
0000
0001
0000
0100
0000
0000
0000
,
0001
0000
0010
0000
0100
0000
0000
0100
0000
0000
0100
0000
0010
0000
0000
0000
,
0100
0000
0010
0000
0001
0000
0000
0001
0000
0000
0001
0000
0010
0000
0000
0000
,
0002
0000
0000
0000
0003
0020
0000
0000
,
1030
0000
0000
0100
0000
0000
0001
0000
0010
0000
0000
0000
0000
0000
0000
0000
,
0010
0000
0000
0010
0000
0000
0010
0000
0100
0000
0000
0000
0000
0000
0000
0000
,
0010
0000
0000
0010
0000
0000
0010
0000
1000
0000
0000
0000
0000
0000
0000
0000
,
0100
0000
0000
0100
0000
0000
0100
0000
1000
0000
0000
0000
0000
0000
0000
0000
,
0100
0010
0100
0010
0100
0010
0100
0010
,
1000
0001
1000
0001
1000
0001
1000
0001
,
1000
1000
0001
0010
,
1001
0100
0010
1001
,
1000
0000
0001
0000
0100
0010
0100
0010
,
0001
0000
1000
0000
0010
0100
0010
0100
,
1000
0000
0001
0000
1000
0001
1000
0001
,
0001
0000
1000
0000
0001
1000
0001
1000
,
0001
0000
1000
0000
0010
1000
0010
1000
,
1000
0000
0001
0000
0100
0001
0100
0001
,
0100
0000
0010
0000
1000
0100
1000
0100
,
0100
0000
0010
0000
0000
2010
0000
3000
,
0110
0000
0100
0000
0001
0100
0010
0000
,
0020
0000
1030
0000
0010
0010
0010
0010
,
0100
0200
0000
0301
0001
0000
0100
0100
,
0000
0010
1000
0000
0010
0010
0100
0000
,
1010
0000
0010
0000
0100
0010
0100
0000
,
0110
0000
0100
0000
0010
0100
0010
0000
,
0011
0010
0110
0100
,
1100
0110
0011
0110
,
0020
0000
0000
0130
,
1001
0000
0010
0100
0010
0100
0010
0000
,
1000
0000
0001
0001
0100
0100
0010
0000
,
1000
0000
0010
0001
1000
0100
0010
0000
,
0100
0000
0001
0001
0010
0010
0100
0000
,
1000
0000
0001
0010
0100
1000
0001
0000
,
0100
0000
0100
0010
0001
0100
0100
0000
,
1000
0000
0010
0001
0100
0010
0100
0000
,
1000
0000
0000
1000
0000
0000
1000
0000
0002
0000
0000
0000
0000
0000
0000
0000
,
1003
0010
0100
0000
0100
1000
0100
0000
,
0001
0100
1000
0000
0010
0001
0100
0000
,
1000
0100
0010
0000
1000
0100
0010
0000
,
0100
1000
0100
0000
0010
0100
0010
0000
,
0110
0000
0100
0000
0100
0001
0100
0000
,
1100
0000
0010
0000
0100
0010
0001
0000
,
0110
0100
0011
0010
,
1001
0110
1020
0000
,
0130
0000
0000
0100
0000
0000
0000
0000
1000
0000
0000
0001
0000
0000
0000
0000
,
0010
0000
0000
1000
0000
0000
0000
0000
0100
0000
0000
0001
0000
0000
0000
0000
,
1000
0000
0000
0010
0000
0000
0000
0000
0100
0000
0000
1000
0000
0000
0000
0000
,
1000
0000
0000
0010
0000
0000
0000
0000
0010
0000
0000
0010
0000
0000
0000
0000
,
0100
0000
0000
0100
0000
0000
0000
0000
0100
0000
0000
0100
0000
0000
0000
0000
,
1000
0000
0001
0001
1000
1000
0001
0000
,
1000
0000
0100
0000
0000
0000
0000
0010
0000
0000
0000
0000
0100
0000
0010
0000
,
1000
0000
0000
0000
0001
2000
0000
0000
,
3001
0000
0000
0010
0000
0000
0000
0000
0010
0000
0000
0001
0000
0000
0000
0000
,
1000
0000
0000
1000
0000
0000
0000
0000
0001
0000
0000
1000
0000
0000
0000
0000
,
1000
0000
0000
0001
0000
0000
0000
0000
1000
0000
0000
1000
0000
0000
0000
0000
,
0001
0000
0000
0001
0000
0000
0000
0000
1000
0000
0000
0100
0000
0000
0010
0000
,
0110
0000
1000
0100
0010
0000
0100
0010
,
0100
0000
1000
0010
1000
1000
0010
0010
,
1000
0000
0000
0000
0010
0000
0000
0001
0000
0000
0000
0000
0001
0000
0010
0000
,
0100
0000
0010
0100
0000
2001
0000
3000
,
0011
0000
0000
0000
1000
0100
1000
0000
0010
0000
0010
0001
0010
0000
0000
0000
,
0010
0001
0100
0010
1000
0100
0010
0000
,
0100
0010
0100
0001
1000
0010
0100
0000
,
0220
0000
0000
0000
,
0330
0000
0000
0000
;

//---------------dance-single - ----------------
#NOTES:
     dance-single:
     :
     Beginner:
     3:
     0.154,0.220,0.143,0.023,0.000,121.000,19.000,3.000,0.000,0.000,0.000,0.154,0.220,0.143,0.023,0.000,121.000,19.000,3.000,0.000,0.000,0.000:
0000
0000
0000
0000
,
0000
0000
0000
0000
,
0000
0000
0000
0000
,
0000
0000
0000
0000
,
1000
0000
0000
0000
,
0100
0000
0000
0000
,
0010
0000
0000
0000
,
0001
0000
0000
0000
,
1000
0000
0000
0000
,
1000
0000
0000
0000
,
0001
0000
0000
0000
,
0001
0000
0000
0000
,
0110
0000
0000
0000
,
0100
0000
0000
0000
,
0100
0000
0000
0000
,
0100
0000
0000
0000
,
0002
0000
0000
0000
,
0003
0000
0000
0000
,
1000
0000
0001
0000
,
1001
0000
0000
0000
,
0100
0000
0100
0000
,
0100
0000
0000
0000
,
0010
0000
0010
0000
,
0010
0000
0000
0000
,
0001
0000
0001
0000
,
0001
0000
0000
0000
,
1000
0000
1000
0000
,
1000
0000
0000
0000
,
1001
0000
0000
0000
,
0100
0000
0100
0000
,
0100
0000
0010
0000
,
0010
0000
0001
0000
,
1001
0000
1000
0000
,
1001
0000
0001
0000
,
1001
0000
0110
0000
,
1001
0000
0110
0000
,
1001
0000
0000
0000
,
1000
0000
1000
0000
,
1000
0000
0100
0000
,
0100
0000
0100
0000
,
0010
0000
0010
0000
,
0010
0000
0001
0000
,
0001
0000
0001
0000
,
1000
0000
1000
0000
,
1001
0000
0000
0000
,
1000
0000
1000
0000
,
0001
0000
0001
0000
,
0100
0000
0100
0000
,
0010
0000
0010
0000
,
1001
0000
0100
0000
,
1001
0000
0010
0000
,
1001
0000
1001
0000
,
1001
0000
0000
0000
,
1000
0100
0010
0000
,
0001
0010
0100
0000
,
1000
1000
1000
0000
,
0001
0001
0001
0000
,
0100
0100
0100
0000
,
0010
0010
0010
0000
,
1000
0001
1000
0000
,
0001
1000
0001
0000
,
0100
0000
0100
0000
,
0010
0000
0010
0000
,
1000
0000
1000
0000
,
0001
0000
0001
0000
,
1001
0000
0100
0000
,
0010
0000
0100
0000
,
0010
0000
1000
0000
,
0001
0000
1001
0000
,
0010
0000
0010
0000
,
0010
0000
0100
0000
,
0100
0000
0010
0000
,
0220
0000
0000
0000
,
0330
0000
0000
0000
;
