#TITLE:Tears Infection (From EXIT TUNES);
#SUBTITLE:[Remix] Myself Yourself Opening Theme;
#ARTIST:Ryu☆ feat. CAMRY;
#TITLETRANSLIT:;
#SUBTITLETRANSLIT:;
#ARTISTTRANSLIT:;
#GENRE:;
#CREDIT:;
#BANNER:Tears Infection (From EXIT TUNES).png;
#BACKGROUND:Tears Infection (From EXIT TUNES)-bg.png;
#LYRICSPATH:Tears Infection (From EXIT TUNES).lrc;
#CDTITLE:;
#MUSIC:Tears Infection (From EXIT TUNES).ogg;
#OFFSET:-0.016;
#SAMPLESTART:50.400;
#SAMPLELENGTH:12.000;
#SELECTABLE:YES;
#BPMS:0.000=200.000
,16.000=400.000
,20.000=100.000
,21.250=200.000
,81.000=400.000
,82.500=800.000
,83.500=200.002
,147.500=400.000
,155.500=200.000
,156.000=25.000
,156.250=200.000
,185.000=100.000
,187.000=200.000
,241.000=100.000
,242.000=200.000
,274.000=400.000
,304.500=200.000
;
#STOPS:16.000=0.075,
16.500=0.225,
17.000=0.075,
17.500=0.075,
18.000=0.225,
18.500=0.075,
19.000=0.075,
19.500=0.225,
21.250=0.075,
81.000=0.225,
81.500=0.225,
82.000=0.075,
82.500=0.375,
147.500=0.375,
148.000=0.375,
148.500=0.375,
149.000=0.225,
149.500=0.075,
150.000=0.225,
150.500=0.225,
151.000=0.225,
151.500=0.225,
152.000=0.075,
152.500=0.075,
153.000=0.075,
156.250=0.075,
274.000=0.075,
274.500=0.225,
275.000=0.075,
275.500=0.075,
276.000=0.225,
276.500=0.075,
277.000=0.075,
277.500=0.225,
278.000=0.075,
278.500=0.075,
279.000=0.075,
279.500=0.075,
280.000=0.075
;
#BGCHANGES:;
#KEYSOUNDS:;
#ATTACKS:;

//---------------dance-single - ----------------
#NOTES:
     dance-single:
     :
     Hard:
     17:
     1.000,1.000,0.799,0.702,0.081,547.000,74.000,65.000,0.000,0.000,0.000,1.000,1.000,0.799,0.702,0.081,547.000,74.000,65.000,0.000,0.000,0.000:
1100
0000
0000
0000
0100
0000
0000
0000
0100
0001
1000
0000
0100
0000
0010
0000
,
1000
0000
0001
0000
0100
0000
0010
0000
1000
0000
0001
1000
0001
0000
0001
0000
,
1001
0000
0100
0000
0010
0000
1000
0000
0001
0010
0100
0000
0010
0000
0001
0000
,
1001
0000
0100
0000
0010
0000
1000
0000
0100
0000
0001
1000
0001
0000
0001
0000
,
0200
0300
0000
0000
0022
0033
0000
0000
0200
0300
0000
0000
2000
3000
0000
0000
2200
3300
0000
0000
0002
0003
0000
0000
2000
3000
0000
0000
2200
3300
0000
0000
,
0100
0010
0100
0010
0100
1001
0000
0000
0110
0000
0000
0000
1000
0000
0100
0000
,
0010
0001
0010
0100
0001
0100
0010
0100
,
0001
0100
1000
0100
0010
0100
0001
0100
,
0010
0100
0001
1000
0100
1000
0100
1000
,
1100
0000
0100
0010
0100
0010
0100
0001
,
1000
0010
0100
0001
0100
0010
1000
0001
,
0100
0010
0011
0100
0010
0100
0010
0100
,
0001
0100
0010
1000
0010
0100
0001
1000
,
0100
0010
0011
0000
0100
0010
0100
0001
,
1000
0010
0100
0001
1000
0010
0100
1000
,
0100
0010
0011
0100
0010
0100
0001
0100
,
0010
1000
0001
0100
0010
1000
0001
0100
,
1000
0100
1100
1000
0100
0010
0100
0010
,
0100
0010
0100
0001
1000
0010
0100
0001
,
1000
0100
1000
0100
1000
0100
0010
0100
,
0001
0000
0000
0000
0000
0000
0000
0000
2200
3300
0000
0000
0022
0033
0000
0000
0220
0330
0000
0000
2200
0000
0000
0000
3300
0000
0000
0000
1100
0000
0000
0000
,
0000
1000
0010
0100
0001
1000
0010
0100
,
0001
1000
0100
0010
0001
0010
0100
0001
,
1000
0010
0100
0001
1000
0100
1000
0100
,
1000
0100
1000
0100
0010
1000
0010
0101
,
1000
0010
0100
0001
1000
0010
0100
0001
,
0100
1000
0100
1000
0100
1000
0010
0100
,
0001
1000
0010
0100
0001
1000
0100
1000
,
0100
1000
0100
0010
0100
0010
0001
0011
,
0000
0100
0010
1000
0010
0100
0001
1000
,
0100
1000
0100
0010
0001
0010
0100
1001
,
1000
0010
0100
1000
0100
1000
0010
1001
,
0000
0110
1000
0001
0100
0010
1000
0011
,
0100
0010
0100
0001
0100
0010
1000
0101
,
0100
1000
0000
0100
1000
0100
1000
1010
,
1000
0100
0010
0100
0001
0100
0010
1001
,
1000
0000
0000
0000
0100
0000
0000
0000
0010
0000
0000
0000
0110
0000
0000
0000
0001
0000
0000
0000
0011
0000
0000
0000
1000
0000
0000
0000
2200
3300
0000
0000
,
2200
3300
0000
0000
0022
0033
0000
0000
0220
0330
0000
0000
2200
3300
0000
0000
0220
0330
0000
0000
0022
0033
0000
0000
2200
3300
0000
0000
0220
0330
0000
0000
,
2000
3000
0000
0000
0020
0030
0000
0000
0220
0330
0000
0000
0220
0000
0000
0000
0000
0000
0000
0000
0000
0000
0000
0000
0000
0000
0000
0000
0330
0000
0000
0000
,
1000
0100
0010
0001
0010
0000
0000
0000
0000
0000
0000
0000
0000
0000
0000
0000
0011
0000
0000
0000
0000
0000
0000
0000
0000
0000
0000
0000
0000
0000
0000
0000
0100
0000
0000
0000
0000
0000
0000
0000
1000
0000
0000
0000
0000
0000
0000
0000
0010
0000
0000
0000
0000
0000
0000
0000
0100
0000
0000
0000
0000
0000
0000
0000
,
0001
1000
0010
0100
0001
1000
0100
0010
,
0001
0010
0200
0000
0310
1000
0001
0100
,
0010
1000
0001
0100
0010
1000
0100
1000
,
0100
0010
2001
0000
3100
0001
0100
0010
,
1000
0001
0100
0010
1000
0001
0100
1000
,
0100
1000
0100
0010
0001
0010
0001
0010
,
1000
0001
1100
0110
0101
0011
0110
0000
,
0010
0100
0010
0100
0001
1000
0010
0100
,
0010
0001
0010
0001
0010
0100
2001
0000
,
3100
0010
1000
0001
0100
0010
1000
0100
,
1000
0100
0010
0001
0100
0010
0110
0000
,
0100
1000
0100
0010
1000
0001
0110
0010
,
1000
0001
0100
0010
1000
0100
1100
1000
,
0100
0011
0011
0100
0010
0100
0011
0000
,
0100
0000
0011
1000
0010
0100
0011
0100
,
0010
0100
0010
0100
0010
1000
1100
0000
,
1100
0000
1010
0000
0110
0010
0100
0001
,
1000
0010
0100
0001
1000
0010
0100
0001
,
0100
0010
0100
0001
1000
0100
1100
0100
,
0010
0100
0001
0100
0010
1000
1100
0100
,
0010
0000
0100
0000
0011
0000
0110
0000
1100
0000
1000
0000
0100
0000
0010
0001
,
0100
0010
0100
0001
0100
0010
0100
0001
,
1000
0001
0100
0000
0010
0000
0001
0000
0010
0000
0100
0000
0001
0000
0100
0000
,
0010
0100
1000
0000
0001
0000
0100
0000
1000
0000
0100
0000
0010
0000
0001
0000
,
0010
0000
0001
1000
0010
0000
0001
0000
0110
0000
0100
0000
0010
0000
1000
0000
,
0001
0100
0010
1000
0001
0100
0010
1000
,
0100
1000
0100
1000
1100
1000
0100
0010
,
1000
0001
0100
0010
0110
0000
1001
0000
,
0100
0000
0000
0000
1000
0000
0000
0000
0100
0000
0000
0000
1000
0000
0000
0000
2200
3300
0000
0000
2200
3300
0000
0000
0200
0300
0000
0000
2000
3000
0000
0000
,
0022
0033
0000
0000
0200
0300
0000
0000
0020
0030
0000
0000
0220
0330
0000
0000
2000
3000
0000
0000
0020
0030
0000
0000
0200
0300
0000
0000
0002
0003
0000
0000
,
2000
3000
0000
0000
0022
0000
0000
0000
0000
0000
0000
0000
0000
0000
0000
0000
0000
0000
0000
0000
0000
0000
0000
0000
0000
0000
0000
0000
0000
0000
0000
0000
,
0000
0000
0000
0000
,
0000
0000
0000
0000
,
0000
0000
0000
0000
,
0000
0000
0000
0000
,
0000
0000
0000
0000
,
0000
0033
0000
0000
0000
0000
0000
0000
;

//---------------dance-single - ----------------
#NOTES:
     dance-single:
     :
     Medium:
     12:
     0.674,0.781,0.302,0.162,0.022,394.000,28.000,15.000,0.000,0.000,0.000,0.674,0.781,0.302,0.162,0.022,394.000,28.000,15.000,0.000,0.000,0.000:
1100
0000
0100
0000
0100
0001
0100
0010
,
1000
0001
0100
0010
1000
0001
1000
0001
,
1000
0000
0010
1000
0001
0010
0010
0001
,
1000
0100
0010
1000
0100
0001
0001
0001
,
1100
0010
0000
0011
0010
0000
1100
0010
,
0000
1000
0000
0100
0000
0010
0000
0000
1001
0000
0000
0000
0100
0000
0000
0000
,
0010
0000
1000
0000
0100
1000
0000
0100
,
1010
0000
0001
0000
0100
0000
1000
0100
,
0010
0002
0000
0000
0000
0000
0003
0000
,
0100
0000
0010
0000
1000
0001
0100
0010
,
1000
0000
0100
0000
1000
0100
0000
1000
,
0100
0010
0001
0000
0010
0100
0000
0001
,
0100
0020
0000
2030
,
0000
3000
0001
0000
0010
0000
0001
1000
,
0100
0010
0001
0000
0010
0100
0000
0001
,
1000
0010
0100
0001
1000
0000
1000
0100
,
0010
0002
0000
0000
0000
0000
0000
0003
,
0100
0010
1000
0000
0001
0000
0100
0000
,
0010
0000
1000
0000
1000
0100
0000
1000
,
0100
0010
0100
0000
0001
1000
0010
0100
,
0000
0000
0001
1000
0010
0200
0300
1000
,
0000
0010
0000
1000
0000
0001
0000
0100
,
0000
1000
0100
0000
1000
0100
0010
0100
,
0000
0001
0000
0100
0000
0010
0000
1000
,
0000
0100
1000
0000
1000
0100
0010
0100
,
0000
0001
0000
1000
0000
0010
0000
0200
,
0000
0301
0000
2000
0000
3010
0000
0200
,
0000
0000
0000
0000
0000
0000
0000
0300
,
0000
0010
0000
0010
0000
0010
1000
0010
,
0100
0001
1000
0010
0000
1000
0100
0010
,
0000
0001
0010
0000
0100
0001
1000
0010
,
0000
1000
0100
0000
1000
0100
0010
0100
,
0000
0001
0100
0000
1000
0100
0010
0001
,
0010
0000
0100
0010
1000
0000
0010
0100
,
0000
0001
1000
0000
0100
0010
1000
1100
,
0000
1000
0100
1000
0100
0010
1000
0101
,
0000
0100
0010
0100
0001
0100
0000
1000
,
0100
0010
0110
0000
0001
0010
0001
0000
,
0000
0000
0000
0000
0000
0000
0000
0000
0000
0000
0000
0000
0000
0000
0000
0000
0000
0000
0000
0000
0000
0000
0000
0000
0000
0000
0000
0000
0000
0000
0000
0000
0000
0000
0000
0000
0000
0000
0000
0000
0000
0000
0000
0000
0000
0000
0000
0000
0010
0000
0000
0000
0000
0000
0000
0000
0000
0000
0000
0000
0000
0000
0000
0000
0000
0000
0000
0000
0000
0000
0000
0000
0000
0200
0000
0000
0000
0000
0000
0000
0000
0000
0000
0000
0000
0000
0000
0000
0000
0000
0000
0000
0000
0000
0000
0000
0000
0000
0000
0000
0000
0000
0000
0000
0000
0000
0000
0000
0000
0000
0000
0000
0000
0000
0000
0000
0000
0000
0000
0000
0000
0000
0000
0000
0000
0000
0000
0000
0000
0000
0000
0000
0000
0000
0000
0000
0000
0000
0000
0000
0000
0000
0000
0000
0000
0000
0000
0000
0000
0000
0000
0000
0000
0000
0000
0000
0000
0000
0000
0000
0000
0000
0000
0000
0000
0000
0000
0000
0300
0000
0000
0000
0000
0000
0000
0000
0000
0000
0000
0000
0000
0000
0000
0000
0000
0000
0000
0000
0000
0000
0000
0000
,
1001
0000
0100
0000
1000
0010
0100
0001
,
1000
0100
0010
0001
0000
0010
0000
0100
,
0001
1000
0010
0000
0100
0001
0000
1000
,
0010
0100
0001
1000
0100
1000
0100
0000
,
0000
0100
0020
0000
1030
0000
0001
0100
,
0010
0100
0001
1000
0100
1000
0100
0010
,
1000
0001
0100
0010
0000
0100
0000
0000
,
0010
0000
1100
0110
0101
0011
0110
0000
,
1000
0100
0010
1000
0001
0100
0010
1000
,
0000
0001
0000
0100
0010
1000
0002
0000
,
0103
0010
0000
1000
0000
0001
0000
0100
,
0000
0010
1000
0001
0000
0100
0020
0000
,
1030
0000
0010
0100
0001
1000
0010
0100
,
0001
1000
0100
1000
0100
1000
1100
0000
,
1100
1100
0010
0110
,
0110
0000
1001
0000
1001
0000
0010
0100
,
0001
1000
0000
0100
1000
0100
0010
1000
,
0001
0100
0000
0010
1000
0001
0100
0000
,
0010
1000
0000
0001
0200
0000
0310
0000
,
1000
0000
0100
0000
1000
0000
1000
1100
,
0000
0100
0010
0100
0010
0000
0110
0000
,
0101
0000
0010
0110
1001
0000
0100
0000
,
0010
1000
0001
0100
0010
1000
0001
0100
,
0000
1000
0100
0010
0001
0000
0100
0000
,
0010
0100
0000
0001
0000
1000
0000
0010
,
0000
1000
0100
0010
0001
0100
0010
0100
,
0001
1000
0100
0010
0100
0001
0000
0100
,
0000
0010
0100
0010
0100
0000
0010
0000
,
1000
0001
0100
0010
1000
0100
0001
1000
,
0010
0100
0001
0000
0100
0001
1000
0010
,
0100
0001
1000
0010
0100
0001
1000
0010
,
0100
0022
0000
0000
0000
0000
0000
0000
,
0000
0000
0000
0000
,
0000
0000
0000
0000
,
0000
0000
0000
0000
,
0000
0000
0000
0000
,
0000
0000
0000
0000
,
0000
0033
0000
0000
0000
0000
0000
0000
;

//---------------dance-single - ----------------
#NOTES:
     dance-single:
     :
     Easy:
     9:
     0.481,0.493,0.076,0.162,0.027,290.000,7.000,15.000,0.000,0.000,0.000,0.481,0.493,0.076,0.162,0.027,290.000,7.000,15.000,0.000,0.000,0.000:
1100
0000
0100
0000
0010
1000
0000
0001
,
0000
0100
0000
0010
0000
1000
0000
0010
,
0100
0000
0001
0000
0010
1000
0000
0001
,
0000
0100
0000
0010
0000
1000
0010
0100
,
0001
0000
0000
1000
0000
0000
0010
0000
,
0000
1000
0000
0100
0000
0010
0000
0000
1001
0000
0000
0000
0100
0000
0000
0000
,
0010
0000
1000
0000
0001
0200
0000
0000
,
0300
0000
1000
0000
0010
0000
0100
0001
,
1000
0002
0000
0000
0000
0000
0000
0000
,
0003
0100
0100
1000
,
0010
0000
0100
0000
0001
2000
0000
0000
,
3000
0000
0100
0000
0000
0100
0000
0000
,
0100
0020
0000
2030
,
0000
3000
0100
0000
0000
0010
0100
0000
,
0010
0000
0100
0000
1000
0100
0000
0000
,
0000
0000
0100
0000
0010
0000
1000
0100
,
0010
0002
0000
0000
0000
0000
0000
0000
,
0003
0100
0010
1000
,
0001
0000
0100
0000
0010
0100
0000
0000
,
0000
0000
1000
0000
0000
0100
0000
0000
,
0010
0000
0100
1000
0001
0020
0030
1000
,
0000
0100
0000
1000
0000
0100
0000
0010
,
0000
1000
0001
0000
0000
0100
0000
0010
,
0000
1000
0000
0001
0000
0100
0010
0100
,
0000
0001
2000
0000
0000
0000
0000
3000
,
0000
0010
0000
0100
0000
0001
0000
1000
,
0000
1000
0000
1000
0000
0100
0000
0020
,
0000
0000
0000
0000
,
0030
1000
0000
0100
1000
0100
0010
0001
,
0000
0100
0000
0010
0000
0100
0000
0010
,
0000
1000
0100
0000
0000
1000
0000
0100
,
0000
0010
1000
0000
0000
0001
0100
0010
,
0000
1000
0001
0000
1000
0100
0010
0001
,
0001
0020
0000
0000
,
0030
0000
0000
0000
1000
0100
1000
1100
,
0000
0100
0020
0000
,
0000
0030
0000
0100
0000
0010
0000
1000
,
0100
0010
0010
0000
0001
0010
0001
0000
,
0000
0000
0000
0000
0000
0000
0000
0000
0000
0000
0000
0000
0000
0000
0000
0000
0000
0000
0000
0000
0000
0000
0000
0000
0000
0000
0000
0000
0000
0000
0000
0000
0000
0000
0000
0000
0000
0000
0000
0000
0000
0000
0000
0000
0000
0000
0000
0000
0010
0000
0000
0000
0000
0000
0000
0000
0000
0000
0000
0000
0000
0000
0000
0000
0000
0000
0000
0000
0000
0000
0000
0000
0000
0200
0000
0000
0000
0000
0000
0000
0000
0000
0000
0000
0000
0000
0000
0000
0000
0000
0000
0000
0000
0000
0000
0000
0000
0000
0000
0000
0000
0000
0000
0000
0000
0000
0000
0000
0000
0000
0000
0000
0000
0000
0000
0000
0000
0000
0000
0000
0000
0000
0000
0000
0000
0000
0000
0000
0000
0000
0000
0000
0000
0000
0000
0000
0000
0000
0000
0000
0000
0000
0000
0000
0000
0000
0000
0000
0000
0000
0000
0000
0000
0000
0000
0000
0000
0000
0000
0000
0000
0000
0000
0000
0000
0000
0000
0000
0300
0000
0000
0000
0000
0000
0000
0000
0000
0000
0000
0000
0000
0000
0000
0000
0000
0000
0000
0000
0000
0000
0000
0000
,
0000
0100
1000
0100
,
0100
0000
1000
0100
0000
1000
0000
1000
,
0100
0010
0002
0000
0103
0010
0000
0100
,
0000
0010
0000
1000
0000
0000
1000
0100
,
0000
0010
0001
0010
,
0000
0100
0000
0010
0000
1000
0000
0000
,
0110
1000
0001
0100
0000
0010
0000
0000
,
0100
0000
1000
0100
0100
0100
0100
0000
,
0001
0000
1000
0000
0010
0000
0100
0001
,
0000
1000
0000
1000
0100
0010
1000
0000
,
0001
0100
0000
0010
0000
0010
0000
0001
,
0000
0000
1000
0010
0000
0000
0100
0000
,
0001
0000
1000
0010
0000
0100
0000
0001
,
0000
1000
0000
0000
0000
0100
1100
0000
,
1000
1100
0100
0100
,
0010
0100
0001
1001
,
0100
0000
0010
1000
0100
0010
0000
1000
,
0000
0001
0000
0100
0010
1000
0001
0000
,
0100
0010
0000
1000
0100
0000
0020
0000
,
0030
0000
0001
0000
0010
0000
0100
0010
,
0000
1000
0010
0100
0001
1000
0010
0000
,
0100
0000
0100
0001
1000
0000
0010
0000
,
0100
0001
0000
1000
0000
0100
0000
1000
,
0000
1000
0100
0010
0001
0000
0010
0000
,
0100
0001
0000
1000
0000
0100
0000
1000
,
0000
1000
0100
0010
0001
0000
0010
0000
,
0100
1000
0000
0001
0000
0100
0000
0010
,
0000
1000
0100
0010
0001
0000
0100
0000
,
0010
1000
0000
0001
0000
0100
0000
0010
,
1000
0001
0000
0000
0100
0010
0000
1000
,
0001
0000
0100
0010
0000
1000
0000
1000
,
0000
0000
0000
0000
0000
0000
0000
0000
0000
0000
0000
0000
0000
0000
0000
0000
0000
0000
0000
0000
0000
0000
0000
0000
0000
0002
0000
0000
0000
0000
0000
0000
0000
0000
0000
0000
0000
0000
0000
0000
0000
0000
0000
0000
0000
0000
0000
0000
0000
0000
0000
0000
0000
0000
0000
0000
0000
0000
0000
0000
0000
0000
0000
0000
0000
0000
0000
0000
0000
0000
0000
0000
0000
0000
0000
0000
0000
0000
0000
0000
0000
0000
0000
0000
0000
0000
0000
0000
0000
0000
0000
0000
0000
0000
0000
0000
0000
0000
0000
0000
0000
0000
0000
0000
0000
0000
0000
0000
0000
0000
0000
0000
0000
0000
0000
0000
0000
0000
0000
0000
0000
0000
0000
0000
0000
0000
0000
0000
0000
0000
0000
0000
0000
0000
0000
0000
0000
0000
0000
0000
0000
0000
0000
0000
0000
0000
0000
0000
0000
0000
0000
0000
0000
0000
0000
0000
0000
0000
0000
0000
0000
0000
0000
0000
0000
0000
0000
0000
0000
0000
0000
0000
0000
0000
0000
0000
0000
0000
0000
0000
0000
0000
0000
0000
0000
0000
0000
0000
0000
0000
0000
0000
,
0000
0000
0000
0000
,
0000
0000
0000
0000
,
0000
0000
0000
0000
,
0000
0000
0000
0000
,
0000
0000
0000
0000
,
0000
0003
0000
0000
0000
0000
0000
0000
;

//---------------dance-single - Copied from----------------
#NOTES:
     dance-single:
     Copied from:
     Beginner:
     3:
     0.241,0.247,0.076,0.054,0.000,144.000,7.000,5.000,0.000,0.000,0.000,0.241,0.247,0.076,0.054,0.000,144.000,7.000,5.000,0.000,0.000,0.000:
0000
0000
0000
0000
,
0001
0000
0000
0000
,
1000
0000
0000
0000
,
0100
0000
0000
0000
,
0010
0000
0000
1000
0000
0000
0001
0000
,
0100
0000
0001
0100
,
0000
0000
0100
0000
0000
1000
0000
0000
,
0000
1000
0000
0100
,
0000
0002
0000
0000
0000
0000
0000
0000
,
0003
0100
0000
0010
,
0000
1000
0000
0100
,
0000
1000
0000
0000
,
0000
0000
2000
0000
0000
3000
0001
0000
,
0000
0100
0000
0010
,
0000
1000
0000
0001
,
0000
0100
0000
1000
,
0000
0100
0000
0010
,
1000
0001
0000
0100
,
0000
1000
0000
0100
,
0000
0010
0000
0001
,
0000
0100
0001
0000
,
0000
0100
0000
1000
0000
0000
0000
0100
,
0000
0000
0000
0010
0000
0000
0000
1000
,
0000
0001
0000
0100
0000
0000
0000
0010
,
0000
0010
0000
0010
0000
0000
0000
1000
,
0000
0000
0000
0000
0000
0000
0000
0001
,
0000
0000
0000
1000
0000
0000
0000
0002
,
0000
0000
0000
0000
,
0003
0000
0000
0000
0000
0100
0000
0100
,
0000
0000
0000
1000
0000
0000
0000
0010
,
0000
0000
0000
1000
0000
0100
0000
0010
,
0000
0000
0000
1000
0000
0000
0000
0100
,
0000
0000
0000
0010
0000
0000
0000
1000
,
0000
0000
0000
0001
0000
0000
0000
0011
,
0000
0000
0000
0100
0000
0000
0000
1001
,
0000
0000
0000
0010
0000
0000
0000
0110
,
0000
0000
0000
1000
0000
0000
0000
0001
,
0000
0100
0000
0000
0000
0000
0010
0000
,
0000
0100
0000
0000
,
0000
0000
0100
1000
,
0000
0000
0100
0000
0000
0010
0000
0000
,
0000
0000
0001
0000
0000
0100
0000
0100
,
0000
1000
0000
0000
0000
0000
0100
0000
,
0000
0001
0000
0100
,
0000
0010
0000
1000
,
0100
0010
0000
0001
,
0000
0001
0100
0001
,
0000
0100
0000
0010
,
0000
0100
0000
2000
,
3000
1000
0000
0100
,
0000
0010
0000
1000
,
0000
0010
0000
0011
,
0000
0100
0000
1001
,
0000
0100
0000
0110
,
0000
1001
0000
0001
,
0000
1000
0000
0100
,
0000
1000
0000
0100
,
0000
0010
0000
0001
,
0000
0100
0000
1000
,
0000
0100
0000
0001
,
0000
0001
1000
0000
,
0100
0000
0010
0000
,
1000
0001
0001
0000
,
0100
0000
0010
0000
,
1000
0010
0010
0000
,
0100
0000
0010
0000
,
0001
1000
1000
0000
,
0010
0000
0100
0000
,
0001
0000
0000
0000
0100
0000
0000
0001
,
0000
0000
0100
0000
0000
0001
0000
0000
,
0000
2000
0000
0000
0000
0000
0000
0000
,
0000
0000
0000
0000
,
0000
0000
0000
0000
,
0000
0000
0000
0000
,
0000
0000
0000
0000
,
0000
0000
0000
0000
,
0000
3000
0000
0000
0000
0000
0000
0000
;

//---------------dance-single - Copied from----------------
#NOTES:
     dance-single:
     Copied from:
     Challenge:
     18:
     1.000,1.000,0.670,0.648,0.302,591.000,62.000,60.000,0.000,0.000,0.000,1.000,1.000,0.670,0.648,0.302,591.000,62.000,60.000,0.000,0.000,0.000:
0011
0000
0000
0000
0010
0000
0000
0000
0010
1000
0001
0000
0010
0000
0100
0000
,
0001
0000
1000
0000
0010
0000
0100
0000
0001
0000
1000
0001
1000
0100
1000
0010
,
1001
0000
0010
0000
0100
0000
0001
0000
1000
0100
0010
0000
0100
0000
1000
0000
,
1001
0000
0010
0000
0100
0000
0001
0000
0010
0000
1000
0001
1000
0000
1000
0000
,
0220
0030
0000
0000
2000
0300
0000
0000
3020
0000
0000
0000
2030
0000
0000
0002
3000
0000
0000
0000
0200
0003
0000
0000
0002
0303
0000
0000
0022
0033
0000
0000
,
0010
0100
0010
0100
0010
1001
0000
0000
0110
0000
0000
0000
0001
0000
0010
0000
,
0100
0000
1000
0000
0100
0000
0010
0000
1000
0000
0010
0000
0100
0000
0010
0100
,
1000
0010
0001
0010
0100
0010
1000
0010
,
0100
0000
0010
0000
1000
0000
0001
0000
0010
0000
0001
0000
0010
0000
0001
0010
,
0011
0000
0010
0100
0010
0100
0010
1000
,
0001
0100
0010
1000
0010
0100
0001
1000
,
0010
0000
0100
1000
1100
0000
0020
1000
0130
0000
2000
0010
3100
0000
0010
0000
,
1000
0010
0100
0001
0100
0010
1000
0001
,
0010
0100
1100
0100
0010
0100
0010
1000
,
0001
0100
0010
1000
0001
0100
0010
0001
,
0010
0000
0100
1000
1100
0000
0010
0000
0100
0000
0010
0000
1000
0000
0010
0000
,
0100
0001
1000
0010
0100
0001
1000
0010
,
0001
0000
0010
0001
0011
0000
0001
0010
0011
0000
0100
0000
0010
0000
0100
0000
,
0010
0100
0010
1000
0001
0100
0010
1000
,
0001
0010
0001
0010
0001
0010
0100
0010
,
1000
0000
0000
0000
0000
0000
0000
0000
0022
0003
0000
0000
2000
0030
0000
0000
0200
3000
0000
0000
0002
0300
0000
0000
0003
0000
0000
0000
0011
0000
0000
0000
,
0000
0001
0100
0010
1000
0001
0100
0010
,
1000
0000
0001
0000
0010
0000
0100
0000
1000
0000
0100
0001
0010
0000
1000
0000
,
0001
0000
0100
0000
0010
0000
1000
0000
0001
0000
0020
1000
0031
0000
0200
1000
,
0301
0010
0001
0010
0100
0001
0100
1010
,
0001
0100
0010
1000
0001
0100
0010
1000
,
0010
0001
0010
0001
0010
0001
0200
0010
,
1000
0301
0100
0010
1000
0001
0010
0001
,
0010
0000
0001
0000
0010
0000
0100
0000
0010
0000
0100
0000
1000
0100
1100
0000
,
0000
0010
0100
0001
0100
0010
1000
0001
,
0010
0001
0010
0100
1000
0100
0010
1001
,
0001
0100
0010
0001
0010
0001
0100
1001
,
0000
0000
0110
0000
0001
0000
1000
0000
0010
0000
0100
0000
0001
0010
1100
0000
,
0010
0000
0100
0000
0010
0000
1000
0000
0010
0000
0100
0000
0001
0010
1010
0000
,
0010
0000
0001
0000
0000
0000
0010
0000
0001
0000
0010
0000
0001
0100
0101
0000
,
0001
0010
0100
0010
1000
0010
0100
1001
,
0001
0000
0000
0000
0010
0000
0000
0000
0100
0000
0000
0000
0110
0000
0000
0000
1000
0000
0000
0000
1100
0000
0000
0000
0001
0000
0000
0000
0022
0030
0000
0000
,
0200
0003
0000
0000
2000
0300
0000
0000
0020
3000
0000
0000
0002
0030
0000
0000
0020
0003
0000
0000
2000
0030
0000
0000
0002
3000
0000
0000
0200
0303
0000
0000
,
0022
0033
0000
0000
2200
3300
0000
0000
0220
0330
0000
0000
0220
0000
0000
0000
0000
0000
0000
0000
0000
0000
0000
0000
0000
0000
0000
0000
0330
0000
0000
0000
,
0001
0010
0100
1000
0100
0000
0000
0000
0000
0000
0000
0000
0000
0000
0000
0000
1100
0000
0000
0000
0000
0000
0000
0000
0000
0000
0000
0000
0000
0000
0000
0000
0010
0000
0000
0000
0000
0000
0000
0000
0001
0000
0000
0000
0000
0000
0000
0000
0100
0000
0000
0000
0000
0000
0000
0000
0010
0000
0000
0000
0000
0000
0000
0000
,
1000
0001
0100
0010
1000
0001
0010
0100
,
1000
0100
0020
0000
0130
0001
1000
0010
,
0100
0001
1000
0010
0100
0001
0010
0001
,
0010
0000
0100
0010
1002
0000
0000
0000
0013
0000
1000
0000
0010
0000
0100
0000
,
0001
1000
0010
0100
0001
1000
0010
0001
,
0010
0000
0001
1000
0010
0000
0100
0000
1000
0000
0100
0000
1000
0000
0100
0000
,
0001
0000
1000
0000
0011
1000
0110
0100
1010
0010
1100
0100
0110
0000
0000
0000
,
0100
0010
0100
0010
1000
0001
0100
0010
,
0100
0000
1000
0000
0100
0000
1000
0000
0100
0000
0010
0100
1002
0000
0000
0000
,
0013
0100
0001
1000
0010
0100
0001
0010
,
0001
0000
0010
0000
0100
0000
1000
0000
0010
0000
0100
0010
0210
0000
0000
0000
,
0310
0000
0001
0000
0010
0000
0100
0000
0001
0000
0100
0010
0110
0000
0100
0000
,
0001
0000
1000
0000
0010
0000
0100
0000
0001
0000
0010
0001
0011
0000
0001
0000
,
0010
1100
1100
0010
0100
0010
1100
0000
,
0010
0000
0000
0000
1100
0000
0001
0000
0100
0000
0010
0000
1100
0000
0010
0100
,
0010
0000
0010
0100
0010
0000
0010
0100
0010
0000
0001
0000
0011
0000
0001
0010
,
0001
0000
0001
0010
0001
0000
0001
0010
0001
0000
0100
0000
0110
0000
1000
0100
,
0001
0000
0100
1000
0010
0000
1000
0100
0001
0000
0100
0000
0010
0000
1000
0000
,
0010
0100
0010
1000
0001
0010
0011
0010
,
0100
0010
1000
0010
0100
0001
0011
0010
,
0100
0000
0010
0000
1100
1000
0110
0001
0011
0000
0001
0000
0010
0000
0100
1000
,
0010
0100
0010
1000
0010
0100
0010
1000
,
0001
1000
0010
0000
0100
0000
1000
0000
0100
0000
0010
0000
1000
0000
0010
0000
,
0100
0010
0001
0000
1000
0000
0010
0000
0001
0000
0010
0000
0100
0000
1000
0000
,
0100
0000
1000
0001
0100
0000
1000
0000
0110
0000
0010
0000
0100
0000
0001
0000
,
1000
0010
0100
0001
1000
0010
0100
0001
,
0010
0000
0001
0000
0010
0000
0001
0010
0011
0000
0001
0000
0010
0000
0100
0000
,
0001
0000
1000
0000
0010
0000
0100
0010
0110
0000
0000
0000
1001
0000
0000
0000
,
0010
0000
0000
0000
0001
0000
0000
0000
0010
0000
0000
0000
0001
0000
0000
0000
0022
0033
0000
0000
0022
0030
0000
0000
0020
0003
0000
0000
0002
0030
0000
0000
,
0200
0003
0000
0000
0020
0300
0000
0000
0200
0330
0000
0000
0220
0330
0000
0000
0002
0000
0000
0000
0200
0003
0000
0000
0020
0300
0000
0000
2000
0030
0000
0000
,
0002
3000
0000
0003
2200
0000
0000
0000
0000
0000
0000
0000
0000
0000
0000
0000
0000
0000
0000
0000
0000
0000
0000
0000
0000
0000
0000
0000
0000
0000
0000
0000
,
0000
0000
0000
0000
,
0000
0000
0000
0000
,
0000
0000
0000
0000
,
0000
0000
0000
0000
,
0000
0000
0000
0000
,
0000
3300
0000
0000
0000
0000
0000
0000
;
