#TITLE:Tai Ma Gekisen;
#SUBTITLE:Fairy Tail BGM;
#ARTIST:Fairy Tail BGM;
#TITLETRANSLIT:;
#SUBTITLETRANSLIT:;
#ARTISTTRANSLIT:;
#GENRE:;
#CREDIT:;
#BANNER:Tai Ma Gekisen.png;
#BACKGROUND:Tai Ma Gekisen-bg.png;
#LYRICSPATH:;
#CDTITLE:;
#MUSIC:Tai Ma Gekisen.ogg;
#OFFSET:-0.097;
#SAMPLESTART:0.050;
#SAMPLELENGTH:12.000;
#SELECTABLE:YES;
#BPMS:0.000=239.960
;
#STOPS:
;
#BGCHANGES:;
#KEYSOUNDS:;
#ATTACKS:;

//---------------dance-single - ----------------
#NOTES:
     dance-single:
     :
     Challenge:
     16:
     1.000,1.000,0.063,0.314,0.000,646.000,6.000,30.000,0.000,0.000,0.000,1.000,1.000,0.063,0.314,0.000,646.000,6.000,30.000,0.000,0.000,0.000:
1001
0000
1000
0010
1000
0010
1000
0010
,
1000
0010
0100
0010
0100
0010
0100
0010
,
0100
0010
0100
0010
0100
0010
0100
0010
,
1000
0100
0010
0001
0010
0100
1000
0100
,
0010
0001
0010
0100
1000
0100
0010
0001
,
0100
0001
0100
0001
0100
0001
0100
0001
,
0100
0010
0100
0010
0100
0010
0100
0010
,
1000
0100
0010
0001
0010
0100
1000
0100
,
0010
0001
0010
0100
1000
0100
0010
0001
,
0100
0001
0100
0001
0100
0001
0100
0001
,
0100
0001
0100
0001
0100
0001
0100
0001
,
1000
0100
0010
0001
0010
0100
1000
0100
,
0010
0100
0010
0100
0010
0100
0010
0100
,
1000
0100
0100
1000
0100
1000
0100
1000
,
0100
0010
0100
0010
0100
0010
0100
0010
,
0100
0010
0010
0100
0001
0001
0100
0001
,
0001
0001
0100
0001
0001
0001
0010
0001
,
0001
0100
0001
0100
0001
0010
0100
0001
,
0100
0001
0100
0001
0100
0001
0100
0001
,
1000
0100
0001
0010
0100
1000
0100
0010
,
0001
0010
0100
1000
0100
0010
0100
0010
,
0100
1000
0100
0010
0100
0010
0100
0010
,
0100
0010
0100
0001
0010
0100
1000
0100
,
0010
0100
0010
0100
0010
0100
0010
0100
,
0001
0010
0100
1000
0100
0010
0001
0010
,
0100
0010
0100
0010
0100
0010
0100
0010
,
1000
0100
0010
0100
0001
0100
0010
0100
,
0010
0100
0010
0100
0010
0100
0010
1000
,
0100
0010
0001
0010
0100
1000
0100
1000
,
0100
1000
0100
1000
0100
0010
0100
0010
,
0100
0010
0001
0010
0001
0010
0001
0010
,
0100
0010
0100
0010
0100
1000
0100
0010
,
0100
0010
0100
0010
0100
0010
0100
0000
,
1000
0100
0000
0010
0100
0010
0100
0000
,
0010
0100
0010
0100
0010
0100
0010
0000
,
1000
0100
0010
0001
0010
0100
1000
0000
,
0100
0010
0100
0010
0100
0010
0100
0000
,
1000
0100
0010
0001
0010
0100
1000
0000
,
0100
0010
0100
0010
0100
0010
0100
0000
,
0001
0010
0100
1000
0100
0010
0001
0000
,
1000
0001
1000
0001
1000
0001
1000
0001
,
0100
0010
0100
0001
1000
0000
0100
0000
,
1000
0010
1000
0010
1000
0010
1000
0000
,
0010
0100
0010
0100
0010
0100
0010
0000
,
1000
0100
0010
0001
0100
0000
0001
0000
,
1000
0001
1000
0001
1000
0001
1000
0000
,
0010
0100
0010
0100
0001
0100
0001
0000
,
1000
0100
0010
0000
0001
0010
0100
0000
,
1000
0100
0010
0001
0010
0100
0010
0000
,
0100
0010
0100
0010
0100
0010
0100
0000
,
1000
0100
0010
0001
0010
0100
0010
0000
,
0100
0001
0010
0100
0010
0100
0001
0000
,
0100
0010
0100
0010
0100
0001
0100
0000
,
1000
0100
1000
0100
1000
0000
0100
0000
,
0100
0010
0100
0010
0100
0010
0100
0000
,
0001
0000
0001
0010
0001
0010
0001
0000
,
0100
0000
0100
0010
0100
0010
0100
0010
,
0100
0000
1000
0100
0010
0100
0010
0000
,
0100
0000
1000
0001
1000
0001
1000
0001
,
0100
0000
0100
0010
0100
0010
0100
0010
,
0100
0000
1000
0100
0010
0001
0010
0100
,
1000
0000
0100
0010
0100
0010
0100
0010
,
0100
0000
0002
0023
0230
2300
3200
0320
,
0032
0003
0100
0010
0100
0010
1000
0001
,
0000
0100
0010
0001
0100
0010
1000
0100
,
0001
0000
0200
0320
2030
3200
0302
0203
,
0320
0030
2000
3200
0320
0230
0320
2030
,
3020
0030
0200
0320
0230
0302
0203
0302
,
0203
0320
1030
0100
0010
0001
0010
0100
,
1000
0100
0010
0001
0100
0010
0000
0100
,
0010
0100
0010
0100
0010
0100
0010
0100
,
1000
0100
0010
0001
0010
0100
1000
0100
,
0010
0001
0100
1000
0001
1000
0001
1000
,
0000
0010
0100
0000
0110
0000
0110
0000
,
0010
0100
0110
0000
0010
0100
0010
0100
,
0010
0100
0010
0100
0010
0100
0010
0100
,
0010
0100
0010
0100
0010
0100
0010
1000
,
0001
0100
0001
0100
0001
0100
0001
0100
,
0001
0100
0001
1000
0001
0100
0001
1000
,
0010
0100
0010
1000
0010
0100
0001
1000
,
0100
1000
0010
0100
0010
0001
0100
0010
,
0100
1001
0100
0010
0001
0010
0100
1000
,
0100
0010
0001
0010
0100
1000
0100
1000
,
0100
0000
0001
0100
0001
0100
0001
0100
,
0001
0100
0001
0100
0001
0100
1001
0001
,
1000
0100
0001
0100
0001
0100
0001
1000
,
0100
0010
0001
0010
0100
1000
0100
0020
,
0000
0000
0000
0000
,
0000
0000
0000
0000
,
0000
0000
0000
0000
,
0000
0000
0000
0000
,
0000
0000
0000
0000
,
0030
0000
0000
0000
;
