#TITLE:Stay my side;
#SUBTITLE:;
#ARTIST:DJ YOSHITAKA feat. RINA;
#TITLETRANSLIT:;
#SUBTITLETRANSLIT:;
#ARTISTTRANSLIT:;
#GENRE:;
#CREDIT:;
#BANNER:Stay my side.png;
#BACKGROUND:Stay my side-bg.png;
#LYRICSPATH:;
#CDTITLE:;
#MUSIC:Stay my side.mp3;
#OFFSET:-0.038;
#SAMPLESTART:0.050;
#SAMPLELENGTH:12.000;
#SELECTABLE:YES;
#BPMS:0.000=100.000
;
#STOPS:
;
#BGCHANGES:;
#KEYSOUNDS:;
#ATTACKS:;

//---------------dance-single - ----------------
#NOTES:
     dance-single:
     :
     Hard:
     8:
     0.353,0.328,0.303,0.068,0.000,215.000,31.000,7.000,0.000,0.000,0.000,0.353,0.328,0.303,0.068,0.000,215.000,31.000,7.000,0.000,0.000,0.000:
0000
0000
0000
0000
,
0000
1001
0000
0100
0110
0000
0100
0010
,
0100
0010
0000
1000
1001
0000
1000
0010
,
1000
0010
0000
1000
1010
0000
1000
0001
,
1000
0001
0000
0100
0110
0000
1000
0001
,
1000
0001
0100
0010
1000
0100
0010
0001
,
0100
0001
0000
0100
0110
0000
1000
0100
,
0010
0001
0000
0100
0110
0000
1000
0001
,
1000
1001
0000
0100
0110
0000
1000
0001
,
0000
1001
0100
0010
0100
0000
1000
0100
,
0000
0010
0000
0001
0010
0000
0100
1001
,
0000
0100
0000
0010
1000
0000
0100
0010
,
0000
0001
0000
1000
0001
0000
0100
0010
,
1000
0001
0000
1000
0000
0100
0010
0100
,
0000
0001
0000
0010
0000
0100
0010
1000
,
0000
0001
0000
0001
0000
1000
0001
1000
,
0000
0010
0000
1001
0000
0100
0010
0100
,
0010
1000
0000
0100
0010
0000
0100
0010
,
0100
1001
0000
0100
0110
0000
0000
0001
,
0010
1001
0000
0100
1010
0000
0100
0010
,
0100
0001
0000
0100
0110
0000
1000
1001
,
0100
0110
0000
1000
1001
0000
0100
0010
,
0100
1001
0000
0100
0101
0000
1000
0010
,
1000
1001
0000
0100
0110
0000
1000
0001
,
1000
0020
0000
0000
0000
0000
0030
1000
,
0001
1001
0000
0100
0020
0000
0000
0000
,
0030
2000
0000
0000
3000
0001
0100
0010
,
1000
0002
0000
0000
0000
2003
0000
0000
,
0000
3020
0000
0000
0000
1030
0000
0100
,
0000
1001
0000
0100
0010
0100
0000
1000
,
0001
1000
0000
0100
0010
0100
0000
0000
,
0001
1000
0000
0010
0100
0010
0000
1000
,
0000
1001
0000
0100
0000
0110
0000
1000
,
0001
1001
0000
0100
0010
0000
0100
0010
,
0100
0010
0000
1000
0001
0000
0100
0010
,
1000
0010
0000
0100
0101
0000
1000
0010
,
1000
0001
0000
0100
0010
0000
1000
0001
,
1000
1001
0000
0100
0010
0000
0000
1000
,
0001
0100
0000
1000
0001
0000
0000
0100
,
0010
0100
0000
1000
0001
0000
0000
0100
,
0010
1000
0000
0100
0100
0000
0010
0010
,
0002
0000
0000
0000
,
0003
0000
0000
0000
;

//---------------dance-single - ----------------
#NOTES:
     dance-single:
     :
     Medium:
     6:
     0.236,0.246,0.137,0.127,0.000,142.000,14.000,13.000,0.000,0.000,0.000,0.236,0.246,0.137,0.127,0.000,142.000,14.000,13.000,0.000,0.000,0.000:
0000
0000
0000
0000
,
0000
1000
0000
0000
0000
0000
0010
0100
,
0000
0001
0000
0000
1000
0000
0000
0010
,
0100
0010
0000
0000
1000
0000
0000
0000
,
0010
0100
0000
0001
1000
0000
0000
0000
,
0000
0010
0000
1000
0002
0003
0000
0100
,
0010
0100
0000
0000
1000
0000
0000
0001
,
1000
0001
0000
0000
0100
0000
0000
0010
,
1000
0010
0000
0000
0100
0000
0000
1000
,
0010
1001
0000
0000
0110
0000
0100
0001
,
0000
1000
0000
0010
1000
0000
0010
0100
,
0000
0001
0000
0000
1000
0000
0010
0100
,
0010
0001
0000
0000
0001
0000
1000
0010
,
0100
0001
0000
0000
1000
0000
0000
0100
,
0010
0100
0000
1000
0001
0000
0000
0100
,
0010
0100
0000
0000
1000
0000
0000
0001
,
1000
0001
0000
0000
0100
0000
0000
0010
,
0100
0010
0000
0000
1000
0000
0000
0001
,
1000
0001
0000
0000
0010
0000
0000
1000
,
0010
1000
0000
0000
0010
0000
0000
0100
,
0010
0100
0000
0000
0010
0000
0000
0001
,
0000
1001
0000
0000
0110
0000
0000
1000
,
0010
1000
0000
0000
1001
0000
0000
0100
,
0010
0100
0000
0000
1010
0000
0000
0100
,
0000
1001
0000
0110
0000
1001
0000
2000
,
0000
3001
0000
0100
0000
0020
0000
0030
,
0000
2000
0000
3000
0000
0200
0000
0300
,
0000
0020
0000
0030
0000
0002
0000
0003
,
0000
1000
0000
0001
0000
1000
0000
1000
,
0000
0002
0000
0003
0000
0020
0000
0030
,
0000
0200
0000
0300
0000
2000
0000
3000
,
0000
1000
0000
0000
0000
0100
0000
0000
,
0000
0010
0000
1000
0000
0001
0000
1000
,
0000
1001
0000
0000
0000
0000
0000
0010
,
0000
1010
0000
0000
1000
0000
0000
0010
,
0000
1000
0000
0000
1001
0000
0000
0010
,
0000
0100
0000
0000
0110
0000
0000
0001
,
0000
1000
0000
0000
0010
0000
0000
0000
,
0000
1000
0000
0001
1000
0000
0000
0010
,
0000
0010
0000
1000
0001
0000
0000
0000
,
0000
0001
0000
1000
0001
0000
0000
1000
,
0000
2002
0000
0000
0000
0000
0000
0000
,
3003
0000
0000
0000
;

//---------------dance-single - ----------------
#NOTES:
     dance-single:
     :
     Easy:
     3:
     0.173,0.164,0.156,0.176,0.000,90.000,16.000,18.000,0.000,0.000,0.000,0.173,0.164,0.156,0.176,0.000,90.000,16.000,18.000,0.000,0.000,0.000:
0000
0000
0000
0000
,
0000
1001
0000
0000
0000
0000
0000
0000
,
0000
0000
0100
0000
,
0000
0000
0010
0000
,
1000
1000
0000
0000
0000
0000
0000
0000
,
0000
0001
0000
0000
0000
0000
0000
0000
,
0010
0100
0000
0000
0000
0000
0000
0000
,
1000
0001
0000
0000
0000
0000
0000
0000
,
0010
0100
0000
0000
0000
0000
0000
0000
,
1000
0001
0000
0000
0000
0000
0000
0010
,
0100
0001
0000
0000
0000
0000
1000
0010
,
0000
0100
0000
0000
0010
0000
0000
1000
,
0000
0010
0000
0000
1000
0000
0000
0010
,
0000
0010
0000
0000
0001
0000
0000
1000
,
0000
0001
0000
0000
0110
0000
0000
1000
,
0000
0001
0000
0000
0100
0000
0000
0010
,
0000
1000
0000
0000
0110
0000
0000
1000
,
0000
1010
0000
0000
0100
0000
0000
0100
,
0000
0010
0000
0000
1001
0000
0000
0100
,
0000
1000
0000
0000
1010
0000
0000
0100
,
0000
1000
0000
0000
1001
0000
0000
0100
,
0000
1001
0000
0000
1000
0000
0000
0000
,
0000
0002
0000
0000
0003
0000
0000
1000
,
0000
0002
0000
0000
0000
0003
0000
0000
,
0000
2000
0000
0000
0000
3000
0000
1000
,
0001
1000
0000
0000
0000
0000
0000
0010
,
0000
2000
0000
3000
0000
0002
0000
0003
,
0000
2000
0000
3000
0000
0002
0000
0003
,
0000
0200
0000
0300
0000
0020
0000
0030
,
0000
2000
0000
3000
0000
0020
0000
0030
,
0000
0002
0000
0003
0000
0020
0000
0030
,
0000
0020
0000
0030
0000
2000
0000
3000
,
0000
2000
0000
3000
0000
0002
0000
0003
,
0000
1001
0000
0000
1000
0000
0000
0000
,
0000
1000
0000
0000
1001
0000
0000
0000
,
0000
0001
0000
0000
1001
0000
0000
0000
,
0000
0100
0000
0000
0110
0000
0000
0000
,
0000
0010
0000
0000
0110
0000
0000
0000
,
0000
1000
0000
0000
1001
0000
0000
0000
,
0000
0010
0000
0000
0110
0000
0000
0000
,
0000
1000
0000
0000
1001
0000
0000
0000
,
2000
0000
0000
0000
,
3000
0000
0000
0000
;

//---------------dance-single - ----------------
#NOTES:
     dance-single:
     :
     Beginner:
     1:
     0.086,0.144,0.068,0.059,0.000,49.000,7.000,6.000,0.000,0.000,0.000,0.086,0.144,0.068,0.059,0.000,49.000,7.000,6.000,0.000,0.000,0.000:
0000
0000
0000
0000
,
0000
0001
0000
0000
0000
0000
0000
0000
,
0000
0100
0000
0000
0000
0000
0000
0000
,
0000
0010
0000
0000
0000
0000
0000
0000
,
0000
1000
0000
0000
0000
0000
0000
0000
,
0000
1001
0000
0000
0000
0000
0000
0000
,
0000
0001
0000
0000
0000
0000
0000
0000
,
0000
1000
0000
0000
0000
0000
0000
0000
,
0000
0010
0000
0000
0000
0000
0000
0000
,
0000
1001
0000
0000
0000
0000
0000
0000
,
0000
0010
0000
0000
0000
0000
0000
0000
,
0000
1000
0000
0000
0000
0000
0000
0000
,
0000
0010
0000
0000
0000
0000
0000
0000
,
0000
1000
0000
0000
0000
0000
0000
0000
,
0000
0001
0000
0000
0000
0000
0000
0000
,
0000
0100
0000
0000
0000
0000
0000
0000
,
0000
1000
0000
0000
0000
0000
0000
0000
,
0000
0220
0000
0000
0330
0000
0000
0000
,
0000
1000
0000
0000
0000
0000
0000
0000
,
0000
0001
0000
0000
0000
0000
0000
0000
,
0000
0010
0000
0000
0000
0000
0000
0000
,
0000
1001
0000
0000
0000
0000
0000
0000
,
0000
0010
0000
0000
0000
0000
0000
0000
,
0000
1000
0000
0000
0000
0000
0000
0000
,
2002
0000
0000
0000
0000
3003
0000
0000
,
0000
1000
0000
0000
0000
0000
0000
0000
,
0000
0001
0000
0000
0000
0000
0000
0000
,
0000
0100
0000
0000
0000
0000
0000
0000
,
0000
0010
0000
0000
0000
0000
0000
0000
,
0000
0001
0000
0000
0000
0000
0000
0000
,
0000
1000
0000
0000
0000
0000
0000
0000
,
0000
0010
0000
0000
0000
0000
0000
0000
,
0000
0001
0000
0000
0000
0000
0000
0000
,
0000
1001
0000
0000
0000
0000
0000
0000
,
0000
0010
0000
0000
0000
0000
0000
0000
,
0000
0010
0000
0000
0000
0000
0000
0000
,
0000
1000
0000
1000
0000
1000
0000
0000
,
0000
0001
0000
0000
0000
0000
0000
0000
,
0000
1000
0000
1000
0000
1000
0000
0000
,
0000
0010
0000
0010
0000
0010
0000
0000
,
0000
0001
0000
0001
0000
0001
0000
0000
,
0000
2002
0000
0000
0000
0000
0000
0000
,
3003
0000
0000
0000
;
