#TITLE:SigSig;
#SUBTITLE:(FUNKY KOTA Remix);
#ARTIST:NICONICO DOUGA Remix;
#TITLETRANSLIT:;
#SUBTITLETRANSLIT:;
#ARTISTTRANSLIT:;
#CREDIT:;
#BANNER:sigsig-banner.png;
#BACKGROUND:sigsig-background.png;
#LYRICSPATH:;
#CDTITLE:;
#MUSIC:SigSig (FUNKY KOTA Remix).mp3;
#OFFSET:0.260;
#SAMPLESTART:63.821;
#SAMPLELENGTH:12.000;
#SELECTABLE:YES;
#BPMS:0.000=368.001,4.000=368.001,5.500=184.001,140.000=368.002,142.000=184.001,148.500=368.002,151.500=184.001,158.000=368.002,160.000=184.001,167.000=368.002,169.000=184.001,195.500=368.002,198.500=184.001,199.500=736.004,205.500=184.003,265.000=736.012,283.500=368.006;
#STOPS:4.000=0.245
,4.500=0.240
,5.000=0.245
,5.500=0.082
,134.500=0.163
,143.000=0.163
,173.000=0.163
,176.500=0.163
,179.000=0.163
,180.500=0.163
,182.000=0.163
,195.500=0.245
,196.000=0.245
,199.500=0.245
,200.500=0.245
,265.000=0.285
,265.500=0.285
,272.500=0.122
;
#BGCHANGES:;

//---------------dance-single - ----------------
#NOTES:
     dance-single:
     :
     Challenge:
     13:
     0.696,0.727,0.669,0.259,0.005: // measure 1
0000
0000
0000
0000
,  // measure 2
1100
1100
2200
3300
0000
1100
0000
1000
,  // measure 3
0000
0100
0000
1000
0000
0100
0000
1000
,  // measure 4
0010
0100
0001
0000
1000
0010
0000
1000
,  // measure 5
0001
1000
0000
0010
1000
0010
0000
0100
,  // measure 6
0001
1000
0000
0100
0010
1000
0000
0100
,  // measure 7
0001
0100
0000
0001
1000
0010
0000
0100
,  // measure 8
0001
1000
0010
0100
0001
1000
0000
0100
,  // measure 9
1000
0100
0000
1000
0100
0010
0000
1000
,  // measure 10
0001
0100
0010
1000
0001
0100
0000
1000
,  // measure 11
0100
1000
0100
1000
0100
1000
0100
1000
,  // measure 12
0100
1000
0100
1000
0100
0010
0100
0010
,  // measure 13
0100
0110
0000
0110
0000
0110
0000
1001
,  // measure 14
0000
0110
0000
1001
0000
0011
0000
1100
,  // measure 15
0000
0011
0000
1100
0000
0110
0000
1001
,  // measure 16
0000
0110
0000
1000
0000
0100
0010
1000
,  // measure 17
0001
0100
0010
1000
0001
1001
0000
1001
,  // measure 18
0000
2002
0000
0000
3003
0100
0000
0010
,  // measure 19
0000
1000
0000
0001
0000
0100
0000
1000
,  // measure 20
0000
2000
0000
3000
0000
0100
0010
1000
,  // measure 21
0001
0100
0000
0010
1000
0001
0000
1000
,  // measure 22
0100
1000
0100
1000
0100
1000
0000
0100
,  // measure 23
0010
0100
0000
1000
0001
0100
0000
0010
,  // measure 24
0100
0001
1000
0000
0010
0100
0000
0001
,  // measure 25
0100
0001
0000
1000
0010
0100
0000
0100
,  // measure 26
0000
0100
0000
1000
0000
0010
0000
0100
,  // measure 27
0001
1000
0000
0100
0010
1000
0000
0001
,  // measure 28
0100
0010
1000
0000
0001
0100
0000
0010
,  // measure 29
1000
0001
0000
0100
0010
1000
0000
0010
,  // measure 30
0100
0010
0100
0010
0100
0010
0000
1000
,  // measure 31
0010
0100
0000
0001
1000
0010
0000
0001
,  // measure 32
0010
0011
0000
1000
0010
1010
0000
0110
,  // measure 33
0000
0101
0000
0110
0000
1001
0000
0011
,  // measure 34
0000
0000
0000
0000
0000
0000
0000
0000
0011
0000
0000
0000
0000
0000
0000
0000
0000
0000
0000
0000
0000
0000
0000
0000
0000
0000
0000
0000
0000
0000
0000
0000
0000
0000
0000
0000
0000
0000
0000
0000
2200
3300
0000
0000
0000
0000
0000
0000
0100
0000
0000
0000
0000
0000
0000
0000
1000
0000
0000
0000
0000
0000
0000
0000
,  // measure 35
0100
1000
1100
1100
,  // measure 36
2200
0000
0000
0000
0000
0000
0000
0000
0000
0000
0000
0000
0000
0000
0000
0000
0000
0000
0000
0000
0000
0000
0000
0000
0000
0000
0000
0000
0000
0000
0000
0000
3300
0000
0000
0000
0000
0000
0000
0000
0000
0000
0000
0000
0000
0000
0000
0000
0220
0330
0000
0000
0000
0000
0000
0000
0001
0000
0000
0000
0000
0000
0000
0000
,  // measure 37
0010
0001
0000
0010
0000
0011
0000
0110
,  // measure 38
0000
2200
0000
0000
0000
0000
0000
3300
,  // measure 39
0100
0000
1000
0010
0100
0000
0001
0000
,  // measure 40
0011
0011
0220
0000
,  // measure 41
0330
0000
0000
0000
1000
0000
0000
0000
0100
0000
1000
0000
0100
0000
0100
0010
,  // measure 42
1000
0100
0010
0000
1000
0000
0002
0000
,  // measure 43
0000
0000
0003
0000
1100
0000
1000
0010
,  // measure 44
0100
0000
0001
0011
0000
0100
0010
1000
,  // measure 45
0000
0100
0011
0000
1000
0010
0110
1000
,  // measure 46
0001
0110
0010
0100
0011
0100
0010
1000
,  // measure 47
0100
0010
1001
0100
0010
1000
0001
0100
,  // measure 48
0010
1000
0100
0010
0001
0010
0100
1000
,  // measure 49
0110
0100
0001
1000
0010
0100
0000
1100
,  // measure 50
0011
0220
0000
0000
0000
0330
0000
1100
,  // measure 51
0000
0110
0000
2002
0000
0000
0000
0000
,  // measure 52
0000
0000
0000
3003
0000
0000
0000
1100
,  // measure 53
1000
0100
0000
1000
0100
1000
0000
0100
,  // measure 54
0010
1000
0010
0100
1001
0000
0000
0100
,  // measure 55
0010
0100
0000
1000
0100
0010
0000
1000
,  // measure 56
0010
0101
1000
0010
0100
0001
0000
1000
,  // measure 57
0100
0010
0000
1000
0001
0100
0000
0010
,  // measure 58
1000
0001
0100
0010
1000
0001
0000
1000
,  // measure 59
0100
1000
0000
0100
0010
0100
0010
0100
,  // measure 60
0110
0010
1000
0100
0100
0000
0000
1000
,  // measure 61
0110
0000
0000
0100
0010
0100
0000
1000
,  // measure 62
0100
0010
0100
0001
0100
0010
0000
1000
,  // measure 63
0100
1000
0000
0100
0010
0100
0000
1000
,  // measure 64
0100
0010
0001
0010
0100
0001
0000
0100
,  // measure 65
0010
1000
0000
0001
0100
0010
0000
1000
,  // measure 66
0100
0010
1000
0001
0100
0010
1000
0001
,  // measure 67
0100
0010
1001
0110
2200
0000
0000
0000
,  // measure 68
0000
0000
0000
0000
,  // measure 69
3300
0022
0000
0000
,  // measure 70
0000
0000
0000
0000
,  // measure 71
0000
0000
0000
0000
0000
0000
0000
0033
;
