#TITLE:Several Words;
#SUBTITLE:;
#ARTIST:CAPACITY GATE;
#TITLETRANSLIT:;
#SUBTITLETRANSLIT:;
#ARTISTTRANSLIT:;
#GENRE:;
#CREDIT:;
#BANNER:Several Words.png;
#BACKGROUND:Several Words-bg.png;
#LYRICSPATH:;
#CDTITLE:;
#MUSIC:Several Words.mp3;
#OFFSET:-0.107;
#SAMPLESTART:100.050;
#SAMPLELENGTH:12.000;
#SELECTABLE:YES;
#BPMS:0.000=180.000
,164.000=90.000
,176.000=180.000
;
#STOPS:164.000=0.167,
164.500=0.167,
165.000=0.167,
165.500=0.167,
167.000=0.167,
167.500=0.167,
168.000=0.167,
168.500=0.167,
170.000=0.167,
170.500=0.167,
171.000=0.167,
171.500=0.167,
173.000=0.167,
173.500=0.167,
174.000=0.167,
174.500=0.167,
300.000=0.083,
300.500=0.083
;
#BGCHANGES:;
#KEYSOUNDS:;
#ATTACKS:;

//---------------dance-single - ----------------
#NOTES:
     dance-single:
     :
     Hard:
     15:
     0.841,1.000,0.589,0.475,0.264,548.000,67.000,54.000,0.000,0.000,0.000,0.841,1.000,0.589,0.475,0.264,548.000,67.000,54.000,0.000,0.000,0.000:
0000
0000
0000
0000
,
0000
0000
0000
0000
,
0000
0000
0000
0000
,
0000
0000
0000
0000
,
0000
0000
0000
0000
,
1100
1000
2000
3001
0011
0001
0002
0013
,
0110
0100
0200
0310
0110
0010
0020
0000
,
1030
1000
0100
0100
0010
0010
0001
0001
,
0100
0000
0010
0000
0100
0000
0010
0000
1000
0000
0000
0100
1000
0000
0010
0000
,
2000
0000
3100
0010
0100
0010
0002
0000
,
0103
0100
0010
0100
0010
0100
0020
0000
,
1030
1000
0001
0100
0010
0100
0020
0000
,
1030
1000
0100
0010
0001
0100
0010
0100
,
0101
1000
0010
0100
0010
0100
0010
0100
,
1000
1000
1000
0100
0010
0100
0010
0100
,
0001
0001
0001
0100
0010
0100
0010
1000
,
1000
0100
0010
0100
0010
0100
0010
0100
,
0110
0100
0010
0100
0010
0100
0010
0100
,
1100
0100
0010
0100
0010
0100
0001
0100
,
0110
0100
0010
0100
0001
0100
0010
0001
,
0011
0100
0010
0100
0010
0100
0001
0100
,
0110
0100
0010
0100
0010
0100
0010
0100
,
1100
0100
0010
1000
0010
0100
0010
0100
,
0110
0000
0100
0000
0010
0000
0100
0000
0010
0000
0100
0000
0010
0100
1000
0100
,
0010
0000
0100
0110
0010
0100
0010
0010
,
1000
0100
1000
0100
1000
0000
0100
0010
0100
0010
0100
0000
0010
0000
0010
0001
,
0010
0001
0010
0000
0001
0010
0001
0010
0001
0000
1000
0100
1000
0100
1000
0000
,
0100
0010
0100
0010
0100
0000
0100
0000
0010
0000
0010
0000
1000
0000
1000
0000
,
1000
0001
0001
0001
0100
0100
0100
0010
,
0010
0100
0010
0100
0010
0000
1000
0100
1000
0100
1000
0000
0001
0000
0001
0010
,
0001
0010
0001
0000
0100
0010
0100
0010
0100
0000
0100
0000
0010
0000
0010
0000
,
1000
1000
1000
0001
0001
0001
0100
0100
,
0010
0010
0010
1000
1000
1000
0001
0001
,
0100
0010
0100
0010
0100
0000
0010
0100
0010
0100
0010
0000
1000
0000
1000
0100
,
1000
0100
0001
0000
0001
0000
0001
0000
0001
0000
0001
0000
0001
0000
0001
0000
,
0100
0010
0100
0010
0100
0000
0010
0100
0010
0100
0010
0000
1000
0000
1000
0100
,
1000
0100
0001
0000
0001
0000
0100
0000
0100
0000
0100
0000
0010
0000
0010
0000
,
1000
0100
1000
0100
1000
0000
0001
0010
0001
0010
0001
0000
0100
0000
0100
0010
,
0100
0010
0100
0000
0010
0000
0010
0000
1000
0000
1000
0000
1000
0000
1000
0000
,
0001
0001
0001
0100
0100
0100
0010
0010
,
0010
1000
1000
0100
0100
0010
0010
0010
,
2002
3003
0220
0330
0202
0303
0220
0330
1100
0000
0110
0000
0022
0033
0220
0330
,
2200
3300
0220
0330
0011
0000
1100
0000
0220
0330
2002
3003
0220
0330
2200
3300
,
1100
0000
0110
0000
0022
0033
2002
3003
0220
0330
0022
0033
0110
0010
0210
0000
,
0310
0000
0000
0011
0000
0000
0101
0000
,
0000
1010
0000
0000
0110
0000
1000
0000
,
1001
0000
0000
0100
0000
0000
1010
0000
,
0000
0101
0000
0000
1010
0000
0100
0000
,
1001
1000
1000
1000
1000
1000
1000
1000
,
1001
1000
1000
1000
1000
1000
1000
1000
,
0110
0100
0100
0100
0110
0010
0010
0010
,
0011
0000
0000
0011
0000
0000
0011
0000
0000
0011
0000
0000
0011
0000
0011
0000
,
0011
0000
0000
0100
0000
0000
0110
0000
,
0001
0100
0000
0000
0110
0000
0110
0000
,
1010
0000
0000
0110
0000
0000
0110
0000
,
1000
0000
0100
0000
0010
0000
0001
0000
0010
0000
0100
0000
1000
0100
1000
0100
,
1000
0010
0100
0010
0100
0010
1000
0100
,
0010
0000
0100
0010
0000
0000
0100
0010
0002
0000
0000
0000
0000
0000
1003
0100
,
0010
0000
0010
0000
0100
0010
0100
0000
0100
0000
0010
0000
0100
0000
0010
0000
,
0200
0320
2030
3002
,
0103
0000
0010
0100
0000
0010
0100
0010
,
0100
0000
0010
0000
0100
0010
0100
0000
0000
0000
1000
0000
0010
0000
0100
0000
,
0010
0000
0000
0000
0100
1000
0010
0000
0000
0000
1000
0100
0010
0000
0000
0000
,
1000
0000
0100
0000
0010
0000
0001
0000
0100
0000
0001
0100
0101
0000
0000
0000
,
0100
0010
0100
0010
0100
0001
0100
0010
,
0100
0000
0010
0000
1000
0000
0010
0100
2000
0000
0000
0000
0000
0000
3010
0100
,
0010
0100
0001
0010
0110
0100
0010
0100
,
0002
2003
3020
0230
,
0310
0000
0000
0010
0000
0000
0010
0000
0000
0000
0100
0000
0001
0000
0100
0000
,
0010
0100
0010
0100
0010
1000
0100
0010
,
0001
0000
0100
0000
0010
0000
0100
0010
0002
0000
0000
0000
2003
0000
0000
0000
,
3010
0000
0100
0010
0000
0000
0020
0000
0000
0000
0000
0000
0000
0000
0030
0000
,
1000
0001
0100
0010
0100
0010
0100
0010
,
1000
0000
1000
0001
1000
0000
1000
0000
0100
0000
0010
0000
0100
0000
0010
0000
,
1000
0100
0010
0001
0010
0100
1000
0010
,
0110
1001
0110
0000
0000
0000
0000
0000
;

//---------------dance-single - ----------------
#NOTES:
     dance-single:
     :
     Medium:
     14:
     0.696,1.000,0.194,0.422,0.224,484.000,22.000,48.000,0.000,0.000,0.000,0.696,1.000,0.194,0.422,0.224,484.000,22.000,48.000,0.000,0.000,0.000:
0000
0000
0000
0000
,
0000
0000
0000
0000
,
0000
0000
0000
0000
,
0000
0000
0000
0000
,
0000
0000
0000
0000
,
1000
1000
1000
0000
0001
0001
0001
0010
,
0100
0100
0100
0000
0010
0010
0010
0000
,
1000
1000
0100
0100
0010
0010
0001
0000
,
0100
0010
0100
0010
1000
0000
1000
0010
,
2000
0000
3100
0000
0100
0010
0002
0000
,
0103
0000
0010
0000
0010
0100
0020
0000
,
1030
0000
0001
0000
0010
0100
0020
0000
,
1030
0000
0100
0010
0001
0000
0010
0100
,
0101
0000
0010
0100
0010
0100
0010
0000
,
1000
1000
1000
0100
0010
0100
0010
0000
,
0001
0001
0001
0100
0010
0100
0010
0000
,
1000
0100
0010
0100
0010
0100
0010
0000
,
0210
0000
0310
0100
0010
0100
0020
0000
,
0130
0000
0010
0100
0010
0100
0002
0000
,
0103
0100
0010
0100
0001
0100
0020
0000
,
0031
0100
0010
0100
0010
0100
0020
0000
,
0130
0100
0010
0100
0010
0100
0020
0000
,
1030
0100
0010
1000
0010
0100
0020
0000
,
0130
0000
0100
0000
0010
0000
0100
0000
0010
0000
0100
0000
0010
0000
1000
0010
,
1000
0000
0100
0110
0010
0100
0010
0010
,
1000
0100
1000
0100
1000
0000
0100
0010
0100
0010
0100
0000
0000
0000
0010
0001
,
0010
0001
0010
0000
0001
0010
0001
0010
0001
0000
1000
0100
1000
0100
1000
0000
,
0100
0010
0100
0010
0100
0000
0100
0000
0010
0000
0010
0000
0000
0000
1000
0000
,
1000
1000
0001
0001
0001
0000
0100
0010
,
0010
0100
0010
0100
0010
0000
1000
0100
1000
0100
1000
0000
0000
0000
0001
0010
,
0001
0010
0001
0000
0100
0010
0100
0010
0100
0000
0100
0000
0010
0000
0010
0000
,
0000
1000
1000
0001
0001
0000
0100
0100
,
0010
0010
0010
0000
1000
1000
0001
0001
,
0100
0010
0100
0010
0100
0000
0010
0100
0010
0100
0010
0000
0000
0000
1000
0100
,
1000
0100
1000
0000
0001
0000
0001
0000
0000
0000
0000
0000
0001
0000
0001
0000
,
0100
0010
0100
0010
0100
0000
0010
0100
0010
0100
0010
0000
0000
0000
0001
0010
,
0001
0010
0001
0000
0001
0000
0100
0000
0100
0000
0100
0000
0010
0000
0000
0000
,
1000
0100
1000
0100
1000
0000
0001
0010
0001
0010
0001
0000
0000
0000
0100
0010
,
0100
0010
0100
0000
0010
0000
0010
0000
1000
0000
1000
0000
1000
0000
1000
0000
,
0000
0001
0001
0100
0100
0100
0010
0010
,
0000
1000
1000
0100
0100
0010
0010
0010
,
2000
3200
0302
0023
0230
0320
0032
0023
,
2030
3020
0032
0203
0320
0032
0203
2300
,
3002
0203
0302
2003
3200
0302
0023
2030
,
3010
0000
0000
0011
0000
0000
0101
0000
,
0000
1010
0000
0000
0110
0000
1000
0000
,
1001
0000
0000
0100
0000
0000
1010
0000
,
0000
0101
0000
0000
1010
0000
0100
0000
,
1001
0000
1000
1000
1000
0000
1000
1000
,
1001
0000
1000
1000
1000
0000
1000
1000
,
1010
0000
0100
0100
0110
0000
0010
0010
,
0001
0000
0000
0010
0000
0000
0100
0000
0000
1000
0000
0000
0100
0000
0010
0000
,
0001
0000
0000
0100
0000
0000
0110
0000
,
0000
0101
0000
0000
0110
0000
0110
0000
,
1010
0000
0000
0110
0000
0000
0110
0000
,
1000
0000
0100
0000
0010
0000
0001
0000
0010
0000
0100
0000
1000
0100
1000
0100
,
1000
0010
0100
0010
0100
0010
1000
0100
,
0010
0000
0100
0000
0000
0000
0100
0000
0002
0000
0000
0000
0000
0000
1003
0100
,
1000
0010
0100
0100
0100
0010
0100
0010
,
0200
0320
2030
3002
,
0103
0000
0000
0010
0000
0000
0100
0000
0000
0000
0010
0000
0100
0000
0010
0000
,
0100
0010
0100
0100
0000
1000
0010
0100
,
0010
0000
0000
0000
1000
0100
1000
0000
0000
0000
0100
0010
0100
0000
0000
0000
,
1000
0100
0010
0001
0100
0000
0001
0000
,
0100
0010
0100
0000
0100
0001
0100
0010
,
0100
0000
0010
0000
1000
0000
0010
0000
2000
0000
0000
0000
0000
0000
3010
0100
,
0010
0000
0100
0000
0001
0000
0010
0000
0010
0000
0000
0010
0000
0000
0100
0000
,
0002
2003
3020
0230
,
0310
0000
0000
0010
0000
0000
0010
0000
0000
0000
0100
0000
0001
0000
0100
0000
,
0010
0100
0010
0100
0000
1000
0100
0010
,
0001
0100
0010
0100
0002
0000
2003
0000
,
3010
0000
0000
0010
0000
0000
0020
0000
0000
0000
0000
0000
0000
0000
0030
0000
,
1000
0001
0100
0010
0000
0010
0100
0010
,
1000
1000
1000
1000
0000
0010
0100
0010
,
1000
0100
0010
0001
0000
0100
1000
0010
,
0100
1000
0010
0000
0000
0000
0000
0000
;

//---------------dance-single - ----------------
#NOTES:
     dance-single:
     :
     Beginner:
     6:
     0.171,0.530,0.035,0.114,0.000,119.000,4.000,13.000,0.000,0.000,0.000,0.171,0.530,0.035,0.114,0.000,119.000,4.000,13.000,0.000,0.000,0.000:
0000
0000
0000
0000
,
0000
0000
0000
0000
,
0000
0000
0000
0000
,
0000
0000
0000
0000
,
0000
0000
0000
0000
,
1000
0000
0000
0000
,
0001
0000
0000
0000
,
0100
0000
0000
0000
,
1000
0000
0000
0000
,
0002
0000
0000
0000
,
0003
0000
0000
0000
,
2000
0000
0000
0000
,
3000
0000
0000
0000
,
0200
0000
0000
0000
,
0300
0000
0000
0000
,
0020
0000
0000
0000
,
0030
0000
0000
0000
,
0002
0000
0000
0000
,
0003
0000
0000
0000
,
0200
0000
0000
0000
,
0300
0000
0000
0000
,
0020
0000
0000
0000
,
0030
0000
0000
0000
,
2000
0000
0000
0000
,
3000
0000
0000
0000
,
0001
0000
0001
0000
,
0000
0000
0000
0000
,
1000
0000
1000
0000
,
1000
0000
0000
0000
,
0001
0000
0001
0000
,
0001
0000
0100
0000
,
0100
0000
0000
0000
,
0001
0000
0001
0000
,
1000
0000
0000
0000
,
0001
1000
0001
0000
,
1000
0000
0000
0000
,
1000
0000
1000
0000
,
1001
0000
0000
0000
,
0010
0000
0010
0000
,
0200
0000
0000
0000
,
0300
0000
0000
0000
,
1000
1000
1000
1000
0010
0010
0010
0010
,
0010
0010
0100
0100
0100
0100
0100
0100
,
0001
0001
0001
0001
0001
0001
1000
0010
,
1000
0000
0000
1000
0000
0000
1000
0000
,
0000
1000
0000
0000
0000
0000
0000
0000
,
0100
0000
0000
0100
0000
0000
0100
0000
,
0000
0100
0000
0000
0000
0000
0000
0000
,
0010
0000
0000
0010
0000
0000
0010
0000
,
0000
0010
0000
0000
0000
0000
0000
0000
,
0001
0000
0000
0001
0000
0000
0001
0000
,
0000
0001
0000
0000
0000
0000
0000
0000
,
1000
0000
0000
0000
,
0100
0000
0000
0000
,
0200
0000
0000
0000
,
0020
0000
0000
0000
,
0330
0000
1000
0000
,
0010
0010
0020
0000
,
0030
0000
0100
0000
,
1000
0000
0100
0000
,
1001
0000
0100
0000
,
0010
0000
1000
0000
,
0001
0000
0001
0000
,
1000
0000
0100
0000
,
1001
0000
0100
0000
,
0010
0000
0200
0000
,
0310
0000
0100
0000
,
1000
0000
1000
0000
,
1001
0000
0010
0000
,
0001
0000
0010
0000
,
0100
0000
1000
0000
,
0100
0000
0010
0000
,
0100
0000
0100
0000
,
0010
0000
0010
0000
,
1000
0000
0100
0000
,
0100
0100
0100
0000
0000
0000
0000
0000
;

//---------------dance-single - ----------------
#NOTES:
     dance-single:
     :
     Easy:
     9:
     0.420,0.530,0.026,0.378,0.000,288.000,3.000,43.000,0.000,0.000,0.000,0.420,0.530,0.026,0.378,0.000,288.000,3.000,43.000,0.000,0.000,0.000:
0000
0000
0000
0000
,
0000
0000
0000
0000
,
0000
0000
0000
0000
,
0000
0000
0000
0000
,
0000
0000
0000
0000
,
1001
1000
1000
0020
,
0130
0100
0010
2000
,
3001
0100
0010
0020
,
0130
0010
0100
0001
,
0002
1003
0010
0100
,
0020
1030
0002
0103
,
0020
1030
0100
0010
,
2000
3010
0100
0010
,
0200
0310
0001
0010
,
0002
0103
0020
1030
,
0020
0130
1000
0100
,
0020
1030
0100
0010
,
2000
3010
0100
0100
,
0020
0130
0002
0103
,
0020
1030
0100
0010
,
2000
3010
0100
0010
,
0200
0310
0001
0010
,
0200
0310
2000
3001
,
0200
0310
0001
0020
,
1030
0001
0100
0010
,
1000
0001
1000
0010
0100
0010
0000
1000
,
0001
1000
0010
0100
0010
0100
0000
0000
,
1000
0001
1000
0001
1000
0001
0000
0000
,
0100
0010
0100
0010
0100
0010
0000
0000
,
1000
0001
1000
0001
1000
0001
0000
0000
,
0100
0010
0100
0010
0100
0010
0000
0000
,
1000
0001
1000
0001
1000
0001
0000
0000
,
0100
0010
0100
0010
0100
0010
0000
0000
,
1000
0100
1000
0100
1000
0000
0000
0001
,
0010
0001
0010
0001
0000
0000
0000
0000
,
0100
0010
0100
0010
0000
0000
1000
0100
,
0010
0001
0000
0000
0001
0010
0100
1000
,
0000
0001
0100
0001
,
1000
0100
0010
0001
,
2000
0000
0000
0000
,
0002
0000
0000
0000
0000
0000
0000
3003
,
1000
0100
0010
0001
0010
0100
1000
0100
,
0010
0001
0010
0100
1000
0100
0010
0001
,
0010
0100
1000
0100
0010
0001
0010
0100
,
1000
0000
0000
1000
0000
0000
1000
0000
,
0000
1000
0000
0000
1000
0000
1000
0000
,
0100
0000
0000
0100
0000
0000
0100
0000
,
0000
0100
0000
0000
0100
0000
0100
0000
,
0010
0000
0000
0010
0000
0000
0010
0000
,
0000
0010
0000
0000
0010
0000
0010
0000
,
0001
0000
0000
0001
0000
0000
0001
0000
,
0000
0001
0000
0000
0001
0000
0001
0000
,
0020
0000
0000
0230
0000
0000
0320
0000
,
0000
2030
0000
0000
3002
0000
0203
0000
,
0320
0000
0000
2030
0000
0000
3200
0000
,
2000
0300
0000
0000
0000
0000
0000
0000
0000
0000
0000
0000
0000
0000
0000
0000
0000
0000
0000
0000
0000
0000
0000
0000
0000
0000
0000
0000
0000
0000
0000
0000
0000
0000
0000
0000
0000
0000
0000
0000
0000
0000
0000
0000
0000
0000
0000
0000
0000
0000
0000
0000
0000
0000
0000
0000
0000
0000
0000
0000
0000
0000
0000
0000
0000
0000
0000
0000
0000
0000
0000
0000
0000
0000
0000
0000
0000
0000
0000
0000
0000
0000
0000
0000
0000
0000
0000
0000
0000
0000
0000
0000
0000
0000
0000
0000
0000
0000
0000
0000
0000
0000
0000
0000
0000
0000
0000
0000
0000
0000
0000
0000
0000
0000
0000
0000
0000
0000
0000
0000
0000
0000
0000
0000
0000
0000
0000
0000
0000
0000
0000
0000
0000
0000
0000
0000
0000
0000
0000
0000
0000
0000
0000
0000
0000
0000
0000
0000
0000
0000
0000
0000
0000
0000
0000
0000
0000
0000
0000
0000
0000
0000
0000
0000
0000
0000
0000
0000
0000
0000
0000
0000
0000
0000
0000
0000
0000
0000
0000
0000
0000
0000
0000
0000
0000
0000
0000
0000
0000
0000
0000
0000
,
3001
0010
0100
0010
,
1000
0010
2000
3000
,
0010
0100
0010
0100
,
0002
2003
3020
0230
,
0301
0010
0010
0100
,
0001
1000
1000
0010
,
0100
0010
1000
1000
,
0100
0010
0100
0001
,
1001
0100
0010
0100
,
1000
0100
2000
0000
,
3001
0100
0010
0100
,
0010
0010
0001
0001
,
1001
0100
0010
0100
,
1000
0100
0010
1000
,
0010
0010
1000
1000
,
0002
0000
0000
0000
,
1003
0000
0100
0100
,
0020
0000
0000
0030
,
1000
0001
1000
0001
,
1000
0100
0001
0000
0000
0000
0000
0000
;
