#TITLE:Satu Nusa Satu Bangsa (From Merah Putih Vocaloid);
#SUBTITLE:[Remix] Indonesian Song;
#ARTIST:PG.2125 feat. Megurine Luka;
#TITLETRANSLIT:;
#SUBTITLETRANSLIT:;
#ARTISTTRANSLIT:;
#GENRE:;
#CREDIT:;
#BANNER:Satu Nusa Satu Bangsa (From Merah Putih Vocaloid).png;
#BACKGROUND:Satu Nusa Satu Bangsa (From Merah Putih Vocaloid)-bg.png;
#LYRICSPATH:;
#CDTITLE:;
#MUSIC:Satu Nusa Satu Bangsa (From Merah Putih Vocaloid).mp3;
#OFFSET:0.000;
#SAMPLESTART:100.050;
#SAMPLELENGTH:12.000;
#SELECTABLE:YES;
#BPMS:0.000=145.020
;
#STOPS:;
#BGCHANGES:;
#KEYSOUNDS:;
#ATTACKS:;

//---------------dance-single - ----------------
#NOTES:
     dance-single:
     :
     Hard:
     14:
     0.577,0.558,0.622,0.725,0.000,390.000,90.000,105.000,0.000,0.000,0.000,0.577,0.558,0.622,0.725,0.000,390.000,90.000,105.000,0.000,0.000,0.000: // measure 0
0000
0000
0000
0000
,  // measure 1
0000
0000
0000
0000
,  // measure 2
0000
0000
0000
0000
,  // measure 3
0000
0000
0000
0000
,  // measure 4
1100
0000
0100
0000
1000
0100
0010
0101
,  // measure 5
1000
0010
0100
0010
1000
0100
0010
0100
,  // measure 6
0110
1000
0100
0010
0100
0010
0001
0011
,  // measure 7
0100
0010
0100
0010
1000
0100
0010
0001
,  // measure 8
2020
0000
0000
0000
0000
3030
0110
0000
,  // measure 9
0001
0010
0001
0000
0010
0100
0010
0000
,  // measure 10
2002
0000
0000
0000
0000
3003
0110
0000
,  // measure 11
1000
0100
0010
0001
0010
0100
0010
0001
,  // measure 12
2002
0000
0000
3003
0202
0000
0000
0303
,  // measure 13
2020
0000
0000
3030
2200
0000
0000
3300
,  // measure 14
0022
0000
0000
0033
0220
0000
0000
0330
,  // measure 15
2002
0000
0000
3000
1003
0100
0010
0001
,  // measure 16
2002
0000
0000
0000
0000
3003
0100
1000
,  // measure 17
0100
0010
1000
0010
0100
0001
1000
0010
,  // measure 18
2020
0000
0000
0000
0000
3030
0110
0000
,  // measure 19
1000
0100
0010
0100
0010
0100
0001
0100
,  // measure 20
2002
0000
0000
3003
0202
0000
0000
0303
,  // measure 21
2020
0000
0000
3030
2200
0000
0000
3300
,  // measure 22
0022
0000
0000
0033
2002
0000
0000
3003
,  // measure 23
0220
0000
0000
0000
0000
0330
1000
0100
,  // measure 24
2020
0000
3030
0001
0100
0010
1000
0001
,  // measure 25
0100
1000
0100
0010
0100
0010
0100
0010
,  // measure 26
0022
0000
0033
0100
1000
0100
0010
1000
,  // measure 27
1001
0100
0010
1000
0100
0010
0001
0010
,  // measure 28
0022
0000
0000
0033
0100
0010
1000
0010
,  // measure 29
0100
0010
1000
0100
0010
0100
0010
0100
,  // measure 30
0220
0000
0330
0000
1000
0100
0010
1000
,  // measure 31
0001
0100
0010
1000
0100
0010
0100
0010
,  // measure 32
0022
0000
0000
0000
0000
0033
1000
0100
,  // measure 33
0010
1000
0001
0100
0010
1000
0100
0010
,  // measure 34
0220
0000
0000
0000
0000
0330
0001
0100
,  // measure 35
0010
1000
0100
1000
0100
0010
0100
0010
,  // measure 36
2002
0000
0000
3003
0202
0000
0000
0300
,  // measure 37
0020
0000
0000
0033
0202
0000
0000
0303
,  // measure 38
2002
0000
0000
3003
2020
0000
0000
3030
,  // measure 39
2200
0000
0000
3300
1000
0100
0010
1000
,  // measure 40
1001
0000
0110
1000
0010
0100
0110
0000
,  // measure 41
0100
0010
0110
0000
1000
0100
0010
0100
,  // measure 42
1001
0000
0110
0000
1000
0100
0110
1000
,  // measure 43
0110
0001
0010
0100
0010
0100
0010
1000
,  // measure 44
2000
0000
3200
0000
,  // measure 45
0320
0000
0032
0000
,  // measure 46
0023
0000
0230
0000
,  // measure 47
2300
0000
0000
3000
1000
0100
0010
1000
,  // measure 48
1001
0000
0110
1000
0010
0100
0110
0000
,  // measure 49
0010
0001
0011
0100
0010
0100
0110
1000
,  // measure 50
0110
0000
1100
0000
0100
0100
0110
1000
,  // measure 51
0100
0010
0110
1000
0001
0100
0010
0001
,  // measure 52
0022
0000
0000
0033
0220
0000
0000
0330
,  // measure 53
2020
0000
0000
3030
0220
0000
0000
0330
,  // measure 54
2200
0000
0000
3300
0022
0000
0000
0033
,  // measure 55
2002
0000
0000
3003
1000
0100
0010
1000
,  // measure 56
1001
0000
0110
1000
0010
0100
0110
0001
,  // measure 57
0100
0010
0100
0001
1000
0010
0100
0001
,  // measure 58
0110
0000
0110
0000
1000
0100
0010
0110
,  // measure 59
1000
0001
0100
0010
0100
0001
0010
0100
,  // measure 60
0110
0000
0110
0000
1000
0100
0010
0110
,  // measure 61
1000
0001
0100
0010
1000
0001
0100
0010
,  // measure 62
1001
0000
0110
0000
1000
0100
0010
1010
,  // measure 63
0100
0001
1000
0010
0100
0001
0010
0100
,  // measure 64
2002
0000
0000
0000
0000
3003
0110
0000
,  // measure 65
0001
1000
0010
0100
0010
1000
0100
0010
,  // measure 66
2002
0000
0000
0000
0000
3003
0110
1000
,  // measure 67
0100
0010
0100
0001
0100
0010
1000
0100
,  // measure 68
2200
0000
0000
3300
0022
0000
0000
0033
,  // measure 69
0022
0000
0000
0033
2200
0000
0000
3300
,  // measure 70
0022
0000
0000
0033
2200
0000
0000
3300
,  // measure 71
0022
0000
0000
0000
0000
0033
0110
1001
,  // measure 72
1001
0000
0100
0010
0100
0010
1000
0000
,  // measure 73
0100
0010
0100
0010
0100
0001
0100
0000
,  // measure 74
0010
0100
0010
0100
0010
0100
0001
0000
,  // measure 75
0010
0100
0010
0001
1000
0010
0100
0010
,  // measure 76
1001
0100
0010
1000
0010
0100
0010
0100
,  // measure 77
0001
1000
0010
0100
0010
1000
0100
0010
,  // measure 78
2000
0000
3002
0000
,  // measure 79
2003
0000
0000
0000
0000
3000
0100
0010
,  // measure 80
2002
0000
0000
0000
,  // measure 81
0000
0000
0000
0000
,  // measure 82
0000
0000
0000
0000
,  // measure 83
0000
0000
0000
0000
,  // measure 84
0000
0000
0000
0000
,  // measure 85
3003
0000
0000
0000
;

//---------------dance-single - ----------------
#NOTES:
     dance-single:
     :
     Medium:
     11:
     0.400,0.470,0.352,0.297,0.000,310.000,51.000,43.000,0.000,1.000,0.000,0.400,0.470,0.352,0.297,0.000,310.000,51.000,43.000,0.000,1.000,0.000:
0000
0000
0000
0000
,
0000
0000
0000
0000
,
0000
0000
0000
0000
,
0000
0000
0000
0000
,
1100
0000
0100
0000
1000
0100
0010
0100
,
0000
0010
0000
0100
0001
1000
0010
0000
,
0100
0000
0100
0000
1000
0100
0010
0101
,
0000
0100
0000
0100
1000
0100
0010
0000
,
0002
0000
0000
1003
,
0020
0000
1030
0100
,
2000
0100
0100
3100
,
0020
0000
2030
0000
,
3010
0200
0310
2000
,
3100
0020
1030
0002
,
0203
0310
2000
3010
,
0200
0301
2000
3010
,
0100
0010
1000
0100
,
0010
0000
1000
0000
0100
0010
0100
0000
,
0001
0000
0010
0000
0001
1000
0010
0000
,
0100
0000
0010
0000
1000
0010
0100
0000
,
0002
0003
2000
3000
,
0200
0300
0020
0030
,
0002
0003
0020
0030
,
0200
0000
0300
0000
1000
0100
0010
1000
,
1001
0000
0110
0000
1000
0100
0010
0110
,
1000
0100
0010
0000
0100
0000
0001
0000
,
1001
0000
1001
0000
0100
0010
1000
1001
,
0000
0100
0010
0000
0100
0010
1000
0000
,
1001
0000
1001
0000
0100
0010
0100
1001
,
0000
0100
0000
0010
0100
0000
0010
0000
,
1001
0000
1001
0000
0100
0010
1000
1001
,
0000
0100
0010
0000
0100
0010
0001
0000
,
1001
0010
0001
0011
,
1000
1100
0100
0110
,
1000
1001
0100
0110
,
1000
1100
1000
1001
,
1000
0100
0100
0100
,
0010
0010
0010
0010
,
0001
0001
0001
0001
,
0010
1000
0100
0010
,
1001
0100
1000
0100
,
0010
1000
0010
0100
,
1001
0110
1000
1100
,
0100
0110
0010
0011
,
1000
0001
0100
0010
,
1000
0100
0010
1000
,
0001
0010
0001
0011
,
0010
0000
1000
0000
1000
0100
0010
0000
,
0101
0000
0110
0000
1000
0100
0110
0000
,
1000
0000
0110
0000
0001
0010
0101
0000
,
0100
0000
1110
0000
1000
0100
0110
0000
,
1000
0000
0110
0000
1000
0100
0110
0000
,
0001
0010
0110
0000
0100
0001
0101
0000
,
1000
0010
1010
0000
0100
0010
0110
0000
,
0001
0010
0011
0000
1000
0100
1100
0000
,
1000
0010
1010
0000
0100
0001
0101
0000
,
1010
0000
0100
0000
1000
0010
0100
0010
,
0000
1000
0010
0000
0100
0000
0010
0000
,
0010
0000
1000
0000
0100
1000
0100
0010
,
0000
0100
0010
0000
0100
0000
0001
0000
,
1001
0000
0100
0000
0010
1000
0010
1000
,
0000
0010
0100
0000
0001
0000
0001
0000
,
1000
0000
0010
0000
0100
0001
0100
0001
,
0000
1000
0010
0000
1000
0100
0010
0000
,
1001
0100
0010
0010
,
0001
0001
0010
1000
,
0002
0003
1000
0010
,
0100
0001
1000
0010
,
2000
3000
0002
0003
,
0200
0300
0020
0030
,
2000
3000
0020
0030
,
2000
0000
3000
0000
0100
0010
1000
0000
,
0002
0003
2000
3000
,
0020
0030
0200
0300
,
0020
0030
2000
3000
,
0002
0003
2000
3000
,
0220
0000
0000
0000
0000
0000
0000
0330
,
2000
0000
0000
0000
,
3002
0000
0000
0000
,
2000
0000
0000
3003
,
2002
0000
0000
0000
,
0000
0000
0000
0000
,
0000
0000
0000
0000
,
0000
0000
0000
0000
,
0000
0000
0000
0000
,
3003
0000
0000
0000
;

//---------------dance-single - ----------------
#NOTES:
     dance-single:
     :
     Easy:
     7:
     0.314,0.294,0.131,0.180,0.000,273.000,19.000,26.000,0.000,0.000,0.000,0.314,0.294,0.131,0.180,0.000,273.000,19.000,26.000,0.000,0.000,0.000:
0000
0000
0000
0000
,
0000
0000
0000
0000
,
0000
0000
0000
0000
,
0000
0000
0000
0000
,
1100
0100
1000
0100
,
0010
0100
0010
0001
,
1001
0100
0010
0100
,
0010
0100
0001
1000
,
1001
0100
0100
0100
,
0000
0001
0001
0001
,
0000
1000
0010
0100
,
0010
1000
0100
0010
,
1001
0100
0010
1000
,
0100
0010
1000
0100
,
0010
0010
0001
0001
,
0001
0100
0010
0110
,
1001
0100
0010
1000
,
0100
0010
0001
0010
,
1001
0110
1000
0100
,
0010
0001
0010
1000
,
1001
0100
0010
1000
,
0110
1000
0001
1000
,
1001
0100
0010
0100
,
1001
0100
1000
0100
,
1010
0100
0001
0100
,
0010
0100
0010
0100
,
1000
0100
0010
0001
,
0010
0100
0010
0100
,
1001
0100
0100
0100
,
1000
0010
0100
0010
,
1000
0010
0100
0001
,
1000
0100
0010
0001
,
1000
1000
1000
1000
,
0001
0001
0001
0001
,
0100
0100
0100
0100
,
0010
0010
0010
0010
,
1000
0001
0100
0010
,
1000
0100
0010
0001
,
0100
1000
0010
0100
,
0001
1000
0100
1010
,
0100
1000
0100
0010
,
0100
0001
1000
0010
,
0100
1000
0100
0010
,
1000
0010
0100
0001
,
2000
3000
0002
0003
,
0200
0300
0020
0030
,
2000
3000
0001
1000
,
0002
0000
0000
0000
,
0103
0100
1000
0100
,
0010
0010
0010
0010
,
2000
0000
3000
0001
,
0001
0100
0010
0100
,
0020
0030
0200
0300
,
2000
3000
0200
0300
,
0010
0001
0010
0001
,
2000
0000
0000
0000
,
3001
0100
0010
0100
,
0010
1000
0010
0000
,
1000
0100
0010
0100
,
0001
0100
0100
0010
,
1001
0100
0010
1000
,
0001
1000
0100
0010
,
0001
1000
0010
0100
,
0010
1000
0100
0010
,
1001
0100
1000
0100
,
0010
0001
0010
0001
,
2000
0000
3000
0001
,
0100
0010
1000
0100
,
2000
3000
0002
0003
,
0200
0300
0020
0030
,
2000
3000
0002
0003
,
0200
0300
1000
0100
,
0100
1000
0100
0010
,
1000
0100
0010
1000
,
0002
0003
2000
3000
,
0020
0030
0100
1000
,
0100
0010
1000
0001
,
0100
0020
1030
0100
,
1000
0100
0010
0001
,
1000
0010
0100
1001
,
2002
0000
0000
0000
,
0000
0000
0000
0000
,
0000
0000
0000
0000
,
0000
0000
0000
0000
,
0000
0000
0000
0000
,
3003
0000
0000
0000
;

//---------------dance-single - ----------------
#NOTES:
     dance-single:
     :
     Beginner:
     4:
     0.125,0.147,0.076,0.014,0.000,114.000,11.000,2.000,0.000,0.000,0.000,0.125,0.147,0.076,0.014,0.000,114.000,11.000,2.000,0.000,0.000,0.000:
0000
0000
0000
0000
,
0000
0000
0000
0000
,
0000
0000
0000
0000
,
0000
0000
0000
0000
,
1001
0000
0000
0000
,
0010
0010
0010
0000
,
1001
0000
0000
0000
,
0001
0000
0000
0000
,
1000
0000
0000
0000
,
0010
0000
0000
0000
,
0001
0000
0000
0000
,
0010
0000
1000
0000
,
0010
0000
0001
0000
,
1000
0000
0100
0000
,
0010
0000
0001
0000
,
0100
0000
1000
0000
,
1001
0000
0110
0000
,
1000
0000
0000
0000
,
1001
0000
0000
0000
,
0001
0000
1000
0000
,
1001
0000
0000
0000
,
0010
0000
0000
0000
,
0100
0000
0000
0000
,
0010
0000
0000
0000
,
1001
0000
0000
0000
,
1000
0000
0001
0000
,
1000
0000
0100
0000
,
0010
0000
0000
0000
,
1001
0000
0000
0000
,
1000
0000
0100
0000
,
0010
0000
0001
0000
,
1000
0000
1000
0001
,
0000
0000
0000
1000
,
0000
1000
0000
0000
,
1000
0000
0000
0001
,
0000
1000
0001
0000
,
1000
0000
0000
0000
,
0010
0000
0000
0000
,
0100
0000
0000
0000
,
0010
0000
0000
0000
,
0001
0000
0000
0000
,
1000
0000
0000
0000
,
0010
0000
0000
0000
,
0001
0001
0001
0000
,
1000
0000
0000
0000
,
0100
0000
0000
0000
,
0001
0000
0000
0000
,
0010
0000
0000
0000
,
1000
0000
0000
0000
,
0001
0001
0001
0000
,
1000
0000
0000
0000
,
1000
1000
1000
0000
,
0010
0000
0100
0000
,
0000
0000
0001
0000
,
1000
0000
0000
0000
,
0010
0000
0000
0000
,
1000
0000
0000
0000
,
0001
0000
0100
0000
,
1000
0000
0000
0000
,
0001
0000
0000
0000
,
1000
0000
0000
0000
,
0100
0000
0010
0000
,
0001
0000
0000
0000
,
1000
0000
0000
0000
,
0001
0000
0000
0000
,
0010
0000
0100
0000
,
0001
0000
0000
0000
,
0100
0000
1000
0000
,
0010
0000
0000
0000
,
0001
0000
1000
0000
,
0100
0000
0010
0000
,
0100
0000
0001
0000
,
1001
0000
0000
0000
,
0100
0000
1000
0000
,
0001
0000
0100
0000
,
0010
0000
0000
0000
,
1001
0000
0100
0000
,
0010
0000
1000
0000
,
0001
0000
1000
0000
,
0010
0000
0100
0000
,
2002
0000
0000
0000
,
0000
0000
0000
0000
,
0000
0000
0000
0000
,
0000
0000
0000
0000
,
0000
0000
0000
0000
,
3003
0000
0000
0000
;
