#TITLE:SUPER STREAM;
#SUBTITLE:IS ~Infinite Stratos~ Opening Theme;
#ARTIST:Infinite Stratos Girls;
#TITLETRANSLIT:;
#SUBTITLETRANSLIT:;
#ARTISTTRANSLIT:;
#GENRE:;
#CREDIT:;
#BANNER:SUPER STREAM.png;
#BACKGROUND:SUPER STREAM-bg.png;
#LYRICSPATH:SUPER STREAM.lrc;
#CDTITLE:;
#MUSIC:SUPER STREAM.mp3;
#OFFSET:-0.067;
#SAMPLESTART:55.981;
#SAMPLELENGTH:12.000;
#SELECTABLE:YES;
#BPMS:0.000=180.000
;
#STOPS:127.500=0.167
;
#BGCHANGES:;
#KEYSOUNDS:;
#ATTACKS:;

//---------------dance-single - ----------------
#NOTES:
     dance-single:
     :
     Hard:
     15:
     0.766,0.698,0.898,0.222,0.094,383.000,81.000,20.000,0.000,0.000,0.000,0.766,0.698,0.898,0.222,0.094,383.000,81.000,20.000,0.000,0.000,0.000:
0000
0000
0000
0000
2002
0000
0000
0000
0000
0000
0000
0000
3003
0000
1000
0100
,
0001
0100
1000
0100
,
1000
0000
1000
0100
0010
0001
0000
0100
,
0010
1000
0001
0100
0010
1000
0100
0001
,
1000
0100
0010
0100
1000
0110
0000
0000
,
0000
1100
0110
1001
,
0100
0010
0000
0011
0010
0000
0100
0000
,
0010
0000
0000
0000
1000
0000
0100
0000
0010
0000
0001
0000
1000
0100
0010
0001
,
0100
0010
0001
0100
1000
0000
0000
0000
0100
0000
0000
0000
1000
0000
0100
0000
,
1000
0100
0000
0010
1000
0010
0100
0001
,
1000
0010
0100
1000
0100
0010
0001
0100
,
0010
0110
1000
0000
0101
0000
0010
0100
,
0001
1000
0110
0000
1001
0000
0100
1000
,
0100
0110
0000
1000
0010
0100
0011
0010
,
0000
0110
0000
0000
1010
0100
0010
0000
,
0100
0110
0000
0110
0000
1000
0101
0000
,
1000
0000
0000
0100
1000
0100
0010
0100
,
0001
1000
0100
0000
1000
0100
0010
0001
,
0010
0100
0000
0000
1100
0000
1000
0000
,
1000
0100
0010
0001
0010
0100
1000
0000
,
1001
0000
1010
0000
0100
1000
0100
1000
,
0100
0020
2030
3200
,
0320
2030
3200
0320
,
1030
0000
0000
0000
1001
0000
1001
0000
1001
0000
1001
0000
0000
0000
1000
0010
,
0100
1000
0010
0100
0001
0000
0000
0000
0100
0000
0000
0000
0010
0000
1000
0000
,
0001
0100
0010
0000
1000
0100
0010
0000
,
1000
0002
0000
0000
0000
0000
0000
1003
,
1000
1000
0000
0000
0000
0000
1010
0000
,
1001
1001
0110
1000
,
0100
1000
0100
0000
0010
1000
0001
0100
,
1000
0000
0100
0000
1000
0100
0010
0000
,
0001
0100
0010
0000
0100
0000
1010
1010
,
0101
0000
0000
0000
1000
0001
0100
0000
0000
0000
1000
0000
0100
0000
0010
0000
,
1000
0001
0100
0010
1000
0100
0010
0001
,
0010
0100
0001
1000
0100
1000
0100
1000
,
0100
1001
0100
0010
0101
0000
1000
0010
,
0100
0110
0000
1000
0100
0010
1000
0001
,
0110
0000
1000
0010
0100
1000
0010
0001
,
0220
0000
0000
0000
,
0000
0330
0000
0000
0100
1010
0100
1001
,
2002
0000
0000
0000
0000
0000
0000
3003
,
0000
0000
1100
0000
1100
0000
1100
0000
1100
0000
0000
0000
1000
0100
0010
0000
,
0000
0100
0000
1001
0100
0010
0100
2002
,
0000
0000
3000
0103
0000
1001
0000
0100
,
0000
1010
0000
0100
0001
1010
0000
0100
,
0000
0001
1000
0100
0010
0001
0010
1000
,
0001
0100
0000
1010
0000
0100
0001
1000
,
0100
0110
0000
1000
0100
0010
0100
0001
,
1000
0110
0000
1000
0001
0100
0000
0010
,
0000
0000
1100
0000
0000
0011
0000
0000
1100
0000
0000
0011
0000
0000
1000
0100
,
0010
0100
1000
0000
0000
0000
0010
0000
0100
0000
0010
0000
1000
0000
2002
0000
,
0000
0000
0003
3100
0000
0010
0000
1000
,
0000
0110
0000
1000
0100
1001
0000
0110
,
0000
1001
0000
0110
1000
0100
0010
0001
,
0110
0000
1000
0100
0010
0100
0010
1000
,
0001
0110
0000
1000
0010
0100
0010
1000
,
0001
0100
0010
1000
0100
0010
1001
0000
,
0000
0000
1001
0000
0000
1001
0000
0000
1001
0000
1001
0000
0000
0000
1000
0010
,
0100
1000
0110
0000
0001
0000
0110
0000
0000
0000
0100
0000
0001
0000
0100
0000
,
0010
0100
0001
1000
0100
0010
0001
0010
,
0100
1000
0100
0010
0001
0100
0010
0100
,
0001
1000
0100
0010
0110
0000
1000
0001
,
0100
1010
0000
0101
0000
0110
0000
1000
,
0110
0000
1000
0110
0000
1001
0000
0110
,
0000
1001
0100
1010
0100
0010
1000
0100
,
2002
0000
0000
0000
,
0000
3003
0000
0000
;

//---------------dance-single - ----------------
#NOTES:
     dance-single:
     :
     Medium:
     10:
     0.567,0.551,0.532,0.100,0.017,301.000,48.000,9.000,0.000,0.000,0.000,0.567,0.551,0.532,0.100,0.017,301.000,48.000,9.000,0.000,0.000,0.000:
0000
2002
0000
3003
,
0110
1000
0100
1000
,
0100
0000
1000
0100
0010
0100
0000
0000
,
0001
1010
0000
0110
,
0000
0000
1001
0000
0000
0110
0000
0000
,
0000
1010
1010
1010
,
0000
0110
0000
0000
1001
0000
0110
0000
,
1001
0000
0110
0000
1001
0000
1000
0100
,
0010
0001
0110
0000
1000
0000
0100
1000
,
0100
1000
0000
0100
0100
0000
1000
0000
,
0100
0000
1000
0000
0100
0000
1000
0100
,
0010
0001
0000
0100
0010
1000
0000
0100
,
0001
0000
1010
0000
0101
0000
1000
0100
,
0010
0001
0000
0100
0010
0000
1001
0110
,
0000
1001
0000
0100
1000
0100
1000
0100
,
1000
0100
0000
0010
0000
1000
0010
0000
,
0100
0000
0001
0000
1000
0100
0010
0001
,
0000
0100
0010
0000
0100
0000
0001
0000
,
1000
0010
0100
0000
0001
0000
1000
0000
,
1000
0100
0010
0001
0100
0010
0100
0000
,
0001
1001
0100
0010
,
1000
1000
0100
0010
,
0100
1000
0100
0010
,
1000
0000
0100
1000
0100
0010
0000
1000
,
0100
0001
0100
0000
0100
0000
1000
0000
,
0100
1000
0100
0100
,
1000
0100
0010
0000
1000
0000
0100
0000
,
1000
0100
0010
0000
1000
0000
0001
0000
,
0100
0010
1000
0100
,
1000
0100
1000
0100
,
0010
1000
0001
0100
,
0010
0000
1000
0000
0010
0000
1000
0001
,
0100
0000
1000
0010
0000
1000
0010
1000
,
0000
0000
0000
1000
0000
1000
0000
1000
,
0000
1000
0000
0100
0010
1000
0000
0100
,
0000
1000
0100
0010
0001
0000
0100
0010
,
0000
1000
0000
1100
0000
1000
0100
0010
,
0110
0000
1000
0100
0010
0000
1001
0100
,
0020
0000
0000
0000
,
0000
0000
0000
0030
1000
0100
0010
0001
,
0200
0000
0000
0000
,
0300
1000
0100
0010
0001
0000
0000
0110
,
0000
1001
0000
0100
1000
0100
0010
0002
,
0000
0000
0003
1000
0000
0010
0000
0100
,
0000
0002
0000
0000
1003
0210
0000
0000
,
0300
1000
0000
0100
0000
1000
0100
0010
,
0002
0000
0000
0000
0003
0100
0000
0010
,
0000
1000
0000
0100
1000
0100
0000
1000
,
0100
0010
0000
1000
0001
0100
0000
0010
,
0000
0000
1001
0000
0000
0110
0000
0000
1001
0000
0110
0000
0000
0000
0000
0000
,
0000
1000
0000
1001
0000
0110
0000
1000
,
0100
0010
0000
1001
0000
0110
0000
1001
,
0000
1000
0100
0010
0001
0010
0000
0100
,
0000
1000
0100
0010
0001
0000
0100
0010
,
0100
0000
0000
1000
0000
0100
0000
1000
,
0000
1000
0100
0010
0000
0100
0001
0100
,
0000
1000
0010
1000
0000
0100
0000
1000
,
0000
0000
1000
0000
0000
0100
0000
0010
0000
0000
0001
0000
0000
0000
0000
0000
,
0000
1001
0000
0110
0000
1000
0100
0010
,
0000
1000
0100
0010
0001
0000
0100
0010
,
0000
1001
0000
0110
0000
1001
0000
0110
,
0000
1000
0100
0010
0001
0000
0100
0010
,
0000
1001
0000
0011
0000
0110
0000
1000
,
0100
0000
0010
1000
0000
0101
0000
1010
,
0000
1000
0100
0010
0001
0010
0100
1000
,
2000
0000
0000
0000
,
0000
3000
0000
0000
;

//---------------dance-single - ----------------
#NOTES:
     dance-single:
     :
     Easy:
     7:
     0.404,0.404,0.155,0.066,0.006,235.000,14.000,6.000,0.000,0.000,0.000,0.404,0.404,0.155,0.066,0.006,235.000,14.000,6.000,0.000,0.000,0.000:
0000
2002
0000
3003
,
0110
1001
0100
1000
,
0100
0000
2000
0000
0000
3100
0000
0000
,
0000
1001
0100
1010
,
0100
0000
0010
0100
0001
0100
0000
0000
,
0000
1010
0100
0010
,
0000
1000
0000
0000
1000
0000
0100
0000
,
1000
0000
0100
0000
1000
0000
1000
0100
,
0010
0001
0010
0000
0100
0000
0100
0000
,
0000
0100
0000
0000
1000
0000
0100
0000
,
0000
0010
0000
0000
0100
0000
1000
0000
,
0000
0100
0000
0000
0010
0000
0001
0000
,
0010
0100
1000
0100
,
0000
0010
0000
0000
0000
0000
1000
0100
,
0000
0010
0000
0000
0000
0000
0000
0000
,
0000
0001
0000
1000
0000
0010
0100
0000
,
0000
0000
1000
0010
,
0100
0001
1000
0100
,
0010
0001
0100
0010
,
1000
0100
0100
0100
,
0010
0010
1000
0100
,
1000
0100
0010
0001
,
0010
0100
1000
0100
,
1000
1000
1000
1000
,
0100
0110
1000
0100
,
0010
0001
0010
0001
,
0010
1000
0010
0100
,
0001
1000
0010
0100
,
0001
1000
0100
0010
,
0001
0100
0010
0001
,
0010
0100
1000
0100
,
0010
0000
1000
0000
0100
0000
0010
1001
,
0100
0000
0000
0000
0000
1000
0000
0100
,
0000
0010
0000
1000
0000
0010
0000
0100
,
0000
0001
0000
1000
0000
1000
0000
0100
,
0000
0010
0000
0001
0000
0010
0000
0100
,
0000
1000
0000
0100
0000
1000
0000
0100
,
0000
0010
0000
1000
0000
0001
0000
1000
,
0000
0020
0000
0000
0000
0000
0000
0000
,
0000
0030
0000
0000
0000
1000
0000
0000
,
2000
0000
0000
0000
,
3000
0000
0000
0000
0000
0000
0000
1001
,
0000
0110
0000
1000
0100
0010
0000
0001
,
0100
0010
0000
1000
0000
0100
0000
0000
,
0000
1000
0000
0000
1000
0010
0000
0000
,
0000
0100
0000
0000
0000
0000
1000
0100
,
0010
0000
0000
0100
0000
0010
0000
0001
,
0000
0010
0000
0100
0010
0001
0000
0100
,
0000
0010
0000
1000
0000
0010
0000
0100
,
0000
0000
1000
0000
0000
1000
0000
0000
1000
0000
1000
0000
0000
0000
0000
0000
,
0000
1001
0000
0110
0000
1000
0100
0010
,
0000
0100
0000
0010
0000
1000
0000
0001
,
0000
0100
0000
1000
0100
0010
0000
0100
,
0000
0010
0000
0010
0000
0010
0000
0000
,
1100
0000
0000
0000
0000
0110
0000
1000
,
0000
0100
0000
0010
0000
1000
0000
0100
,
0000
0001
0000
1000
0000
0100
0000
0010
,
0000
1000
0000
0100
0000
1000
0000
0100
,
0000
1000
0000
0100
0000
1000
0000
0100
,
0000
1000
0000
0010
0000
0100
0000
0001
,
0000
1000
0000
0010
0000
0001
0000
0010
,
0000
0100
0000
1000
0000
0100
0000
0010
,
0000
1000
0000
0001
0000
0100
0000
0000
,
1000
0000
0000
1000
0000
0100
0000
0010
,
0000
1000
0000
0001
0000
0100
0000
0010
,
2000
0000
0000
0000
,
0000
3000
0000
0000
;

//---------------dance-single - ----------------
#NOTES:
     dance-single:
     :
     Beginner:
     3:
     0.184,0.220,0.033,0.044,0.000,109.000,3.000,4.000,0.000,0.000,0.000,0.184,0.220,0.033,0.044,0.000,109.000,3.000,4.000,0.000,0.000,0.000:
0000
2000
0000
3000
,
0000
0001
0000
0100
,
0000
1000
0000
0100
,
0000
1000
0000
0100
,
0000
1000
1000
1000
,
0000
0010
0010
0010
,
0000
0001
0001
0001
,
0000
0000
0000
0100
,
0100
0100
0000
0000
,
0000
0010
0010
0010
,
0000
1000
1000
1000
,
0000
0000
0000
0000
,
0000
0001
0001
0001
,
0000
0000
0000
0000
,
0000
1001
0000
0000
0000
0000
0000
0000
,
0000
1000
1000
1000
,
0000
0000
0010
0001
,
0000
0100
0000
1000
,
0000
0100
0000
0100
,
0000
0000
0000
0000
,
0001
1000
0000
0000
,
0000
0010
0000
0000
,
0000
1000
0000
0001
,
0000
1000
0000
0000
,
0000
1001
0000
0000
,
0000
0110
0000
0000
,
0000
1000
0000
1000
,
0000
1000
0000
0000
,
0000
0001
0000
0001
,
0000
0001
0000
1000
,
0000
1000
0000
1000
,
0000
0010
0000
1000
,
0000
0000
0000
0000
0000
0001
0000
0000
,
0000
0000
0000
0000
0000
0000
0000
0001
,
0000
0001
0000
0000
0000
0000
0000
0000
,
0000
1000
0000
0000
1000
0000
0000
0000
,
0000
1000
0000
0000
0000
0000
0000
0000
,
0010
0000
0000
0000
,
0100
0000
0000
0000
,
0000
0000
0000
0000
,
0020
0000
0000
0000
,
0030
0000
0000
0000
,
0000
1000
0000
0000
0000
0000
0000
1000
,
0000
0000
0000
0001
0000
0000
0000
0000
,
0000
0001
0000
0000
0000
0100
0000
0000
,
0000
0010
0000
0000
0000
0000
0000
0000
,
0000
0000
0000
0000
0000
1000
0000
1000
,
0000
1000
0000
0000
0000
0000
0000
0010
,
0000
0100
0000
0000
0000
0010
0000
0000
,
0000
1000
0000
0000
0000
0001
0000
0000
,
0000
1000
0000
0000
0000
0000
0000
0002
,
0000
0000
0000
0003
0000
0000
0000
0100
,
0000
0100
0000
0000
0000
0010
0000
0000
,
0000
1000
0000
0000
0000
0000
0001
0000
,
0001
0000
0000
0000
0000
0100
0000
0000
,
0000
1000
0000
0000
0000
0000
0000
0100
,
0000
0100
0000
0000
0000
0000
0000
0000
,
0000
1000
0000
0100
0000
0010
0000
0001
,
0000
0100
0000
0000
0000
1000
0000
0000
,
0000
0100
0000
0000
0000
0010
0000
0000
,
0000
1000
0000
0000
0000
0000
0000
0000
,
0000
0001
0000
0000
0001
0000
0000
0000
,
0000
1000
0000
0000
0000
1000
0000
0000
,
0000
0010
0000
0000
0000
0001
0000
0000
,
0000
0100
0000
0000
0000
0000
0000
0000
,
0002
0000
0000
0000
,
0000
0003
0000
0000
;
