#TITLE:SUPER STREAM~INFINIT FUTURE Revised MIX~;
#SUBTITLE:[Remix] IS ~Infinite Stratos~ Ending Theme;
#ARTIST:Remixed by All IS Girls;
#TITLETRANSLIT:;
#SUBTITLETRANSLIT:;
#ARTISTTRANSLIT:;
#GENRE:;
#CREDIT:;
#BANNER:SUPER STREAM ~INFINIT FUTURE Revised MIX~.png;
#BACKGROUND:SUPER STREAM ~INFINIT FUTURE Revised MIX~-bg.png;
#LYRICSPATH:;
#CDTITLE:;
#MUSIC:SUPER STREAM ~INFINIT FUTURE Revised MIX~.mp3;
#MENUCOLOR:0,0,1,1;
#METERTYPE:DDR X;
#OFFSET:-0.312;
#SAMPLESTART:0.050;
#SAMPLELENGTH:12.000;
#SELECTABLE:YES;
#BPMS:0.000=180.000,1.000=90.000,2.000=180.000,144.000=90.000,152.000=180.000,175.000=90.000,181.000=180.000,184.500=90.000,190.750=180.000,258.000=90.000;
#STOPS:172.000=0.083
,172.250=0.083
,172.500=0.083
,172.750=0.083
,190.750=0.083
,191.250=0.083
,191.750=0.083
;
#BGCHANGES:;
#KEYSOUNDS:;

//---------------dance-single - ----------------
#NOTES:
     dance-single:
     :
     Hard:
     14:
     0.708,0.444,0.549,0.108,0.158:
0000
0000
0000
0000
1000
1000
0000
0000
0100
0000
0000
0000
0100
0000
0010
0000
,
0100
0010
0100
1000
0110
0001
1000
0001
,
1001
0000
0001
0100
0101
0000
0100
0010
,
0100
0010
0100
1000
0100
0000
0000
0100
,
0010
0100
0010
0100
0010
0000
1000
0100
,
0010
0001
0100
0002
0000
0003
1010
0000
,
0100
0010
0100
0000
0110
0000
0100
0010
,
0100
0010
0100
0000
0001
0000
0100
0010
,
0100
0000
1000
0100
0010
0100
0001
1000
,
2002
0000
0000
3003
,
0110
0001
0001
0001
,
0001
0000
0001
0000
0001
1000
0001
1000
,
0010
0000
0100
1000
0100
0010
0001
0100
,
0010
0000
0100
1000
0100
0010
0100
0001
,
0100
0000
0010
0100
0010
0100
1000
0100
,
0010
0000
0100
0001
0100
0001
0100
0010
,
1000
0000
0100
0010
0100
1000
0100
0010
,
0001
0000
0100
1000
0100
1000
0100
0001
,
0100
0000
0100
0010
0100
1000
0100
0010
,
0001
0100
0010
0100
0001
1000
0100
0010
,
1001
0000
0100
0010
0100
0010
0100
1000
,
0100
0000
0010
0100
0010
0100
0001
0100
,
0010
0000
1000
0000
0100
0000
1000
0100
,
0010
0100
0001
0100
0010
0000
0110
0000
,
0110
0000
1000
0100
0010
0100
0001
1000
,
0110
0000
0101
0000
0110
1000
0110
0000
,
0101
0000
0110
0100
0101
0000
0100
0010
,
0100
1000
0100
0010
0000
0100
0001
0100
,
0101
0000
1000
0010
0100
0010
1000
0100
,
0010
0100
0001
0100
0010
1000
0100
0010
,
0001
0000
0001
0000
0001
0100
0010
1000
,
0001
0000
0001
0000
0001
1000
0010
0000
,
1000
0100
0010
0000
0100
0010
0100
0000
,
0001
0100
0010
0000
0100
0010
0001
0000
,
0100
0001
0010
0100
1000
0001
0100
0010
,
1000
0001
0100
0010
1000
0001
0100
0001
,
2002
0000
3003
0000
0100
0000
0010
0000
0010
0000
0010
0000
1000
0100
0010
0000
,
0010
0000
1000
0000
0010
0000
1000
0000
0010
1000
0010
1000
0000
0010
1000
0010
,
1010
1010
1010
0101
,
0110
0100
0010
0100
0001
0100
1000
0200
,
0000
0000
0010
0000
0010
0000
0010
0300
,
0001
1000
0100
0010
0100
0001
2000
0010
,
0000
0010
0010
3010
,
1000
0100
0010
0011
0000
0000
0100
0000
0010
0000
0100
0000
0110
0000
1000
0000
,
0010
0000
0100
0000
0010
0000
0100
0000
0001
0000
1000
0000
0101
0010
0100
1000
,
0110
1000
0001
1000
0001
1100
0000
0100
,
0010
0000
0110
0000
0000
0100
0000
0110
0000
1000
0000
0100
0010
1000
0001
0100
,
0000
0010
0100
0110
0000
0100
0001
0101
0000
1000
0000
1010
0000
1010
0000
1010
,
1010
0000
0101
0000
0110
1000
0010
0100
,
0001
1000
0002
0000
0000
0000
0103
0010
,
0100
0010
1000
0100
0010
0000
0001
0010
,
0100
0000
0010
1000
0100
0010
1000
0001
,
0000
1000
0100
0020
0000
0000
0000
0000
,
0130
1000
0100
1000
0100
0010
0100
0010
,
0001
0010
0001
0100
0010
0100
1000
0100
,
0001
0100
0010
0100
1001
0000
0110
0100
,
0110
0000
1000
0000
0110
0000
0100
0001
,
0100
0000
0100
0010
0110
0000
1000
0001
,
0100
0010
0100
0010
1001
0000
0100
0010
,
0100
0001
0100
0000
1000
0100
0010
0101
,
0000
0100
0010
0100
0110
0100
0110
0100
,
0110
1000
0100
0010
0100
0001
0100
0010
,
2000
0000
3001
0100
0010
0100
0010
0100
,
1000
0100
0010
0001
0100
1000
0100
0010
,
0000
0000
0100
0000
0001
0000
0100
0000
1001
0000
0001
0000
0001
0000
0100
0001
,
0100
0001
0100
0000
0010
0000
0100
0000
0110
0000
0110
0000
0110
0000
1000
0100
,
0010
0001
0100
0000
0110
0000
0100
0000
0101
0000
0101
0000
0101
0000
1000
0100
,
0010
0001
0100
0000
0110
0000
1000
0000
1010
0000
1010
0000
1010
0000
0100
0001
,
0010
0100
1000
0100
0010
0000
0100
0000
0010
0000
0010
0000
0010
0000
0100
0000
,
1000
0001
2000
0200
0000
0000
0000
0000
0000
0000
0000
0000
0000
0000
0000
0000
,
0000
0000
0000
0000
0000
0000
0000
3000
0300
0000
0000
0000
0000
0000
0000
0000
;

//---------------dance-single - ----------------
#NOTES:
     dance-single:
     :
     Medium:
     10:
     0.490,0.190,0.369,0.027,0.081:
0000
0000
0000
0000
1000
0100
0000
0000
0001
0000
0000
0000
0000
0000
0000
0000
,
1000
0000
1001
0000
,
0100
0010
0100
0000
0010
0000
0000
0000
,
0001
1000
0001
0000
1001
0000
0000
0000
,
0010
0100
0010
0000
0110
0000
0000
0000
,
1000
0001
1000
0000
1001
0000
0000
0000
,
0010
0100
0010
0000
0110
0000
0000
0000
,
0001
1000
0001
0000
1001
0000
0000
0000
,
0100
0001
1001
0000
,
0100
0000
0000
0000
,
1001
0000
1001
0000
,
1001
0000
1001
0000
,
1000
0010
1000
0000
0010
0100
0010
0000
,
1000
0100
0010
0000
0001
0010
0100
0000
,
1000
0100
0010
0000
0001
0010
0100
0000
,
1000
0001
1000
0000
0010
0100
0010
0000
,
1000
0100
0010
0000
0001
0001
0001
0000
,
1000
1000
0010
0000
0100
0010
0100
0000
,
1000
0001
0100
0000
1000
0100
0010
0000
,
0100
0001
0100
0000
1000
0010
0100
0000
,
1001
0010
0000
0010
,
0000
0010
1000
0010
,
1000
0000
0000
0000
0000
0000
0010
1000
,
0010
1000
0010
0000
1000
0000
1000
0000
,
1000
0000
0000
0001
,
1000
0001
1000
0000
0010
0100
0010
0000
,
1000
0001
1000
0000
0010
0100
0010
0000
,
1000
0100
0001
0001
0000
0000
0000
0000
,
0010
0000
0100
1000
0100
0000
0000
0000
,
0100
0000
0010
0100
0010
0000
1000
0010
,
0100
0000
0000
0000
0000
1000
0000
0002
,
0000
0003
0000
0000
1000
0000
0010
0000
,
0100
0010
0010
0001
,
0001
0100
0010
1000
,
0001
0001
0001
0000
,
0000
0000
1000
0000
,
1001
0000
0110
0000
1000
1000
0100
0000
,
0010
1000
0001
0100
0010
1000
0100
0010
,
1001
0110
0001
0101
,
0010
0000
0110
0000
0100
0000
0010
0100
,
0010
0000
0100
0000
0010
0100
0010
0000
,
1000
0100
0010
0000
0001
0010
0100
0001
,
0000
0100
0000
0000
0010
0000
0001
0000
,
1000
0100
0010
0001
0000
0000
0000
0000
1000
0000
0000
0000
1001
0000
0010
0000
,
0100
0010
0100
1000
0100
0010
0100
0001
,
1001
0000
1001
0000
0000
1001
0000
1001
,
0000
0000
1001
0000
0000
0100
0000
0110
0000
1000
0000
0101
0000
0100
0000
0110
,
0000
1000
0000
1001
0000
0100
0000
0110
0000
0100
0000
1000
0000
0100
0000
0001
,
0010
0000
1000
0000
1001
0100
0010
0100
,
0010
0100
0002
0000
0000
0003
1000
0010
,
0100
0001
1000
0000
1000
0100
0010
0001
,
0100
0000
0100
0000
1000
0100
0010
0101
,
0000
0100
0010
0110
0000
0000
1000
0000
,
0001
1000
0001
0000
0100
0010
0100
0000
,
1000
0100
0010
0000
0001
0100
0010
0000
,
0100
0000
1000
0000
1001
0000
1000
0001
,
1001
0000
0100
0010
0110
0000
1000
0000
,
0100
0010
0100
0000
0001
0100
0010
0100
,
0000
1000
0100
0000
1000
0100
0010
0100
,
0010
0000
0100
0000
1000
0100
0010
0001
,
0000
0100
0010
0000
0100
0001
0100
0001
,
0100
0000
1000
0100
0000
0100
0010
0100
,
0001
0000
0100
0010
0100
0000
1000
0100
,
0010
0000
0100
0001
0100
0000
1000
0100
,
0000
0010
1001
0100
,
0100
0100
0110
1000
0001
0000
1001
0000
,
0100
0010
0100
0010
1001
0000
1001
0000
,
0100
1000
0100
0010
0001
0000
1001
0000
,
0100
0010
1000
0001
1000
0000
1000
0000
,
0001
0000
0000
2000
0000
0000
0000
0000
0000
0000
0000
0000
0000
0000
0000
0000
,
0000
0000
0000
0000
0000
0000
0000
0000
0000
0000
0000
0000
0000
0000
0000
0000
0000
0000
0000
0000
0000
0000
0000
0000
0000
0000
0000
0000
0000
0000
0000
0000
0000
0000
0000
0000
0000
0000
0000
0000
0000
0000
0000
0000
0000
0000
0000
0000
0000
0000
0000
0000
0000
0000
0000
0000
0000
0000
0000
0000
0000
0000
0000
0000
0000
0000
0000
0000
0000
0000
0000
0000
0000
0000
0000
0000
0000
0000
0000
0000
0000
0000
0000
0000
0000
0000
0000
0000
0000
0000
0000
0000
0000
0000
0000
0000
0000
3000
0000
0000
0000
0000
0000
0000
0000
0000
0000
0000
0000
0000
0000
0000
0000
0000
0000
0000
0000
0000
0000
0000
0000
0000
0000
0000
0000
0000
0000
0000
0000
0000
0000
0000
0000
0000
0000
0000
0000
0000
0000
0000
0000
0000
0000
0000
0000
0000
0000
0000
0000
0000
0000
0000
0000
0000
0000
0000
0000
0000
0000
0000
0000
0000
0000
0000
0000
0000
0000
0000
0000
0000
0000
0000
0000
0000
0000
0000
0000
0000
0000
0000
0000
0000
0000
0000
0000
0000
0000
0000
0000
0000
0000
0000
;

//---------------dance-single - ----------------
#NOTES:
     dance-single:
     :
     Easy:
     7:
     0.405,0.222,0.288,0.045,0.054:
0000
1010
0101
0000
,
1000
1000
0010
0000
,
0100
0100
0010
0000
,
1000
1000
0001
0000
,
0100
0010
0100
1000
,
0100
0010
0001
0000
,
1000
0000
1000
0000
1000
0000
0000
0100
,
0000
0010
0100
0000
,
0010
1000
0001
0000
,
1000
1000
1000
0000
,
1001
0000
1001
0000
,
1001
1001
1001
0000
,
0100
0100
1000
0100
,
0100
0010
0010
0010
,
0001
0001
1000
1000
,
0010
0010
1000
0100
,
0010
0001
0010
0010
,
0100
0100
1000
1000
,
0100
0010
1000
0001
,
0100
0100
0100
0000
,
1001
0000
0100
0010
,
0100
1000
0100
0010
,
1000
0001
0100
0100
,
0100
0100
0010
0010
,
0010
1000
0100
0100
,
1000
0100
0010
0001
,
0010
0100
1000
0100
,
0010
0100
0010
0100
,
0101
0100
0010
1000
,
0010
0100
0010
1000
,
0010
0000
0100
0000
0010
1000
0001
1000
,
0000
0010
0100
0010
,
1000
0100
0010
0001
,
0100
0010
0100
0010
,
0100
0000
1000
0100
0010
0000
0100
0000
,
0010
0100
0001
0100
,
1001
0000
0110
0000
1000
0100
0110
1000
,
1001
0000
0100
0000
0010
1000
0001
0000
,
1000
1001
0100
0110
,
0100
0000
0101
0000
1000
0000
0001
2000
,
0000
0000
0000
0000
,
0001
0000
3001
0000
0100
0010
0100
0002
,
0000
0000
0000
0000
0000
0000
0000
0003
,
1000
0001
1000
0000
0000
0000
1001
0100
,
0110
1000
0001
1000
1001
0000
0100
0010
,
0110
0000
1001
0000
0100
0110
0000
1000
,
0001
0000
1000
0000
0000
1000
0000
0010
0000
0000
0000
0100
0000
0100
0000
0010
,
0000
0000
0000
1000
0000
0001
0000
1000
0000
0001
0000
1000
0000
0001
0000
1000
,
0000
0000
1000
0001
,
1000
0020
0000
1030
,
0001
0100
0010
1000
,
0100
0001
1000
0001
,
0100
0010
1000
0100
,
0010
1000
0100
0010
,
0001
0010
0100
1000
,
0100
0000
0010
0000
1000
0000
0001
0100
,
0010
1000
0100
0100
,
0100
0100
0010
0010
,
0010
0010
1000
1000
,
1000
0000
1000
0000
0001
1000
0001
1000
,
0000
0100
0100
0100
,
0100
0000
1000
0010
0000
0100
0001
0000
,
1000
0100
0010
0010
,
0010
0010
1000
1000
,
0001
1000
1001
0110
,
1000
1000
1001
0000
0010
0000
0110
0000
,
0001
0001
1001
0000
1000
0000
1001
0000
,
0100
0100
0110
0000
0001
0000
1001
0000
,
0010
0010
0110
0000
0001
0000
1000
0000
,
0001
2002
0000
0000
,
0000
0000
0000
0000
0000
0000
0000
0000
0000
0000
0000
0000
0000
0000
0000
0000
0000
0000
0000
0000
0000
0000
0000
0000
0000
0000
0000
0000
0000
0000
0000
0000
0000
0000
0000
0000
0000
0000
0000
0000
0000
0000
0000
0000
0000
0000
0000
0000
0000
0000
0000
0000
0000
0000
0000
0000
0000
0000
0000
0000
0000
0000
0000
0000
0000
0000
0000
0000
0000
0000
0000
0000
0000
0000
0000
0000
0000
0000
0000
0000
0000
0000
0000
0000
0000
0000
0000
0000
0000
0000
0000
0000
0000
0000
0000
0000
0000
0000
3003
0000
0000
0000
0000
0000
0000
0000
0000
0000
0000
0000
0000
0000
0000
0000
0000
0000
0000
0000
0000
0000
0000
0000
0000
0000
0000
0000
0000
0000
0000
0000
0000
0000
0000
0000
0000
0000
0000
0000
0000
0000
0000
0000
0000
0000
0000
0000
0000
0000
0000
0000
0000
0000
0000
0000
0000
0000
0000
0000
0000
0000
0000
0000
0000
0000
0000
0000
0000
0000
0000
0000
0000
0000
0000
0000
0000
0000
0000
0000
0000
0000
0000
0000
0000
0000
0000
0000
0000
0000
0000
0000
0000
0000
;

//---------------dance-single - Copied from----------------
#NOTES:
     dance-single:
     Copied from:
     Beginner:
     4:
     0.147,0.124,0.054,0.000,0.023:
0000
1000
0100
0000
,
1000
0000
0100
0000
,
1000
0000
0010
0000
,
0001
0000
0001
0000
,
0000
0000
1000
0000
,
0000
0001
0001
0000
,
0010
0000
0100
0000
,
0010
0000
0001
0000
,
0001
0000
0010
0000
,
0001
0000
1000
0000
,
1001
0000
0000
0000
,
1001
0000
0000
0000
,
1000
0000
0000
0000
,
0001
0000
0000
0000
,
1000
0000
0000
0000
,
0010
0000
0000
0000
,
1000
0000
0000
0000
,
0001
0000
0000
0000
,
1000
0000
0000
0000
,
0100
0000
0000
0000
,
1001
0000
0000
0000
,
0010
0000
0000
0000
,
0010
0000
0000
0000
,
1000
0000
1000
1000
,
1000
0000
0000
0000
,
0001
0000
0000
0000
,
1000
0000
0000
0000
,
1001
0000
0000
0000
,
0001
0000
0000
0000
,
1000
0000
0000
0000
,
1001
0000
0000
0000
,
1000
0000
0000
0000
,
0010
0000
0000
0000
,
0001
0000
0000
0000
,
1000
0000
0000
0000
,
0000
0000
0000
0000
,
1000
0000
0100
0000
,
0010
0000
0001
0000
,
1000
0000
0000
0001
,
0000
0000
0100
0000
0000
0000
0000
0010
,
0000
0000
0000
1000
,
0000
0001
0000
0000
,
0000
0000
0000
0000
,
1000
0000
0000
0100
,
0000
1000
1000
1000
,
0000
0000
1000
0000
0000
0100
0000
0000
,
0000
0000
0010
0000
0000
0000
0000
1000
0000
0000
0000
0000
0000
0000
0000
0001
,
0000
0000
0000
1000
0000
0000
0000
0010
0000
0000
0000
1000
0000
0000
0000
0000
,
0001
0000
1000
0001
,
1000
1001
0000
0000
,
0000
0000
0001
0000
,
1000
0000
0001
0000
,
0000
0000
0000
0100
0000
0000
0000
0000
,
0000
0000
0010
0000
,
1000
0000
0001
0000
,
0000
0000
1000
0000
,
0001
0000
0100
0000
,
0000
0000
0000
0000
0010
0000
0000
0010
,
0000
0000
0000
0000
,
0000
0000
0000
0000
1000
0000
0000
1000
,
0000
0000
1000
0000
,
0001
0000
0000
0000
,
0100
0000
0100
0000
,
0000
0000
1000
0000
,
0100
0000
1000
0000
,
0100
0100
0100
0000
,
0010
0010
0010
0000
,
0001
0001
0001
0000
,
1000
0100
0010
0000
,
1000
0000
0000
0000
;

//---------------dance-single - re-pattern it----------------
#NOTES:
     dance-single:
     re-pattern it:
     Challenge:
     10:
     0.713,0.000,0.639,0.306,0.275: // measure 1
0000
0000
0000
0000
,  // measure 2
0000
0000
0000
0000
,  // measure 3
1001
0001
0101
0100
,  // measure 4
0100
0000
0100
1000
0000
0000
0000
0100
,  // measure 5
0000
0100
0010
0100
0010
0000
1000
0000
,  // measure 6
0010
0001
0100
0002
0000
0003
0000
0000
,  // measure 7
0100
0000
0100
0000
0110
0000
0000
0010
,  // measure 8
0000
0010
0100
0000
0001
0000
1000
0010
,  // measure 9
0000
0000
0000
0000
,  // measure 10
0000
4004
0000
3003
,  // measure 11
0110
1000
0001
1000
0000
0001
0001
1000
,  // measure 12
0001
0000
0010
0000
0100
0000
1000
0000
0001
0000
1000
0000
2200
3300
0100
0000
,  // measure 13
0220
0330
0010
0000
0001
0100
0010
0000
0010
0000
0110
0000
0001
0000
0110
0000
,  // measure 14
0010
0000
2000
3000
0010
0100
0010
0000
0100
0000
0110
0000
0100
0000
0101
0000
,  // measure 15
0100
0000
0010
0000
0010
1000
0100
0000
0010
0000
0110
0000
1000
0000
0110
0000
,  // measure 16
0010
0000
0001
0000
0100
0010
0001
0000
2000
0000
3200
0000
0320
0000
0032
0000
,  // measure 17
1003
0000
0010
0000
0100
0001
1000
0000
0100
0000
1100
0000
0100
0000
0110
0000
,  // measure 18
0001
0000
0010
0000
0100
0001
1000
0010
0100
0001
1000
0010
0100
0001
0010
0100
,  // measure 19
1000
0001
1000
0001
0100
0001
0010
0100
1000
0001
1000
0001
0100
0001
0010
0000
,  // measure 20
0001
0000
0100
0000
0001
0000
0100
0001
1000
0000
0002
0003
0020
0030
0200
0300
,  // measure 21
4000
3000
0100
0010
0100
0010
0000
1000
,  // measure 22
0100
0000
0010
0000
0010
0000
0001
0100
,  // measure 23
0001
0010
1000
0001
0100
0010
1000
0100
,  // measure 24
0010
0010
0001
0100
0010
0000
1010
0000
,  // measure 25
0110
0000
0000
0000
2000
3000
0200
0300
0020
0030
0002
0003
1000
0000
0000
0000
,  // measure 26
0110
0101
0110
0110
,  // measure 27
0101
0000
0000
0000
0000
0000
0100
0000
0101
0000
0000
0000
0000
0000
0010
1000
,  // measure 28
0100
1000
0100
0010
0000
0001
0100
0010
,  // measure 29
1010
0000
1000
0000
0100
0010
0000
0100
,  // measure 30
0010
0000
0001
0000
0010
0000
0100
0010
,  // measure 31
0000
0001
0001
0010
0000
0100
0010
1000
,  // measure 32
0000
0001
1000
0001
0001
0000
0010
0000
,  // measure 33
1000
0000
0010
0000
0100
0000
0010
0001
,  // measure 34
0000
0001
0010
0000
0100
0000
0001
0000
,  // measure 35
0100
0001
0010
0100
1000
0001
0100
0110
,  // measure 36
0000
0000
1001
0000
0000
0000
1010
0000
1000
0000
0001
0010
0100
0000
1000
0000
,  // measure 37
0000
0000
0000
0000
0100
0010
0000
1000
0000
0000
0010
0000
1000
0000
0010
0000
,  // measure 38
0010
0000
0000
0000
0000
0000
0000
0000
0010
0000
0000
0000
1000
0000
0000
0000
0010
0000
1000
0000
0000
0000
1000
0000
0100
0000
0010
0000
0001
0000
0001
1000
,  // measure 39
0001
1000
1000
0100
0010
0001
0001
0110
,  // measure 40
0000
1010
0010
0100
0001
0100
1000
0200
,  // measure 41
0000
0000
0010
0000
0010
0000
0010
0300
,  // measure 42
0001
1000
0100
0010
0100
0001
1000
0010
,  // measure 43
0010
1001
0010
1000
0010
0100
0010
0001
,  // measure 44
1000
0100
0010
0011
0000
0000
2000
3000
2000
3000
2000
3000
0110
0000
2000
3200
,  // measure 45
0300
0020
0032
0000
0003
0000
0002
0000
0203
0000
0320
0000
2030
0000
0000
0001
,  // measure 46
3001
0000
1001
1000
0010
0110
0000
1010
,  // measure 47
1000
0000
1100
0000
0000
0000
0000
0110
0000
1000
0000
0110
0000
1000
0001
0000
,  // measure 48
0000
0010
0100
0110
0000
0100
0001
0101
0000
1000
0001
1010
0000
1010
0000
1010
,  // measure 49
1010
0000
0000
0000
0001
1000
0001
0000
0110
0000
1000
0000
0010
0000
0100
0000
,  // measure 50
0001
1000
0002
0000
1000
0000
1003
0100
,  // measure 51
0010
0001
1000
0000
0010
0000
0000
0010
,  // measure 52
0100
0000
0110
0000
0100
0010
1000
0001
,  // measure 53
0000
0000
1000
0000
0100
0000
0110
0000
0001
0000
0000
0000
0002
0003
0002
0003
,  // measure 54
1000
0100
0110
0001
,  // measure 55
0001
0000
0100
0010
0000
1000
1000
0100
,  // measure 56
0000
0000
0010
0100
1001
0000
0110
0100
,  // measure 57
0110
0000
0001
0000
1000
0001
1000
0000
0110
0000
0000
0000
0100
0000
0001
0000
,  // measure 58
0100
0000
0100
0000
0110
0000
1000
0001
,  // measure 59
0000
1000
0100
0010
0000
0001
0100
0000
,  // measure 60
0100
0001
0100
0000
1000
0100
0010
0101
,  // measure 61
0000
0000
1000
0001
1000
0001
1000
0000
0110
0000
0000
0000
0110
0000
0000
0000
,  // measure 62
0110
0000
0000
1000
0000
1000
0100
0010
,  // measure 63
0002
0000
1003
0100
0010
0100
0010
0100
,  // measure 64
1000
0000
0100
0000
0010
0000
0001
0000
0100
0000
1000
0000
0100
0000
0010
1000
,  // measure 65
0001
0100
0001
0100
0020
0030
1000
0000
,  // measure 66
1100
0110
0011
0011
0101
0100
0110
0000
,  // measure 67
0110
0000
0000
1010
0000
0000
0000
0000
0101
0000
0001
0000
0101
0000
0000
0000
,  // measure 68
0110
0000
0000
0000
1000
0000
1100
0000
1010
0000
0000
0000
0101
0000
0001
0010
,  // measure 69
0010
0100
1000
0100
0010
0001
1000
0000
1000
0100
0010
0001
0000
0001
0000
1000
,  // measure 70
0000
0001
1000
0040
0000
0000
0000
0000
0000
0000
0000
0000
0000
0000
0000
0000
,  // measure 71
0000
0000
0000
0030
0000
0000
0000
0000
0000
0000
0000
0000
0000
0000
0000
0000
;
