#TITLE:STRAIGHT JET;
#SUBTITLE:IS ~Infinite Stratos~ Opening Theme;
#ARTIST:Kuribayashi Minami;
#TITLETRANSLIT:;
#SUBTITLETRANSLIT:;
#ARTISTTRANSLIT:;
#GENRE:;
#CREDIT:;
#BANNER:STRAIGHT JET.png;
#BACKGROUND:STRAIGHT JET-bg.png;
#LYRICSPATH:STRAIGHT JET.lrc;
#CDTITLE:;
#MUSIC:STRAIGHT JET.mp3;
#OFFSET:-0.051;
#SAMPLESTART:54.542;
#SAMPLELENGTH:12.000;
#SELECTABLE:YES;
#BPMS:0.000=154.000
,128.500=77.000
,129.750=154.000
;
#STOPS:101.000=0.097,
101.500=0.097,
130.250=0.097,
183.000=0.097,
183.500=0.097
;
#BGCHANGES:;
#KEYSOUNDS:;
#ATTACKS:;

//---------------dance-single - ----------------
#NOTES:
     dance-single:
     :
     Hard:
     15:
     0.767,0.754,0.833,0.064,0.235,419.000,78.000,6.000,0.000,0.000,0.000,0.767,0.754,0.833,0.064,0.235,419.000,78.000,6.000,0.000,0.000,0.000:
0000
0000
1001
0000
0110
0000
1001
0100
,
0010
1000
0001
0100
0010
1000
0100
0001
,
0001
0001
0100
0010
1000
0100
1000
0100
,
0010
0000
0001
0000
0100
0001
0010
0100
1000
0100
0010
1000
0100
0010
0001
0100
,
1000
0100
0010
0001
0100
0000
0000
0000
1001
0000
0000
0000
0110
0000
1000
0000
,
1010
0100
0010
1000
0110
1000
0001
0100
,
0110
0001
0010
0001
0011
0100
0010
0100
,
0110
1000
0010
1000
0110
1000
0001
0100
,
0011
0100
0010
0100
0110
1000
0100
0010
,
1000
0000
0010
0000
1000
0100
0010
0001
0010
0100
1000
0100
0010
0001
0100
0010
,
1000
0001
0100
0010
1001
0000
0100
0000
0010
0000
0100
0000
0001
0000
1000
0000
,
0010
0000
0100
0000
1000
0000
0000
1000
0000
0000
2000
0000
0000
0000
0000
0000
,
0000
3000
0100
0010
1000
0001
0100
0010
,
1000
0000
0001
0000
0100
0000
0000
0010
0000
0000
0002
0000
0000
0000
0000
0000
,
0000
0000
1003
0000
0010
0100
0001
0000
,
1000
0010
0100
0000
1000
0100
0010
1000
,
0001
0100
0010
0000
1000
0000
1000
0000
,
1000
0000
0010
0000
0100
0000
0001
0000
1000
0000
0000
0000
1000
0001
0100
1000
,
0010
0100
0001
0000
0100
0000
0000
0000
1010
0000
0000
0000
0101
0000
0000
0000
,
0011
0000
0110
0000
1001
0000
0110
1000
,
0011
0000
1000
0100
1010
0000
0101
0000
,
1010
0000
0100
1000
1010
0100
0001
0100
,
0110
0000
1001
0000
0110
0000
1000
0100
,
0110
1000
0001
0100
0011
0100
0010
0100
,
0110
1000
0100
1000
1100
0100
0010
0100
,
0110
0000
0100
0000
0110
0000
1001
0000
0101
0000
0001
1000
0100
0010
1000
0100
,
0010
0001
0100
0000
0000
0000
1001
0000
0100
0000
0010
0000
1000
0000
0001
0000
,
0100
0010
1000
0100
0010
0001
0100
0010
,
0001
1000
0011
0000
0100
0000
0010
0000
0100
0000
0110
0000
0000
0110
0000
0000
,
0220
0000
0000
0000
0300
0030
1000
0100
,
0010
0101
0000
1000
0010
0110
0000
1000
,
0010
0001
0100
0000
0010
0000
1000
0000
0100
0000
0010
0000
0001
0000
0010
0000
,
0100
0000
0120
0000
0030
1002
0000
0003
0000
0011
0000
0000
1000
0000
0100
0000
,
0010
0000
0001
0000
0010
0000
0100
0000
1000
0000
0100
0000
1000
0010
0100
1000
,
0010
0100
0001
0010
1000
0100
0010
0001
0100
0010
0001
0100
1001
0000
0000
0000
,
0110
0000
1000
0000
0100
0000
0000
0000
1000
0000
0100
0000
0110
0000
0000
1001
,
0000
0100
0010
0100
0000
1001
0100
0000
,
0010
1000
0100
0000
1000
0100
1010
0000
,
0100
0000
0010
0001
0110
0000
0000
0000
1001
0000
0000
0000
0110
0000
0000
0000
,
0011
0100
0010
0100
0010
0110
1000
0100
,
0010
1000
0100
0010
0001
0010
0110
1000
,
0001
0100
0010
1000
0100
1000
1100
0000
,
0110
0000
0000
0000
1000
0000
1000
0100
0010
1000
0100
0010
0001
0000
0000
0000
,
1001
0000
0100
0000
0010
0000
0100
0000
0001
0000
1000
0000
0110
0000
0000
1001
,
0000
0110
0000
0000
1000
0000
0100
1000
,
0100
0010
0100
0001
1000
0100
1100
0110
,
1001
0000
0000
0110
0000
1001
0000
1000
,
0100
0010
1000
0100
1010
0100
0001
0100
,
0010
1000
0100
1000
0100
0011
0100
0010
,
0100
0010
0100
0010
0100
1001
0100
0010
,
0100
0010
1000
0100
0010
1100
1000
0100
,
0010
0100
0010
0100
0001
0110
0100
0001
,
0100
0010
1000
0100
0010
0110
0001
0010
,
0100
0010
1000
0100
0010
1000
0100
0010
,
0001
0100
0010
1000
0100
0010
1000
0100
,
0010
0001
1000
0100
0010
0000
0010
0000
,
0010
0000
1001
1001
1001
0000
0000
0000
;

//---------------dance-single - ----------------
#NOTES:
     dance-single:
     :
     Medium:
     10:
     0.540,0.543,0.459,0.043,0.016,307.000,43.000,4.000,0.000,0.000,0.000,0.540,0.543,0.459,0.043,0.016,307.000,43.000,4.000,0.000,0.000,0.000:
0000
0000
1001
0000
0110
0000
1000
0100
,
0010
0001
0000
0100
0000
0010
0000
1000
,
0100
0010
0001
0000
0110
0000
1000
0100
,
0010
0001
1000
0100
1000
0100
1000
0100
,
0010
0001
0010
0000
0110
0000
1000
0100
,
0110
0001
0011
0100
,
0110
1000
1100
0100
,
0110
0001
0011
0110
,
1000
1100
1100
0100
,
0110
1000
1000
1000
,
1000
1000
0100
0010
,
0001
0000
0100
0000
1000
0000
0100
1000
,
0100
1000
0100
0000
0010
0000
0100
0000
,
0001
0000
0100
0001
0100
0001
0100
0000
,
1001
0000
0110
0000
1000
0010
1000
0010
,
1000
0100
0110
0001
,
0011
0000
1000
0010
1000
0000
0100
0010
,
0100
0000
0001
0000
0010
0000
1000
0100
,
0010
0001
0100
0000
0110
0000
1000
0000
,
1100
0100
0110
0001
,
0011
0000
0100
0000
0110
0000
1000
1000
,
1000
0000
0100
0000
0010
0000
0001
0001
,
0001
0100
0010
1000
,
1100
1000
1100
0100
,
0110
0001
0011
0100
,
0100
0000
1000
0100
0010
1000
0000
0000
,
0000
0110
0000
1000
0100
0010
0000
1000
,
0100
1000
0000
0100
1000
0100
0000
0100
,
0010
0100
0000
1000
0100
0010
0001
0100
,
0010
0100
0000
1000
0000
0100
0000
1000
,
0000
1000
0100
0010
0001
0010
0000
0100
,
0000
1000
0000
0100
0000
1000
0000
0100
,
0000
0000
2000
0000
0000
0002
3000
0000
0000
1003
0000
0000
0110
0000
0000
0000
,
1000
0000
0100
0000
1000
0000
1000
0100
,
0010
0001
0010
0100
1000
0100
1100
0000
,
1000
0100
0010
0000
1000
0100
0010
0100
,
0001
0100
0010
0000
0100
0000
1000
0100
,
0010
0100
0001
1000
0010
0100
0001
1000
,
0100
0010
0001
0000
0000
0000
0011
0000
,
0100
1000
0100
0010
0100
0001
0000
0000
,
0000
1000
0100
0000
1000
0000
1100
0000
,
1000
0100
0010
1000
0001
0100
0020
0000
,
2030
3000
0000
1010
,
0100
0000
1000
0000
0100
0000
0000
0000
1000
0000
0100
0000
0010
0000
0000
0001
,
0000
0001
0000
0000
0000
0000
1000
0100
,
0010
1000
0001
0100
0010
1000
0001
1000
,
0100
0000
1000
0100
0000
1100
0000
1000
,
0100
0010
0100
0001
1001
0000
0100
0010
,
1000
0001
0100
0010
0000
0010
0000
0010
,
0010
0000
1000
0100
0010
0001
0000
1000
,
0010
0100
0000
1000
0001
0100
0000
1000
,
0100
0010
0001
0100
0010
1000
0000
0100
,
1000
0000
0100
0010
1000
0001
0010
0011
,
0100
0010
0100
0110
1000
0100
0010
0110
,
1000
0001
0100
0011
1000
0010
0100
0110
,
1000
0010
0100
0010
1000
0000
1000
0000
,
1000
0000
1001
1001
1001
0000
0000
0000
;

//---------------dance-single - ----------------
#NOTES:
     dance-single:
     :
     Easy:
     7:
     0.404,0.392,0.342,0.043,0.005,229.000,32.000,4.000,0.000,0.000,0.000,0.404,0.392,0.342,0.043,0.005,229.000,32.000,4.000,0.000,0.000,0.000:
0000
1001
0110
1000
,
0100
1000
0010
0100
,
0001
1000
1100
0100
,
0110
1000
1000
1000
,
1000
0100
0110
0001
,
0011
0100
0110
1000
,
1100
0100
0110
0100
,
0011
0100
0110
1000
,
1100
0100
0010
1000
,
0100
1000
0100
0010
,
0001
0010
0011
0100
,
0010
1000
1000
1000
,
0100
0010
1000
0001
,
0100
0010
1000
1000
,
1000
0001
0100
0010
,
1000
1000
0100
0010
,
0001
2000
0000
0000
,
0000
3000
0002
0000
0000
0000
0000
0000
,
0003
0000
1010
0100
,
0100
1001
0100
0100
,
0100
1010
0100
0100
,
0100
0011
0010
0010
,
0010
0110
1000
1000
,
1000
0110
1000
0100
,
0010
0001
0100
0010
,
0000
0000
0100
1000
0100
1000
0000
0000
,
0000
0100
0000
1000
0000
0100
0000
0010
,
0000
1000
0000
0100
0000
0010
0000
1000
,
0000
0001
0000
0100
0000
0010
0000
0010
,
0000
0010
0000
1000
0000
1000
0000
1000
,
0000
0100
0000
0010
0000
1000
0000
0010
,
0000
1000
0000
0010
0000
1000
0000
0001
,
0000
0000
2000
0000
0000
0002
3000
0000
0003
0000
0000
0000
0100
0000
0000
0000
,
1000
0000
0100
0000
1000
0000
1000
0100
,
0010
0001
0010
0100
1000
0100
0010
0000
,
1001
0000
0100
1000
0100
0000
0010
0000
,
0100
0000
1000
0100
0010
0000
1001
0000
,
0110
0000
0001
1000
0010
0100
0001
0000
,
1000
0100
0010
0000
0100
0000
0110
0000
,
1000
0000
1000
0100
0010
0001
0000
0000
,
0100
1000
0100
1000
,
0100
0010
1000
1000
,
1000
0000
1000
0100
0010
0001
0100
0000
,
0100
0100
0100
1000
,
1000
1000
0100
0010
,
0100
0000
0100
0000
0100
0000
1000
0001
,
0100
0000
0000
0000
0000
1010
0000
0100
,
0000
0100
0000
1000
0000
0100
0000
0010
,
0000
0100
0000
0000
0000
1100
0000
0100
,
0000
0100
0000
0100
0000
0110
0000
1000
,
0000
1000
0000
1000
0000
1001
0000
0100
,
0000
0100
0000
0100
0000
0011
0000
0100
,
0000
0010
0000
1000
0000
0100
0000
1000
,
0000
0100
0000
0010
0000
1000
0000
0110
,
0000
1000
0000
0110
0000
1000
0000
0011
,
0000
0100
0000
0110
0000
1000
0000
0100
,
0000
0000
1000
1000
1000
0000
0000
0000
;

//---------------dance-single - ----------------
#NOTES:
     dance-single:
     :
     Beginner:
     3:
     0.165,0.181,0.021,0.000,0.000,106.000,2.000,0.000,0.000,0.000,0.000,0.165,0.181,0.021,0.000,0.000,106.000,2.000,0.000,0.000,0.000,0.000:
0000
0000
0100
0000
,
0100
0000
0001
0000
,
0001
0000
1000
0000
,
0001
0000
0000
0000
,
0000
1001
0100
1000
,
0000
0000
0100
1000
,
0100
0000
0000
0001
,
0001
0001
0000
0000
,
0000
0100
0000
0000
,
0000
0010
0000
0000
,
0000
0000
0001
0000
,
0000
0010
0000
1000
,
0000
0000
0000
1000
,
0100
0100
0000
0000
,
0000
0001
0000
0000
,
0000
1000
0000
0000
,
0000
0010
0100
0010
,
0100
0010
0000
0000
,
0000
1000
0001
0000
,
1000
0001
0000
0000
,
0001
1000
0000
0000
,
0001
1000
0000
0000
,
0100
0010
0000
0000
,
0100
0010
0000
0000
,
0010
0100
0000
0000
,
0010
0100
0000
0000
,
0000
1000
0000
0000
0000
0000
0000
0000
,
0000
0100
0000
0000
0000
0000
0000
0000
,
0000
1001
0000
0000
0000
0000
0000
0000
,
0000
0100
0000
1000
0000
0100
0000
0000
,
0000
0010
0000
0001
0000
0010
0000
0001
,
0000
0000
0000
0000
,
0000
1000
0000
0000
0000
0000
0100
0000
,
0000
0000
0000
1000
,
1000
1000
1000
1000
,
0000
0000
0000
0001
,
0001
0001
0000
0000
,
0000
0100
0100
0100
,
0000
0000
0000
1000
,
0100
1000
0000
0000
,
0000
0010
0100
0010
,
0000
0000
0000
1000
,
0001
1000
0000
0010
,
0000
0000
0000
1000
,
1000
1000
0000
0001
,
0000
0000
0000
0001
,
1000
0000
0000
0000
0000
0100
0000
0000
,
0000
0000
0000
0000
0000
0010
0000
0000
,
0000
0000
0000
0000
0000
1000
0000
0001
,
0000
1000
0000
0000
0000
0010
0000
0100
,
0000
0010
0000
0000
0000
1000
0000
0100
,
0000
0010
0000
0001
0000
0100
0000
0000
,
0000
0000
0000
0000
0000
1000
0000
0001
,
0000
0000
0000
0000
0000
0000
0000
0100
,
0000
0010
0000
0000
0000
0000
0000
1000
,
0000
0001
0000
0000
0000
0000
0000
0000
,
0000
1000
0001
0000
;
