#TITLE:SHOOT! (AIR Special);
#SUBTITLE:Ro-kyu-bu! Opening Theme;
#ARTIST:Ro-kyu-bu! Composed by fripSide;
#TITLETRANSLIT:;
#SUBTITLETRANSLIT:;
#ARTISTTRANSLIT:;
#GENRE:;
#CREDIT:;
#BANNER:SHOOT! (AIR Special).png;
#BACKGROUND:SHOOT! (AIR Special)-bg.png;
#LYRICSPATH:;
#CDTITLE:;
#MUSIC:SHOOT! (AIR Special).mp3;
#OFFSET:-0.101;
#SAMPLESTART:0.050;
#SAMPLELENGTH:12.000;
#SELECTABLE:YES;
#BPMS:0.000=141.000
;
#STOPS:129.500=0.106,
130.000=0.106
;
#BGCHANGES:;
#KEYSOUNDS:;
#ATTACKS:;

//---------------dance-single - ----------------
#NOTES:
     dance-single:
     :
     Challenge:
     11:
     0.616,0.495,1.000,0.022,0.000,211.000,187.000,2.000,0.000,0.000,0.000,0.616,0.495,1.000,0.022,0.000,211.000,187.000,2.000,0.000,0.000,0.000:
0000
0000
0000
0000
,
0000
0000
0000
1001
0000
0000
0000
1001
,
0000
0000
0000
1010
0000
1001
0000
1010
,
0000
0101
0000
0110
0000
1100
0000
0110
,
0000
0011
0000
0110
0000
1100
0000
0110
,
0000
1001
0100
1100
0000
0110
0000
0101
,
0000
0110
0000
1100
0000
0110
0000
0011
,
0000
0110
0000
1100
0000
0110
0000
0011
,
0000
0110
0000
1100
0000
1100
0000
0110
,
0100
0110
0010
0011
0000
0011
0000
0011
,
0000
1001
0000
1001
0000
1001
0000
1001
,
1000
1100
1000
1001
0000
0101
0000
1001
,
0000
1010
0000
1001
0000
0011
0000
1001
,
0100
1010
0001
1001
0000
0101
0000
1010
,
0000
0101
0000
0110
0000
1001
0000
1100
,
1000
1100
0100
0110
0000
0110
0000
0011
,
0000
0011
0000
0110
0000
0110
0000
1100
,
0100
0110
0100
0110
0000
1001
0000
0011
,
0000
1001
0000
1010
0000
1001
0000
1010
,
0010
0101
0100
0110
0000
1001
0000
0110
,
0000
1100
0000
0110
0000
0011
0000
0110
,
0100
1100
0100
0110
0000
1001
0000
0110
,
0000
1100
0000
0110
0000
1001
0000
0110
,
0100
1100
0100
0110
0000
0011
0000
0110
,
0000
1100
0000
1001
0000
1010
0000
0101
,
0000
1010
0000
0101
0000
1100
0000
0110
,
0000
1001
0000
0110
0000
0011
0000
0110
,
0000
1100
0000
1010
0000
0101
0000
0110
,
0000
1001
0000
0110
0000
1100
0000
0110
,
0000
1001
0000
0110
0000
0011
0000
0110
,
0000
1100
0000
0110
0000
0011
0000
0110
,
0000
1100
0000
0110
0000
1001
0000
0110
,
0000
1001
0000
1001
1001
1001
0000
0000
,
0110
1001
0110
1001
,
1100
0110
0011
0110
,
0110
1001
1010
1100
,
0110
0011
1001
1001
,
1001
1010
1010
0110
,
0110
0000
0011
0000
1001
1000
0001
0000
,
1001
1001
1010
1010
,
0110
0000
0110
0000
0110
0000
1001
1000
,
1001
1000
1001
0000
1001
0000
0110
0000
,
0101
0110
1000
0110
,
0101
0110
1010
0101
,
0110
1100
1001
1000
,
0100
1010
1001
0101
,
0110
1100
0110
1001
,
0110
0011
0011
1001
,
1001
1100
1100
1010
,
0101
2002
0000
0000
,
0000
0000
0000
0000
,
3003
0000
0000
0000
;
