#TITLE:SHADE;
#SUBTITLE:[NORMAL];
#ARTIST:dj MURASAME vs. dj KILLER;
#TITLETRANSLIT:;
#SUBTITLETRANSLIT:;
#ARTISTTRANSLIT:;
#CREDIT:;
#BANNER:SHADE [NORMAL].png;
#BACKGROUND:SHADE [NORMAL]-bg.png;
#LYRICSPATH:;
#CDTITLE:;
#MUSIC:SHADE [NORMAL].mp3;
#OFFSET:0.000;
#SAMPLESTART:100.030;
#SAMPLELENGTH:12.000;
#SELECTABLE:YES;
#BPMS:0.000=151.000;
#STOPS:;
#BGCHANGES:;

//---------------dance-single - ----------------
#NOTES:
     dance-single:
     :
     Easy:
     8:
     0.460,0.528,0.380,0.149,0.000: // measure 1
0000
0000
0000
0000
,  // measure 2
0000
0000
0000
0000
,  // measure 3
0000
0000
0000
0000
,  // measure 4
0000
0000
0000
0000
,  // measure 5
1000
1000
0100
0100
,  // measure 6
0010
0000
1001
0000
0100
0010
0100
0000
,  // measure 7
0001
0000
1001
0000
0010
0100
0010
0100
,  // measure 8
0010
0000
1000
0000
1000
0001
1000
0000
,  // measure 9
0010
0000
0100
0000
0001
2000
0000
3000
,  // measure 10
1001
0000
0010
0000
0100
0010
0100
0000
,  // measure 11
1000
0000
0100
0000
0001
0010
0100
1000
,  // measure 12
0010
0000
0010
0000
1000
0001
1000
0000
,  // measure 13
0010
0000
1001
0000
0100
0010
0100
0010
,  // measure 14
0100
0000
1001
0000
0100
0010
0100
0000
,  // measure 15
1000
0000
1001
0000
0100
0001
0100
0000
,  // measure 16
0010
0000
1001
0000
0010
0100
0010
0000
,  // measure 17
1000
0100
0010
0001
0100
0010
1000
0010
,  // measure 18
2000
0000
3100
0020
0000
0000
1030
0100
,  // measure 19
0010
0000
0000
0000
0010
1000
0000
0020
,  // measure 20
0000
0030
0000
0010
1000
0010
0000
0000
,  // measure 21
0100
0001
0000
0000
0010
0001
2000
0000
,  // measure 22
3010
0000
0010
1000
0010
0000
0010
0100
,  // measure 23
0020
0000
0000
0000
1030
0010
0000
0020
,  // measure 24
0000
0000
0000
0000
1030
0010
0000
0000
,  // measure 25
0100
0001
0000
0000
1000
0010
0200
0000
,  // measure 26
0301
0001
0001
0001
,  // measure 27
1000
0000
0010
0000
0100
0001
0000
1000
,  // measure 28
0000
0000
0000
0000
0010
0100
0000
0000
,  // measure 29
0001
1000
0000
0000
0010
0000
0100
0000
,  // measure 30
1001
0000
1001
0000
1001
0000
2002
3003
,  // measure 31
0110
0110
0110
0110
,  // measure 32
1100
1100
1100
1100
,  // measure 33
0011
0011
0011
0011
,  // measure 34
1000
0010
1000
0000
1001
0000
1001
0000
,  // measure 35
1001
0000
0100
0000
0010
0100
0010
0100
,  // measure 36
0010
0011
0101
0101
,  // measure 37
0101
0000
1010
0000
1000
0010
1000
0010
,  // measure 38
2000
0000
3001
0100
,  // measure 39
0010
0100
0010
0100
0010
0000
1000
0000
,  // measure 40
0100
0010
0100
0010
1000
0000
0001
0000
,  // measure 41
0100
0010
1000
0000
0110
0000
0100
0000
,  // measure 42
0010
0100
0010
0000
1000
0000
1001
0000
,  // measure 43
0100
0010
0100
0000
1000
0001
1000
0000
,  // measure 44
0100
0000
1000
0000
0100
0010
0100
0000
,  // measure 45
1000
0100
0010
0000
0100
0000
0101
0000
,  // measure 46
1000
0100
0010
0000
0100
0000
0100
0010
,  // measure 47
1000
0001
1000
0000
0100
0010
0100
0000
,  // measure 48
0100
0100
0010
1000
,  // measure 49
0010
1000
0010
0000
1000
0010
0000
0100
,  // measure 50
0010
0000
0100
0000
0010
0100
0010
0000
,  // measure 51
1000
0010
0100
0001
0100
1000
0100
0010
,  // measure 52
0001
0100
0110
0010
,  // measure 53
0100
0000
0010
0100
0010
0100
0010
0000
,  // measure 54
1000
0000
0010
0000
0100
0001
0100
0010
,  // measure 55
0100
0000
0100
0000
0100
0010
0100
0000
,  // measure 56
1000
0000
1010
0000
0100
0001
0100
0000
,  // measure 57
0010
0000
0101
0000
0100
0010
0100
0000
,  // measure 58
0010
0000
1010
0000
0100
0010
0100
0000
,  // measure 59
1000
0000
1100
0000
0100
0010
0100
0000
,  // measure 60
0010
0000
0011
0000
0100
0001
0100
0000
,  // measure 61
0010
0000
1001
0000
0100
0000
1000
0100
,  // measure 62
0100
0000
0010
0000
0100
0010
0100
0010
,  // measure 63
0100
1000
0100
0010
0100
0000
0001
0000
,  // measure 64
1002
0100
0100
0100
,  // measure 65
0203
0010
0010
0310
,  // measure 66
1002
1000
1000
1003
,  // measure 67
2001
0001
0001
3001
,  // measure 68
0120
0100
0100
0130
,  // measure 69
0210
0010
0010
0310
,  // measure 70
1000
1000
0001
0001
,  // measure 71
1000
1000
0002
0000
,  // measure 72
1003
0000
0000
0000
;
