#TITLE:SHADE;
#SUBTITLE:[ANOTHER];
#ARTIST:dj MURASAME vs. dj KILLER;
#TITLETRANSLIT:;
#SUBTITLETRANSLIT:;
#ARTISTTRANSLIT:;
#CREDIT:;
#BANNER:SHADE [ANOTHER]-bg.png;
#BACKGROUND:SHADE [ANOTHER].png;
#LYRICSPATH:;
#CDTITLE:;
#MUSIC:SHADE [ANOTHER].mp3;
#OFFSET:0.000;
#SAMPLESTART:100.050;
#SAMPLELENGTH:12.000;
#SELECTABLE:YES;
#BPMS:0.000=151.000;
#STOPS:296.000=1.192
,296.500=1.589
,297.000=1.192
;
#BGCHANGES:;

//---------------dance-single - ----------------
#NOTES:
     dance-single:
     :
     Hard:
     16:
     0.799,1.000,0.932,0.377,0.221: // measure 1
0000
0000
0000
0000
,  // measure 2
0000
0000
0000
0000
,  // measure 3
0000
0000
0000
0000
,  // measure 4
0000
0000
0000
0000
,  // measure 5
1010
0000
0110
0000
1000
0001
1001
0100
,  // measure 6
0010
0100
1010
0100
0001
1000
1001
1000
,  // measure 7
0010
1000
1010
0100
0001
0100
0101
1000
,  // measure 8
0010
1000
1010
0000
0100
0010
0110
0000
,  // measure 9
0100
0000
1010
0000
0100
0010
0110
1000
,  // measure 10
0001
1000
1001
0100
0010
1000
1100
0000
,  // measure 11
0100
0010
0110
0100
0010
0100
0010
0100
,  // measure 12
0010
0001
0110
0100
0010
0100
0010
0100
,  // measure 13
1010
0000
0100
0010
0100
0000
0001
0000
0100
0000
0010
0000
2020
0000
3000
0000
,  // measure 14
0130
0000
0010
0100
0010
0000
0100
0000
0010
0000
0100
0000
2020
0000
3000
0000
,  // measure 15
0130
0000
0100
0010
0100
0000
0010
0000
1000
0000
0001
0000
2002
0000
3000
0000
,  // measure 16
0103
0000
0001
1000
0001
0000
0010
0000
1000
0000
0010
0000
2020
0000
0030
0000
,  // measure 17
3100
0000
1000
0001
1000
0000
0010
0000
0100
0000
0001
0000
0202
0000
0300
0000
,  // measure 18
0013
0000
0100
1000
0010
0000
1000
0000
0010
0000
0100
0000
2020
0000
0030
0000
,  // measure 19
3100
0000
0010
0001
0100
0000
0001
0000
0100
0000
0010
0000
0022
0000
0003
0000
,  // measure 20
0000
0230
0000
0000
0320
0000
0000
2030
0000
0000
0000
3002
0000
0203
0000
0300
,  // measure 21
0100
0010
0200
0000
1300
0000
0100
0020
,  // measure 22
0000
0130
0010
1000
0010
0100
0020
0000
,  // measure 23
1030
0100
0010
0000
1002
0000
0103
0120
,  // measure 24
0000
2030
0000
3020
0000
0130
0002
0000
,  // measure 25
1003
1000
0002
0000
0013
0000
0100
0002
,  // measure 26
0000
0013
0000
1000
0100
0010
2000
0000
,  // measure 27
3001
0100
0020
0000
1030
0000
1000
0020
,  // measure 28
0000
0130
0000
0100
0010
0100
0010
0100
,  // measure 29
0010
0000
0000
0000
1010
0000
0000
0000
0100
0000
0100
0001
0200
0000
0000
0000
,  // measure 30
1300
0000
0001
0000
1000
0000
0001
0000
1000
0000
0010
0100
2000
0000
0000
0000
,  // measure 31
3010
0000
0100
0000
0010
0000
0100
0000
0010
0000
1000
0100
0020
0000
0000
0000
,  // measure 32
1030
0000
0010
0000
0100
0000
0010
0000
0100
0000
0010
0100
1000
0100
0010
0001
,  // measure 33
0010
0000
0100
0000
0010
0000
0100
0000
0001
0000
1000
0100
0002
0000
0000
0000
,  // measure 34
1003
0000
0010
0000
0100
0000
0010
0000
0100
0000
0010
0001
0200
0000
0000
0000
,  // measure 35
1300
0000
0001
0000
0100
0000
0010
0000
0100
0000
0010
0100
2000
0000
0000
0000
,  // measure 36
3010
0000
0100
0000
0010
0000
0100
0000
0001
0010
0100
0010
0001
0010
0100
1000
,  // measure 37
0001
0000
0000
0000
0110
0000
0000
0000
1000
0000
0010
0100
0110
0000
0000
0000
,  // measure 38
1000
0000
0001
0000
1000
0000
0010
0000
1000
0000
0010
0001
0101
0000
0000
0000
,  // measure 39
0100
0000
0010
0000
0100
0000
0010
0000
1000
0000
0010
0100
0110
0000
0000
0000
,  // measure 40
0100
0000
0001
0000
0100
0000
0010
0000
0100
0000
0001
0100
0101
0000
0000
0000
,  // measure 41
0010
0000
0100
0000
0010
0000
0100
0000
1000
0000
0100
0010
0110
0000
0000
0000
,  // measure 42
0100
0000
0010
0000
1000
0000
0010
0000
0100
0000
0010
1000
1010
0000
0000
0000
,  // measure 43
0100
0000
0010
0000
0100
0000
0010
0000
0001
0000
0010
0100
0110
0000
0000
0000
,  // measure 44
0010
0011
0100
0110
,  // measure 45
1000
0000
0100
0001
0010
0000
0100
0001
0010
0000
0100
0000
0010
0000
1000
0000
,  // measure 46
0010
0000
0100
1000
0010
0000
0100
1000
0010
0000
0100
0000
0010
0000
0000
0000
,  // measure 47
1000
0000
0100
0010
0100
0000
0010
0100
0010
0000
0010
0000
0100
0000
0000
0000
,  // measure 48
1000
0000
0100
0001
0010
0000
0010
1000
0001
1000
0001
1000
0001
1000
0001
0100
,  // measure 49
0110
0000
1001
0100
1001
0000
1010
0000
,  // measure 50
0100
0000
0010
0000
1001
0000
0000
0000
1000
0100
0010
0001
0010
0100
1000
0100
,  // measure 51
0020
0000
0031
0000
1010
0100
0110
0100
,  // measure 52
0010
0000
0100
0000
0010
0000
0100
0000
2000
0000
0000
3000
0110
0000
0000
0000
,  // measure 53
0010
0100
0010
0100
0001
0010
0100
0010
,  // measure 54
1000
0000
0010
0000
0100
0000
0010
0000
0002
0000
0000
0003
0110
0000
0000
0000
,  // measure 55
0100
0010
0100
0010
0100
0010
0110
0000
,  // measure 56
1000
0010
0100
1000
0100
0010
1100
0000
,  // measure 57
0100
0010
0100
0010
0100
0010
0110
0000
,  // measure 58
1000
0100
0010
0001
0100
0010
0100
0010
,  // measure 59
1010
0000
0110
0010
0100
0010
1010
0000
,  // measure 60
0010
0100
0010
0100
0010
0100
1001
0000
,  // measure 61
0110
0100
0010
0100
0001
0100
0101
0000
,  // measure 62
0110
0100
0010
0100
1000
0100
1100
0000
,  // measure 63
0100
0010
0100
0010
0100
0010
0110
0000
,  // measure 64
0010
0001
0100
0001
0100
0010
1010
0000
,  // measure 65
0110
0000
1010
0000
0100
0001
0101
0000
,  // measure 66
1000
0010
0100
0010
0100
0010
1000
0010
,  // measure 67
1100
1100
0110
0110
1010
1010
0101
0101
,  // measure 68
0110
0110
1010
1010
0101
0101
1001
1001
,  // measure 69
0110
0110
1010
1010
1100
1100
0110
0110
,  // measure 70
0010
0011
0010
0010
0110
0110
0110
0110
,  // measure 71
1001
1001
1010
1010
0101
0101
0110
0110
,  // measure 72
1100
1100
0110
0110
0011
0011
1001
1001
,  // measure 73
0110
0110
0011
0011
0110
0110
1100
1100
,  // measure 74
1000
0010
1000
0010
0100
0001
0100
0001
0100
0010
0100
0010
1000
0001
1000
0001
,  // measure 75
2000
3000
0220
0330
0022
0033
2000
0000
0000
0000
0000
0000
0000
0000
0000
0000
,  // measure 76
0000
0000
3000
0000
;
