#TITLE:Programmed Sun (xac Antarctic Ocean mix);
#SUBTITLE:;
#ARTIST:Remixed by xac;
#TITLETRANSLIT:;
#SUBTITLETRANSLIT:;
#ARTISTTRANSLIT:;
#GENRE:;
#CREDIT:;
#BANNER:Programmed Sun (xac Antarctic Ocean mix).png;
#BACKGROUND:Programmed Sun (xac Antarctic Ocean mix)-bg.png;
#LYRICSPATH:;
#CDTITLE:;
#MUSIC:Programmed Sun (xac Antarctic Ocean mix).mp3;
#OFFSET:-0.167;
#SAMPLESTART:100.050;
#SAMPLELENGTH:12.000;
#SELECTABLE:YES;
#BPMS:0.000=140.000
;
#STOPS:
;
#BGCHANGES:;
#KEYSOUNDS:;
#ATTACKS:;

//---------------dance-single - ----------------
#NOTES:
     dance-single:
     :
     Hard:
     11:
     0.525,0.475,0.181,0.039,0.000,440.000,23.000,5.000,0.000,0.000,0.000,0.525,0.475,0.181,0.039,0.000,440.000,23.000,5.000,0.000,0.000,0.000:
0000
1001
0000
0100
0010
0100
0000
1000
,
0010
0100
0000
0001
1000
0010
1000
0001
,
0000
1000
0010
1000
0000
1000
0100
0010
,
0000
0100
0001
0100
0000
1000
0010
1000
,
0000
0010
0100
0010
0100
0010
1000
0010
,
0000
1000
0010
0100
0000
1000
0100
0010
,
0000
0100
0001
0100
0010
1000
0010
1000
,
0000
0001
0100
0001
0000
1000
0010
1000
,
0000
1000
0100
0010
0001
0100
0000
1000
,
0010
1000
0010
1000
0010
0100
0010
0100
,
0010
1000
0100
0010
0001
0100
0010
0100
,
0001
1000
0001
1000
0000
0001
1000
0001
,
1000
0010
0000
0100
0000
1000
0010
1000
,
0010
1000
0000
0010
0000
0100
0001
0100
,
0001
0100
0000
0010
0000
1000
0001
1000
,
0001
1000
0000
1000
0000
0100
0010
0100
,
0000
1000
0100
0010
0001
0100
0000
1000
,
0100
0010
0100
0010
0100
0010
0100
0010
,
0100
1000
0100
0010
0001
0100
0001
0100
,
0001
1000
0100
0010
0001
0100
0010
0100
,
0010
0001
0010
0100
1000
0100
0010
0100
,
0001
1000
1000
0100
0100
0010
0010
0001
,
0001
0010
0010
0100
0100
1000
1000
0100
,
0100
0010
0001
0010
0100
1000
0100
0010
,
0001
0100
0010
0100
0010
1000
0100
0010
,
0001
2000
0000
0000
0000
0000
0000
0000
,
0000
0000
0000
0000
,
0000
3001
0000
0100
0000
0010
0000
1000
,
0000
2002
0000
0000
0000
0000
0000
0000
,
3003
0100
1000
0100
0010
0000
0001
0010
,
0100
0000
1000
0010
0100
0000
1000
0010
,
0100
1000
0100
0010
0001
0000
0100
0010
,
0100
0000
0001
0010
0100
0000
1000
0100
,
0010
1000
0100
0010
0001
0000
0100
0010
,
0100
0000
0001
0010
0100
0000
1000
0010
,
0000
1001
0100
0010
0100
0000
1000
0100
,
1001
0000
0100
0010
0100
0000
0001
0010
,
0000
0100
0010
0100
0110
0000
1000
0001
,
1001
0000
0010
0100
0010
0000
1000
0100
,
0001
0100
0010
0100
0010
0000
1000
0001
,
1001
0000
0100
0010
0100
0000
1000
0100
,
0010
0001
0010
0100
0010
0000
1000
0100
,
0010
0000
0001
0010
0100
0000
1000
0100
,
0000
0001
1000
0001
1000
0000
0010
0100
,
0010
0000
1000
0100
0010
0000
0100
0001
,
0000
1001
0000
1000
0000
0010
0100
0001
,
0100
0001
0000
0100
0000
0100
0010
0100
,
0010
0100
0000
1000
0000
1000
0100
0010
,
0100
0010
0000
0100
0000
0001
0000
0100
,
0000
1000
1000
0100
0100
0010
0010
0001
,
0001
0010
0010
0100
0100
1000
1000
0100
,
0100
1000
0100
0010
0001
0010
0100
1000
,
0100
1001
0000
0101
0000
0101
0000
1001
,
0000
1000
0010
1000
0000
0100
0010
0100
,
0010
0100
0010
1000
0000
0001
0000
1000
,
0001
1000
0001
1000
0000
0010
0100
0010
,
0100
0010
0100
0001
0100
0001
0100
1000
,
0100
0010
0001
1000
0000
0010
0100
0001
,
0100
1000
0100
0010
0001
0100
0010
0100
,
0001
1000
0001
1000
0001
1000
0100
0010
,
0001
0100
0010
0100
0001
1001
0000
0100
,
0001
0101
0000
1000
0010
1010
0000
0100
,
0010
0110
0000
0100
0001
0101
0000
1000
,
0010
1010
0000
0100
0001
0101
0000
1000
,
0010
1010
0000
0100
0010
0110
0000
1000
,
0001
1001
0100
0100
0010
0010
0010
0001
,
0001
0001
0010
0010
0010
0100
0100
0100
,
1000
1000
0100
0000
0000
0010
0000
0100
,
0000
0001
0000
1000
0100
0010
1000
0001
,
1000
2002
0000
0000
0000
0000
0000
0000
,
0000
0000
0000
0000
,
0000
3003
0000
0000
0000
0000
0000
0000
;

//---------------dance-single - ----------------
#NOTES:
     dance-single:
     :
     Medium:
     9:
     0.365,0.335,0.110,0.055,0.000,304.000,14.000,7.000,0.000,0.000,0.000,0.365,0.335,0.110,0.055,0.000,304.000,14.000,7.000,0.000,0.000,0.000:
0000
1000
0000
1000
0000
1000
0000
1000
,
0000
1000
0010
1000
0000
0100
0010
0100
,
0000
0010
0001
0010
0000
1000
0001
1000
,
0000
0010
0100
0010
0000
1000
0001
1000
,
0000
0010
0100
0010
0000
1000
0001
1000
,
0000
0100
0010
0100
0000
0010
0001
0010
,
0000
1000
0001
1000
0000
0010
0100
0010
,
0000
1000
0100
1000
0000
0100
0010
0100
,
0000
1000
0001
0100
0010
1000
0000
1000
,
0000
1000
0000
0001
0000
0001
0000
0100
,
0000
0010
0000
1000
0000
0001
0000
1000
,
0000
0010
0000
0100
0000
1000
0000
0100
,
0000
0010
0000
0001
0000
1000
0000
0001
,
1000
1001
0000
0100
0000
0010
0000
1000
,
0000
0001
0000
0100
0000
0010
0000
1000
,
0001
1001
0000
1000
0000
1000
0000
1000
,
0000
0100
0000
0010
0000
0001
0000
1000
,
0001
1000
0000
1000
0000
0100
0000
0100
,
0000
0010
0000
0010
0000
0001
0000
0001
,
0000
1000
0000
1000
0000
1000
0000
1000
,
0000
0001
0000
0001
0000
0001
0000
0001
,
0000
1000
0100
0010
0001
0000
0000
0000
,
0000
0001
0010
0100
1000
0000
0000
0000
,
0000
1000
0100
0010
0001
0000
0000
0000
,
0000
1000
0001
0010
0100
1000
0000
1000
,
0100
2002
0000
0000
0000
0000
0000
0000
,
0000
0000
0000
0000
,
0000
0000
0000
0000
,
3003
2002
0000
0000
0000
0000
0000
0000
,
3003
1000
0100
0010
0001
0000
0001
0010
,
0100
0000
1000
0100
0010
0000
1000
0100
,
0000
1000
0001
0010
0100
0000
1000
0010
,
0100
0000
1000
0000
0010
0000
0100
0001
,
0000
1000
0100
0010
0001
0000
1000
0000
,
0001
0000
0100
0010
0100
0000
1000
0001
,
0000
2000
0000
0000
0000
0000
3000
0000
,
0001
0000
0100
0010
0100
0000
0000
1000
,
0000
1000
0001
0100
0010
0000
0000
0000
,
1001
0000
0100
1000
0100
0000
0000
0010
,
0000
1000
0100
0010
0001
0000
0000
0000
,
1001
0000
0100
0010
0100
0000
0000
1000
,
0000
0000
0001
1000
0001
0000
0000
0000
,
0110
0000
0000
0000
0000
0000
1000
0001
,
0000
1001
0000
0000
0000
0000
0000
0100
,
0110
0000
0000
0000
0000
1000
0000
0001
,
0000
1001
0000
0000
0000
0000
0000
1000
,
0010
0110
0000
0000
0000
0000
0000
0001
,
1000
1001
0000
0000
0000
0000
0000
0010
,
0100
0110
0000
0000
0000
0000
0000
0000
,
0000
1000
0100
0010
0001
0000
0000
0000
,
0000
0001
0010
0100
1000
0000
0000
0000
,
0000
1000
0100
0010
0001
1000
0100
0010
,
0001
1000
0100
0010
0001
0001
0000
0001
,
0000
1000
0000
0010
0000
0100
0010
0100
,
0000
1000
0000
1000
0000
0100
0010
0100
,
0010
1000
0000
1000
0000
0001
0000
0001
,
0000
0100
0000
0010
0000
1000
0010
1000
,
0010
0100
0000
0100
0000
0100
0000
0010
,
0000
0010
0000
1000
0000
1000
0000
0010
,
0100
0010
0000
0100
0000
0100
0000
0100
,
0000
1000
0100
0010
0001
1000
0000
0001
,
0000
1000
0000
1000
0000
1000
0000
1000
,
0000
0010
0000
0010
0000
0010
0000
0010
,
0000
1000
0100
0010
0001
1000
0000
1000
,
0000
1000
0000
0010
0000
0010
0000
0010
,
0000
1000
1000
0100
0100
0010
0010
0001
,
0001
0000
1000
0001
0000
0100
0000
0001
,
0000
1000
0000
1000
0000
0010
0000
0010
,
0000
1000
0000
0001
0000
1000
0000
0001
,
0000
2002
0000
0000
0000
0000
0000
0000
,
0000
0000
0000
0000
,
0000
3003
0000
0000
0000
0000
0000
0000
;

//---------------dance-single - ----------------
#NOTES:
     dance-single:
     :
     Easy:
     5:
     0.257,0.307,0.071,0.126,0.000,204.000,9.000,16.000,0.000,0.000,0.000,0.257,0.307,0.071,0.126,0.000,204.000,9.000,16.000,0.000,0.000,0.000:
0000
0010
0000
0000
0000
0000
0000
0000
,
0000
1000
0010
1000
0000
0010
0000
0010
,
0000
0000
0000
0000
0000
1000
0001
1000
,
0000
0010
0000
0010
0000
0000
0000
0000
,
0000
1000
0001
1000
0000
0010
0000
0010
,
0000
0001
1000
0001
0000
0010
0000
0010
,
0000
0100
0010
0100
0000
0010
0000
0010
,
0000
1000
0000
1000
0000
0001
0000
0001
,
0000
1000
0000
0100
0000
0010
0000
1000
,
0100
1001
0000
0100
0000
0100
0000
0100
,
0000
0100
0000
0100
0000
0100
0000
0010
,
0100
0010
0000
0001
0000
0001
0000
0001
,
0000
1000
0000
1000
0000
0001
0000
1000
,
0001
1000
0000
0100
0000
0100
0000
0100
,
0000
0010
0000
0010
0000
0010
0000
0001
,
1000
0001
0000
0100
0000
0100
0000
0100
,
0000
1000
0000
0100
1000
0100
0000
1000
,
0100
1001
0000
0001
0000
0001
0000
0001
,
0000
1000
0000
1000
0000
1000
0000
1000
,
0000
0010
0000
0010
0000
0001
0000
0001
,
0000
1000
0000
1000
0000
0100
0000
0100
,
0000
1000
0000
1000
0000
0100
0000
0100
,
0000
0010
0000
0010
0000
0001
0000
0001
,
0000
1000
0000
1000
0000
0100
0000
0100
,
0000
0001
0000
0010
0000
0100
0000
0100
,
0000
0101
0000
0000
0000
0000
0000
0000
,
0000
0000
0000
0000
,
0000
1000
0000
0000
0000
0000
0000
0000
,
0000
2002
0000
0000
0000
0000
0000
3003
,
0000
2000
0000
0000
0000
0000
0000
3000
,
0002
0000
0000
0000
0000
0000
0000
0003
,
0000
2000
0000
0000
0000
0000
3000
0000
,
0002
0000
0000
0000
0000
0000
0000
0003
,
0000
2000
0000
0000
0000
0000
0000
3000
,
0020
0000
0000
0000
0000
0000
0000
0030
,
0000
1001
0000
0000
0000
0000
0000
0000
,
2000
0000
0000
0000
0000
0000
0000
3000
,
0000
0100
0000
0000
0000
0000
0000
0000
,
0002
0000
0000
0000
0000
0000
0000
0003
,
0000
1000
0000
0000
0000
0000
0000
0000
,
0020
0000
0000
0000
0000
0000
0000
0030
,
0000
1000
0000
0000
0000
0000
0000
0000
,
2002
0000
0000
0000
0000
0000
0000
3003
,
0000
2000
0000
0000
0000
0000
0000
3000
,
0000
0000
0000
0000
,
0000
1000
0000
1000
0000
0000
0000
0000
,
0000
0001
0000
0001
0000
0010
0000
0010
,
0000
1000
0000
1000
0000
0100
0000
0100
,
0000
0010
0000
0010
0000
0001
0000
0001
,
0000
1000
1000
0000
0000
0000
0000
0000
,
0000
0001
0001
0000
0000
0000
0000
0000
,
0000
0100
0000
0100
0000
1000
0000
1000
,
0000
0100
0000
0010
0000
0001
0000
1001
,
0000
0100
0000
0100
0000
0010
0000
0010
,
0000
1000
0000
1000
0000
0000
0000
0000
,
0000
0010
0000
0010
0000
0100
0000
0010
,
0000
1000
0000
0001
0000
0001
0000
0000
,
0000
1000
0000
0010
0000
0100
0000
0100
,
0000
0001
0000
0001
0000
0010
0000
0010
,
0000
1000
0000
1000
0000
0100
0000
0100
,
0000
1000
0000
0001
0000
1001
0000
0000
,
0000
1000
0000
0000
0000
1000
0000
0000
,
0000
0100
0000
0000
0000
0000
0000
0100
,
0000
0010
0000
0100
0000
0010
0000
0000
,
0000
1000
0000
0001
0000
1000
0000
0001
,
0000
1000
0000
1000
0000
0010
0000
0010
,
0000
0100
0000
0100
0000
0001
0000
0001
,
0000
1000
0000
0100
0000
0010
0000
0001
,
0000
1000
0000
0001
0000
1000
0000
0001
,
0000
2002
0000
0000
0000
0000
0000
0000
,
0000
0000
0000
0000
,
0000
3003
0000
0000
0000
0000
0000
0000
;

//---------------dance-single - ----------------
#NOTES:
     dance-single:
     :
     Beginner:
     2:
     0.100,0.168,0.039,0.047,0.000,78.000,5.000,6.000,0.000,0.000,0.000,0.100,0.168,0.039,0.047,0.000,78.000,5.000,6.000,0.000,0.000,0.000:
0000
0000
0000
0000
,
0000
0010
0000
0000
0000
0000
0000
0000
,
0000
0100
0000
0000
0000
0000
0000
0000
,
0000
0001
0000
0000
0000
0000
0000
0000
,
0000
0010
0000
0000
0000
0000
0000
0000
,
0000
1000
0000
0000
0000
0000
0000
0000
,
0000
0100
0000
0000
0000
0000
0000
0000
,
0000
0010
0000
0000
0000
0000
0000
0000
,
0000
0001
0000
0000
0000
0000
0000
0000
,
0000
1000
0000
0000
0000
0000
0000
0000
,
0000
1000
0000
0000
0000
0000
0000
0000
,
0000
0010
0000
0000
0000
0000
0000
0000
,
0000
0010
0000
0000
0000
0000
0000
0000
,
0000
0001
0000
0000
0000
0000
0000
0000
,
0000
0001
0000
0000
0000
0000
0000
0000
,
0000
1000
0000
0000
0000
0000
0000
0000
,
0000
0100
0000
0000
0000
0000
0000
0000
,
0000
0010
0000
0000
0000
0000
0000
0000
,
0000
1000
0000
0000
0000
0000
0000
0000
,
0000
0001
0000
0000
0000
0000
0000
0000
,
0000
0010
0000
0000
0000
0000
0000
0000
,
0000
0100
0000
0000
0000
0000
0000
0000
,
0000
0100
0000
0000
0000
0000
0000
0000
,
0000
0010
0000
0000
0000
0000
0000
0000
,
0000
0001
0000
0000
0000
0000
0000
0000
,
0000
2002
0000
0000
0000
0000
0000
0000
,
0000
0000
0000
0000
,
0000
3003
0000
0000
0000
0000
0000
0000
,
0000
2002
0000
0000
0000
0000
0000
0000
,
3003
0000
0000
0000
,
0100
0000
0000
0000
,
0000
0010
0000
0000
0000
0000
0000
0000
,
1000
0000
0000
0000
,
0000
0010
0000
0000
0000
0000
0000
0000
,
0001
0000
0000
0000
,
0000
0100
0000
0000
0000
0000
0000
0000
,
1000
0000
0000
0000
,
0000
0010
0000
0000
0000
0000
0000
0000
,
0001
0000
0000
0000
,
0000
0100
0000
0000
0000
0000
0000
0000
,
1000
0000
0000
0000
,
0000
0010
0000
0000
0000
0000
0000
0000
,
0100
0000
0000
0000
,
0000
0001
0000
0000
0000
0000
0000
0000
,
0000
0100
0000
0000
0000
0000
0000
0000
,
0000
1000
0000
0000
0000
0000
0000
0000
,
0000
0100
0000
0000
0000
0000
0000
0000
,
0000
0010
0000
0000
0000
0000
0000
0000
,
0000
0001
0000
0000
0000
0000
0000
0000
,
0000
1000
0000
1000
0000
1000
0000
0000
,
0000
0001
0000
0001
0000
0001
0000
0000
,
0000
0010
0000
0010
0000
0010
0000
0000
,
0000
0100
0000
0100
0000
0100
0000
0000
,
0000
1000
0000
0000
0000
0000
0000
0000
,
0000
0100
0000
0000
0000
0000
0000
0000
,
0000
0010
0000
0000
0000
0000
0000
0000
,
0000
0001
0000
0000
0000
0000
0000
0000
,
0000
0100
0000
0000
0000
0000
0000
0000
,
0000
0010
0000
0000
0000
0000
0000
0000
,
0000
1000
0000
0000
0000
0000
0000
0000
,
0000
0001
0000
0000
0000
0000
0000
0000
,
0000
1001
0000
0000
0000
0000
0000
0000
,
0000
0110
0000
0000
0000
0000
0000
0000
,
0000
1000
0000
0000
0000
0000
0000
0000
,
0000
0001
0000
0000
0000
0000
0000
0000
,
0000
0100
0000
0000
0000
0100
0000
0000
,
0000
0010
0000
0000
0000
0010
0000
0000
,
0000
1000
0000
0000
0000
1000
0000
0000
,
0000
0001
0000
0000
0000
0001
0000
0000
,
0000
2002
0000
0000
0000
0000
0000
0000
,
0000
0000
0000
0000
,
0000
3003
0000
0000
0000
0000
0000
0000
;
