#TITLE:Pray;
#SUBTITLE:Gintama 1st Opening Theme;
#ARTIST:Tommy heavenly6;
#TITLETRANSLIT:;
#SUBTITLETRANSLIT:;
#ARTISTTRANSLIT:;
#GENRE:;
#CREDIT:;
#BANNER:Pray.png;
#BACKGROUND:Pray-bg.png;
#LYRICSPATH:;
#CDTITLE:;
#MUSIC:Pray.mp3;
#OFFSET:-0.078;
#SAMPLESTART:0.050;
#SAMPLELENGTH:12.000;
#SELECTABLE:YES;
#BPMS:0.000=178.121
;
#STOPS:
;
#BGCHANGES:;
#KEYSOUNDS:;
#ATTACKS:;

//---------------dance-single - ----------------
#NOTES:
     dance-single:
     :
     Hard:
     14:
     0.684,0.670,0.135,0.350,0.000,381.000,12.000,31.000,0.000,0.000,0.000,0.684,0.670,0.135,0.350,0.000,381.000,12.000,31.000,0.000,0.000,0.000:
0000
0000
1000
1000
,
1000
0010
0100
0010
0100
2000
0100
0010
,
0100
0010
3100
1000
0100
0010
0001
0100
,
0010
0100
0001
0100
0010
0200
0010
0010
,
0010
0010
0310
1000
0100
0010
0001
0100
,
0010
0100
0010
0100
0001
0020
0100
0100
,
0100
0100
0130
0010
1000
0100
0010
0001
,
0010
0100
1000
0100
0010
0100
0010
0010
,
0100
0010
0100
0010
1001
0000
0100
0010
,
1000
0001
0100
0010
0100
0010
0100
0010
,
1000
0100
0020
0001
0130
0010
0100
0010
,
0100
0010
0100
0010
1000
0100
0010
0100
,
0001
0020
0100
1030
0100
0010
0100
0010
,
0100
0010
0100
0010
1000
0100
0010
0100
,
0010
0100
0020
0100
0031
0010
0100
0100
,
0010
0100
0010
0100
1000
0100
0010
0100
,
0010
0100
0001
0100
1001
0100
0010
0100
,
0010
0100
0010
0100
1000
0100
0010
0001
,
0020
0100
1030
0100
1100
0100
0010
0100
,
0010
0100
0001
0100
0010
1000
0100
0010
,
0002
0010
0103
0010
0011
0100
0001
0100
,
0010
0100
0001
0100
0010
0100
0001
1000
,
0200
0010
0301
0100
1001
0100
0010
0100
,
0001
1000
0100
0010
1000
0100
0010
0100
,
0001
0100
0010
0100
0001
0000
1000
0000
,
0001
1000
0010
0100
,
0010
0100
1000
0001
,
1000
0001
0100
0100
,
0010
0000
0010
0000
1000
0001
0100
0001
,
0100
0000
1000
0000
0100
0010
0100
0010
,
0100
0010
0100
0000
1000
0100
0010
0000
,
0001
0010
0100
0000
1000
0100
0010
1000
,
0010
0100
0001
1000
0002
0000
1000
0000
,
1000
1000
2003
0010
,
0010
0010
3002
0100
,
0100
0000
0100
0003
0020
0000
0100
0000
,
0100
0000
0100
0030
0200
0000
0010
0000
,
0010
0000
0010
0300
0200
0000
0010
0000
,
0010
0000
0010
0300
0020
0000
0100
0000
,
0100
0130
1001
0110
,
1000
0100
0010
0001
0101
0000
0100
0010
,
0100
0010
0100
0000
1000
0100
0010
0001
,
0010
0100
0010
0100
0002
0000
1000
0000
,
0100
1000
2003
0010
,
0001
0000
0010
3000
0001
0100
0001
0100
,
0001
1000
0200
0000
0000
0000
0010
0000
,
0001
0001
0302
0100
,
1000
0100
2003
0010
,
0001
0000
0010
3000
0101
0000
0100
0010
,
0100
0000
0010
0000
0100
0010
0100
0000
,
1000
0100
0010
0000
0001
0000
0100
0000
,
0010
0000
1000
0000
0100
0010
0100
0000
,
1000
0100
0010
0001
2000
0000
0010
0000
,
0001
0000
0010
3000
0002
0000
0100
0000
,
1000
0000
0100
0003
1000
0100
0010
0000
,
0001
0100
0010
0000
0100
1000
0100
0010
,
0100
0010
0100
0001
2000
0000
0010
0000
,
3002
0000
0100
0003
2000
0000
0010
3000
,
0002
0103
1010
0101
,
1000
0100
0010
0001
2000
0000
0010
0000
,
0010
0000
0010
3000
0001
0100
0001
0100
,
0001
0100
0001
0100
0001
0000
0002
0000
,
0100
0103
2002
0000
,
0000
0000
0000
0000
,
0000
0000
0000
0000
,
0000
0000
0000
0000
0000
0000
0000
0003
,
3000
0000
0000
0000
;

//---------------dance-single - ----------------
#NOTES:
     dance-single:
     :
     Medium:
     12:
     0.606,0.559,0.090,0.282,0.000,343.000,8.000,25.000,0.000,0.000,0.000,0.606,0.559,0.090,0.282,0.000,343.000,8.000,25.000,0.000,0.000,0.000:
0000
0000
0100
0000
,
0100
0010
1000
0010
1000
0200
0301
0000
,
0001
0000
0001
0100
1000
0010
0001
1000
,
0010
1000
0001
1000
0010
2000
0010
0000
,
0010
0000
3010
0100
1000
0010
0001
1000
,
0010
1000
0010
1000
0001
0020
1000
0000
,
1000
0000
1030
0010
0100
1000
0010
0001
,
0010
1000
0100
1000
0010
1000
0010
0010
,
1000
0010
1000
0000
0101
0000
1000
0010
,
0100
0000
1000
0010
1000
0010
1000
0010
,
0100
1000
0010
0001
1000
0000
1000
0010
,
1000
0010
1000
0010
0100
1000
0010
1000
,
0001
0010
1000
0100
0000
0010
1000
0010
,
1000
0010
1000
0010
0100
1000
0010
1000
,
0010
1000
0010
1000
0001
0000
0100
1000
,
0010
1000
0010
1000
0100
1000
0010
1000
,
0010
1000
0001
1000
0001
0000
0010
1000
,
0010
1000
0010
1000
0100
1000
0010
0001
,
0010
1000
0100
0000
0100
1000
0010
1000
,
0010
1000
0001
1000
0010
0100
1000
0010
,
0001
0010
1000
0010
0001
0000
0001
1000
,
0010
1000
0001
1000
0010
1000
0001
0100
,
1000
0010
0001
1000
0001
0000
0010
1000
,
0001
0100
1000
0010
0100
1000
0010
1000
,
0001
1000
0010
1000
0001
0000
0100
0000
,
0001
0100
0010
1000
,
0010
1000
0100
0001
,
0100
0001
1000
1000
,
0010
0000
0010
0000
0100
0001
1000
0001
,
1000
0000
0100
0000
1000
0010
1000
0010
,
1000
0010
1000
0000
0100
1000
0010
0000
,
0001
0010
1000
0000
0100
1000
0010
0100
,
0010
1000
0001
0100
0002
0000
0100
0000
,
0000
0100
0203
0010
,
0000
0010
0302
1000
,
0000
0000
1000
0003
0020
0000
1000
0000
,
0000
0000
1000
0030
2000
0000
0010
0000
,
0000
0000
0010
3000
2000
0000
0010
0000
,
0000
0000
0010
3000
0020
0000
1000
0000
,
0000
1030
0101
1010
,
0100
1000
0010
0000
1001
0000
1000
0010
,
1000
0010
1000
0000
0100
1000
0010
0001
,
0010
1000
0010
0000
0002
0000
0100
0000
,
0000
0100
0203
0010
,
0000
0000
0010
0300
0001
1000
0001
1000
,
0001
2000
0000
0010
,
0001
0001
3002
1000
,
0000
1000
0203
0010
,
0000
0000
0310
0000
1001
0000
1000
0010
,
1000
0000
0010
0000
1000
0010
1000
0000
,
0100
1000
0010
0000
0001
0000
1000
0000
,
0010
0000
0100
0000
1000
0010
1000
0000
,
0100
1000
0010
0001
0200
0000
0010
0000
,
0000
0000
0010
0300
0002
0000
1000
0000
,
0000
0000
1000
0003
0100
1000
0010
0000
,
0001
1000
0010
0000
1000
0100
1000
0010
,
1000
0010
1000
0001
0200
0000
0010
0000
,
0302
0000
1000
0003
0200
0000
0010
0300
,
0002
1003
0110
1001
,
0100
1000
0010
0001
0200
0000
0010
0000
,
0000
0000
0010
0300
0001
0000
0001
0000
,
0001
0001
0001
0002
,
0000
1003
0202
0000
,
0000
0000
0000
0000
,
0000
0000
0000
0000
,
0000
0000
0000
0000
0000
0000
0000
0003
,
0300
0000
0000
0000
;

//---------------dance-single - ----------------
#NOTES:
     dance-single:
     :
     Easy:
     6:
     0.418,0.447,0.079,0.237,0.000,231.000,7.000,21.000,0.000,0.000,0.000,0.418,0.447,0.079,0.237,0.000,231.000,7.000,21.000,0.000,0.000,0.000:
0000
0000
1000
0000
,
1000
0010
0010
0100
,
0100
0100
0010
0100
,
0001
0100
0001
0001
,
0001
0001
0010
0100
,
0001
0001
0100
0010
,
0010
0010
1000
0001
,
0001
1000
0001
0001
,
0010
0010
1100
0010
,
1000
0010
0010
0010
,
1000
0001
0010
0010
,
0010
0010
1000
0001
,
0100
0010
0000
0010
,
0010
0010
1000
0001
,
0001
0001
0100
1000
,
0001
0001
1000
0001
,
0001
0100
0100
0001
,
0001
0001
1000
0001
,
0001
1000
1000
0001
,
0001
0100
0001
0010
,
0100
0010
0100
0100
,
0001
0100
0001
0100
,
0010
0100
0100
0001
,
0100
0010
1000
0001
,
0100
0001
0100
1000
,
0100
1000
0001
0010
,
0001
0010
1000
0100
,
1000
0100
0010
0010
,
0001
0001
1000
0010
,
0010
1000
0010
0010
,
0010
0010
1000
0001
,
0100
0010
1000
0001
,
0001
0100
0200
1000
,
0000
1000
2300
0001
,
0000
0001
3200
0010
,
0000
0000
0010
0300
0002
0000
0010
0000
,
0000
0000
0010
0003
0020
0000
0001
0000
,
0000
0000
0001
0030
0020
0000
0001
0000
,
0000
0000
0001
0030
0002
0000
0010
0000
,
0000
0013
1100
0011
,
1000
0001
0110
0010
,
0010
0010
1000
0001
,
0001
0001
0200
1000
,
0000
1000
2300
0001
,
0000
0000
0001
3000
0100
0000
0100
0000
,
0100
0020
0000
0001
,
0100
0100
0230
0010
,
0000
0010
2300
0001
,
0000
3001
0110
0010
,
0010
0001
0010
0010
,
1000
0001
0100
0010
,
0001
1000
0010
0010
,
1000
0001
2000
0001
,
0000
0000
0001
3000
0200
0000
0010
0000
,
0000
0000
0010
0300
1000
0000
0001
0000
,
0100
0001
0010
0010
,
0010
0010
2000
0001
,
3200
0000
0010
0300
2000
0000
0001
3000
,
0200
0310
1001
0110
,
1000
0001
2000
0001
,
0000
0000
0001
3000
0100
0000
0100
0000
,
0100
0100
0100
0200
,
0000
0310
2000
0000
,
0000
0000
0000
0000
,
0000
0000
0000
0000
,
0000
0000
0000
0000
,
3000
0000
0000
0000
;

//---------------dance-single - Copied from----------------
#NOTES:
     dance-single:
     Copied from:
     Beginner:
     2:
     0.126,0.186,0.011,0.203,0.000,59.000,1.000,18.000,0.000,0.000,0.000,0.126,0.186,0.011,0.203,0.000,59.000,1.000,18.000,0.000,0.000,0.000:
0000
0000
1000
0000
,
0000
0000
0010
0000
,
0000
0000
0010
0000
,
0000
0000
0001
0000
,
0000
0000
0010
0000
,
0000
0000
0100
0000
,
0000
0000
1000
0000
,
0000
0000
0001
0000
,
0000
0000
1100
0000
,
0000
0000
0010
0000
,
0000
0000
0010
0000
,
0000
0000
1000
0000
,
0000
0000
0000
0000
,
0000
0000
1000
0000
,
0000
0000
0100
0000
,
0000
0000
1000
0000
,
0000
0000
0100
0000
,
0000
0000
1000
0000
,
0000
0000
1000
0000
,
0000
0000
0001
0000
,
0000
0000
0100
0000
,
0000
0000
0001
0000
,
0000
0000
0100
0000
,
0000
0000
1000
0000
,
0000
0000
0100
0000
,
0000
0000
0001
0000
,
0000
0000
1000
0000
,
0000
0000
0010
0000
,
0000
0000
1000
0000
,
0000
0000
0010
0000
,
0000
0000
1000
0000
,
0000
0000
1000
0000
,
0000
0000
0200
0000
,
0000
0000
0300
0000
,
0000
0000
0200
0000
,
0000
0000
0000
0300
0002
0000
0000
0000
,
0000
0000
0000
0003
0020
0000
0000
0000
,
0000
0000
0000
0030
0020
0000
0000
0000
,
0000
0000
0000
0030
0002
0000
0000
0000
,
0000
0013
0000
0000
,
0000
0001
0000
0000
,
0000
0010
0000
0000
,
0000
0001
0200
0000
,
0000
0000
2300
0000
,
0000
0000
0000
3000
0000
0000
0000
0000
,
0000
0020
0000
0000
,
0000
0000
0230
0000
,
0000
0000
2300
0000
,
0000
3000
0000
0000
,
0000
0001
0000
0000
,
0000
0001
0000
0000
,
0000
1000
0000
0000
,
0000
0000
2000
0000
,
0000
0000
0000
3000
0200
0000
0000
0000
,
0000
0000
0000
0300
0001
0000
0000
0000
,
0000
0000
0010
0000
,
0000
0000
2000
0000
,
3000
0000
0000
0000
,
0200
0300
0000
0000
,
0000
0000
2000
0000
,
0000
0000
0000
3000
0100
0000
0000
0000
,
0000
0000
0200
0000
,
0000
0300
2000
0000
,
0000
0000
0000
0000
,
0000
0000
0000
0000
,
0000
0000
0000
0000
,
3000
0000
0000
0000
;
