#TITLE:Po Pi Po;
#SUBTITLE:(RYU Remix);
#ARTIST:Remixed by Ryu☆;
#TITLETRANSLIT:;
#SUBTITLETRANSLIT:;
#ARTISTTRANSLIT:;
#GENRE:;
#CREDIT:;
#BANNER:PoPiPo (Ryu REMIX).png;
#BACKGROUND:PoPiPo (Ryu REMIX)-bg.png;
#LYRICSPATH:;
#CDTITLE:;
#MUSIC:PoPiPo (Ryu REMIX).mp3;
#OFFSET:-0.051;
#SAMPLESTART:71.666;
#SAMPLELENGTH:12.000;
#SELECTABLE:YES;
#BPMS:0.000=168.400
,31.000=336.800
,33.000=168.400
,34.000=1347.200
,42.000=168.400
,45.500=336.800
,46.500=168.400
,50.000=336.800
,51.000=168.400
,54.500=336.800
,55.500=168.400
,59.000=336.800
,60.000=168.400
,63.500=336.800
,64.500=168.400
,68.000=336.800
,69.000=168.400
,72.500=336.800
,73.500=168.400
,77.000=336.800
,78.000=168.400
,81.500=336.800
,82.500=168.400
,86.000=336.800
,87.000=168.400
,90.500=336.800
,91.500=168.400
,95.000=336.800
,96.000=168.400
,99.500=336.800
,100.500=168.400
,104.000=336.800
,105.000=168.400
,120.000=336.800
,122.000=168.400
,137.000=336.800
,139.000=168.400
,142.000=336.800
,143.000=168.400
,146.000=336.800
,147.000=168.400
,154.000=84.200
,154.500=168.400
,158.000=336.800
,159.000=168.400
,162.500=336.800
,163.500=168.400
,167.000=336.800
,168.000=168.400
,171.500=336.800
,172.500=168.400
,176.000=336.800
,177.000=168.400
,180.500=336.800
,181.500=168.400
,185.000=336.800
,186.000=168.400
,189.500=336.800
,190.500=168.400
,197.500=336.800
,199.500=168.400
,206.500=336.800
,208.500=168.400
,288.000=336.800
,290.000=168.400
,291.000=1347.200
,299.000=168.400
,363.500=84.200
,367.500=42.100
,368.625=84.200
;
#STOPS:31.000=0.178,
32.000=0.178,
142.500=0.178,
146.500=0.178,
222.500=0.089,
223.000=0.089,
288.000=0.178,
289.000=0.178
;
#BGCHANGES:;
#KEYSOUNDS:;
#ATTACKS:;

//---------------dance-single - ----------------
#NOTES:
     dance-single:
     :
     Hard:
     15:
     0.788,0.805,0.318,0.326,0.508,614.000,40.000,41.000,0.000,0.000,0.000,0.788,0.805,0.318,0.326,0.508,614.000,40.000,41.000,0.000,0.000,0.000:
0000
0000
0000
0000
,
0000
0000
0000
0000
,
0000
0000
0000
0000
,
0000
0000
0000
0000
,
0000
0000
0000
0000
0000
0000
0000
0000
0000
0000
0000
0000
1100
0000
0001
0010
,
0000
1000
0001
0000
1000
0000
0010
0000
0100
0000
0000
0000
0101
0000
0001
0010
,
0000
1000
0100
0000
1000
0100
0010
1000
0100
0000
0000
0000
0001
0000
1000
0100
,
0000
0001
0100
0000
0001
0000
1000
0000
0010
0000
0000
0000
1000
0000
0000
0000
,
0010
0000
0001
0110
2002
0000
0000
0000
,
0000
0000
0000
0000
,
0000
0000
0000
3003
0100
0010
0100
1000
,
1000
0001
0000
0100
0000
0000
0020
0000
0000
0000
1030
0000
0100
0000
0001
0000
,
0010
0000
1000
0100
0000
0010
0000
0000
2000
0000
0000
0000
3010
0000
1000
0000
,
0001
0000
0100
0000
0010
0001
0000
1000
0000
0000
0020
0000
0000
0000
1030
0000
,
0100
0000
1000
0000
0010
0000
0100
0001
0000
1000
0000
0000
0020
0000
0000
0000
,
1030
0000
0001
0000
1000
0000
0001
0000
0010
1000
0000
0100
0000
0000
0002
0000
,
0000
0000
1003
0000
0010
0000
0100
0000
0001
0000
1000
0100
0000
0010
0000
0000
,
2000
0000
0000
0000
3001
0000
0100
0000
0010
0000
0001
0000
1000
0100
0000
0001
,
0000
0000
2000
0000
0000
0000
3100
0000
0010
0000
0001
0000
0010
0000
0100
1000
,
0000
0100
0000
0000
0002
0000
0000
0000
0013
0000
1000
0000
0010
0000
0001
0000
,
0001
0100
0000
0010
0000
0000
2000
0000
0000
0000
3010
0000
1000
0000
0010
0000
,
0010
0000
0001
1000
0000
0100
0000
0000
0020
0000
0000
0000
0031
0000
0010
0000
,
0001
0000
0100
0000
0100
1000
0000
0001
0000
0000
0020
0000
0000
0000
0130
0000
,
0001
0000
0100
0000
1000
0000
1000
0010
0000
0100
0000
0000
0020
0000
0030
0000
,
1001
0000
0001
0000
1000
0000
0100
0000
0100
0010
0000
1000
0000
0000
0002
0000
,
0003
0000
1010
0000
0001
0000
0010
0000
1000
0000
0010
0001
0000
0010
0000
0000
,
0020
0000
0030
0000
1100
0000
0010
0000
1000
0000
1000
0000
0011
0100
0000
0001
,
0000
0000
0001
0000
0100
0000
0010
0000
0100
0000
1000
0000
1000
0001
0000
0100
,
0000
0000
0010
0000
1000
0000
0010
0001
0000
0000
1000
0010
1000
0001
0010
1000
,
0000
0100
1000
0010
0100
0010
1000
0000
,
0220
0000
0030
0000
1300
0001
0100
0001
,
1000
0100
0010
0001
0100
0000
1000
0010
1000
0010
0000
0000
0100
0000
2000
0000
,
0000
0000
0000
0000
3001
0100
0001
0100
0010
0000
0010
0000
0000
0000
1000
0000
,
0001
0000
1000
0010
0000
0000
0000
0000
1001
0000
0000
0000
0110
0000
0000
0000
,
1001
0000
0200
0000
0000
0000
1300
0001
,
0100
0000
0010
0000
1000
0001
0010
0100
2000
0000
0000
0000
3001
0000
1000
0000
,
0100
0000
0001
0000
0010
0100
1000
0010
0200
0000
0000
0000
0301
0000
1000
0000
,
0001
0100
0110
0000
1001
0000
0110
0001
,
1000
0001
0100
0010
0200
0310
1000
0001
,
0100
0000
0010
0001
0000
1000
0000
0000
0020
0000
0000
0000
1030
0000
0010
0000
,
0100
0000
1000
0000
0010
0100
0000
0001
0000
0000
2000
0000
0000
0000
3001
0000
,
0001
0000
0001
0000
0001
0000
0010
0100
0000
1000
0000
0000
0020
0000
0000
0000
,
1030
0000
1000
0000
1000
0000
1000
0000
1000
0100
0000
0010
0000
0000
0002
0000
,
0000
0000
0103
0000
0100
0000
0100
0000
0100
0000
1000
0100
0000
1000
0000
0000
,
0002
0000
0000
0000
0013
0000
0010
0000
0010
0000
0010
0000
0001
0010
0000
0001
,
0000
0000
0200
0000
0000
0000
0301
0000
0001
0000
1000
0000
1000
0000
0100
0010
,
0000
1000
0000
0000
0002
0000
0000
0000
0103
0000
0100
0000
0010
0000
0010
0000
,
1000
0001
0000
0100
0000
0000
0020
0000
0000
0000
1030
0000
0001
0000
0100
0000
,
0010
1000
0001
0100
1000
0100
0010
1000
,
0001
0200
0000
0020
0000
0300
0000
1030
,
0000
0010
0000
1000
0001
1000
0100
1001
,
0010
1001
0010
0110
0000
2002
0000
3000
,
0000
0013
0000
1000
0000
0010
0100
0000
,
0000
0001
1000
0010
0101
1000
0000
0100
,
0000
1000
0001
0100
0010
1000
0100
0001
,
0010
2000
0000
0001
0000
0001
0001
0001
,
3001
0000
1000
0100
0000
0001
1000
0000
0110
0000
1000
0000
0100
0000
0000
0000
,
1001
0000
0010
1000
0000
0001
0010
0000
1100
0000
0100
0000
0010
0000
0000
0000
,
1000
0001
0100
0010
1000
0001
0100
0010
,
0001
0000
0001
0001
0000
0001
0001
0000
0001
0000
0001
0000
0001
0001
0001
0000
,
1000
0000
0100
0010
0000
0001
1000
0000
1001
0000
0011
0000
1001
0000
0000
0000
,
0100
0000
0010
1000
0000
0001
0010
0000
1010
0000
1001
0000
1010
0000
0000
0000
,
0100
0010
1000
0010
0100
0001
0001
1000
,
1000
0000
1000
1000
0000
1000
1000
0000
1000
0000
1000
0000
1000
1000
1000
0000
,
1000
0000
0001
0010
0000
1000
0001
0000
1100
0000
0100
0000
0011
0000
1000
0000
,
1001
0000
0010
0001
0000
1000
0010
0000
1001
0000
0010
0000
0110
0000
0000
0000
,
1000
0100
0010
1000
0001
0100
0010
0100
,
0100
0000
0100
0100
0000
0100
0100
0000
0100
0000
0100
0000
0100
0100
0100
0000
,
1000
0000
0001
0100
0000
0010
1000
0000
0100
0000
0100
0000
0100
0000
0010
0000
,
1001
0000
1000
0010
0000
0100
0001
0000
1000
0000
0100
0000
0010
0000
0000
0000
,
1001
0110
1000
0100
,
0010
1000
0001
0100
0010
1000
0100
1000
,
0100
0000
0001
0000
0100
1001
0220
0000
,
0000
0000
0000
0000
,
0000
0000
0000
0000
0000
0330
0001
0001
,
0001
0000
0001
0000
1000
0010
0000
0001
0000
0000
0010
0000
1000
0000
1000
0000
,
1000
0000
1000
0000
0001
0010
0000
1000
0000
0000
0001
0000
0100
0000
0100
0000
,
0100
0000
0100
0000
0010
0001
0000
1000
0000
0000
0001
0000
0010
0000
0010
0000
,
0010
0000
0010
0000
1000
0010
0000
0100
0000
0000
0001
0000
1000
0000
1000
0000
,
0001
0000
0001
0000
0100
0010
0000
1000
0000
0000
0010
0000
0001
0000
0001
0000
,
1000
0000
1000
0000
0010
0100
0000
0001
0000
0000
1000
0000
0010
0000
0010
0000
,
0100
0000
0100
0000
1000
0001
0000
0010
0000
0000
1000
0000
0100
0000
0100
0000
,
0010
0000
0010
0000
0100
0001
0000
1000
0002
0000
0000
0000
1003
0000
0100
0000
,
0010
0000
0001
0000
0001
0010
0000
1000
0000
0000
0001
0000
0010
0000
0100
0000
,
1000
0000
1000
0000
0100
0010
0000
0001
0000
0000
0100
0000
0010
0000
0001
0000
,
1000
0000
0100
0000
0010
0001
0000
0010
0000
0000
1000
0000
0001
0000
0100
0000
,
0010
0000
0001
0000
1000
0001
0000
0100
0000
0000
0001
0000
0100
0000
0100
0000
,
0100
0000
0100
0000
0100
0100
0000
0100
0000
0000
0100
0000
0010
0000
0010
0000
,
0010
0000
0010
0000
0010
0010
0000
0010
0000
0000
0010
0000
0001
0000
0001
0000
,
0001
0000
0001
0000
0001
0001
0000
0001
0000
0000
0001
0000
1000
0000
1000
0000
,
1000
0000
1000
0000
1000
1000
0000
1000
0000
0000
1000
0000
2002
0000
0000
0000
,
0000
0000
0000
0000
,
0000
0000
0000
0000
0000
3003
0000
0000
0000
0000
0000
0000
0000
0000
0000
0000
0000
0000
0000
0000
0000
0000
0000
0000
0000
0000
0000
0000
0000
0000
0000
0000
;

//---------------dance-single - ----------------
#NOTES:
     dance-single:
     :
     Medium:
     9:
     0.525,0.585,0.254,0.191,0.000,407.000,32.000,24.000,0.000,0.000,0.000,0.525,0.585,0.254,0.191,0.000,407.000,32.000,24.000,0.000,0.000,0.000:
0000
0000
0000
0000
,
0000
0000
0000
0000
,
0000
0000
0000
0000
,
0000
0000
0000
0000
,
0000
0000
0000
1001
,
0110
0000
1000
0100
0010
0000
0101
0000
,
0011
0000
0100
0010
0110
0000
1000
0000
,
0100
1000
0100
1000
,
0001
0100
0020
0000
,
0000
0000
0000
0000
,
0000
0000
0130
0100
,
1000
0000
0000
0002
0000
0103
0000
1000
,
0000
0010
0000
0100
0002
0000
0003
0000
,
0100
0000
1000
0000
0100
0002
0000
0003
,
0000
1100
0000
0100
0000
0001
0200
0000
,
0300
0000
1000
0010
0100
0000
0000
2000
,
0000
3000
0000
1000
0001
0100
0000
0000
,
0020
0000
0030
0000
1000
0001
0100
0000
,
0000
0002
0000
0003
0000
0010
0100
0010
,
0000
0000
0020
0000
0030
0000
0100
0010
,
1000
0000
0000
0200
0000
0300
0000
0001
,
1000
0001
0000
0000
2000
0000
3000
0000
,
0100
0010
0100
0000
0000
0200
0000
0300
,
0000
0010
0100
0010
0000
0000
0002
0000
,
0003
0000
0010
0100
0010
0000
0000
0020
,
0000
0030
0000
0001
1000
0001
0000
0000
,
0200
0000
0300
0000
1000
0010
1000
0010
,
0100
0010
1000
0100
0010
0001
0100
0010
,
0100
0001
1000
0000
0100
0000
1000
0000
,
0100
0000
1000
0100
0010
0100
0001
0000
,
2000
0000
3001
0100
,
0010
0000
1000
0000
1000
0100
0010
0001
,
0100
0000
1000
0010
1000
0010
0000
0100
,
0010
0100
0001
1000
0010
0100
0001
1000
,
0010
0000
0200
0000
0000
0300
1000
0000
,
0100
0100
2000
3100
,
0001
1000
0020
0130
,
1000
0000
0100
0000
1000
0000
0100
1000
,
0100
1000
0100
1000
0200
1300
0000
0100
,
0000
1000
0000
0100
1000
0000
1000
0000
,
0100
0000
0100
0000
0100
1000
0000
1000
,
0000
0100
0000
0010
0000
1000
1000
0000
,
1000
0000
0100
0010
0100
0000
0000
0100
,
0000
0100
0000
0001
1000
0001
0000
0000
,
0001
0000
0001
0000
0100
0010
0100
0000
,
0000
0010
0000
0010
0000
0001
1000
0001
,
0000
0000
1000
0000
1000
0000
0010
0100
,
0010
0000
0000
0100
0000
0100
0000
0001
,
0000
1000
0000
0100
0000
1000
0100
0010
,
1000
0001
0000
2000
0000
0000
0000
3001
,
0000
0100
0000
0010
0000
0100
0000
1000
,
0100
0010
1000
0001
0000
2000
0000
0000
,
0000
3001
0000
0100
0000
0010
1000
0100
,
0000
1000
0100
0010
0001
0100
0000
0110
,
0000
1000
0000
0100
0000
1000
0000
0100
,
0000
1000
0000
0001
0000
1000
0001
0100
,
0010
0000
1000
0000
1000
0100
0010
0000
,
1000
0001
0100
0010
1000
0100
0010
0000
,
0001
0100
0010
0100
,
1000
0100
0010
0100
0010
0100
0010
0100
,
0001
0000
0100
0000
1000
0100
0010
0000
,
0101
0000
0110
0000
1000
0100
0010
0000
,
1000
0100
1000
0100
,
1000
0100
0010
0100
0001
0100
0010
0100
,
1001
0000
0110
0000
1000
0100
0110
0000
,
1000
0000
0110
0000
0001
0010
0011
0000
,
0100
0010
1000
0001
0100
0010
1000
0100
,
1100
0000
1100
0000
1100
0000
0100
0100
,
0110
0000
0100
0000
0010
0100
0110
0000
,
0001
0000
0100
0000
0001
0010
0011
0000
,
1000
0010
0100
0001
,
1000
0100
0010
1000
0001
0100
0010
1000
,
0001
0100
0010
2000
,
0000
0000
0000
0000
,
0000
0000
0000
3100
,
0100
0100
0100
0100
,
0010
1000
0010
0100
,
0001
1000
0010
0100
,
1000
0100
0010
0001
,
0100
0000
0010
0000
1000
0000
1000
0100
,
0010
0001
0100
0000
0010
0000
0000
1000
,
1000
0100
0010
0000
1000
0000
1000
0100
,
0010
0001
0100
0000
0010
0000
1001
0000
,
0110
0000
1000
0100
0110
0000
1000
0100
,
0110
0000
1000
0100
0110
0000
0001
0100
,
0010
0100
0001
1000
0010
0100
1000
0100
,
0010
0001
0100
0100
0110
0000
1000
0100
,
0010
1000
0100
0010
0001
0010
0100
0010
,
0100
0001
1000
0100
0010
0001
0110
0000
,
1001
0000
0110
0000
1001
0000
1000
0100
,
0000
1010
0001
0000
0100
1010
2000
0000
,
0000
0000
0000
0000
,
0000
3000
0000
0000
0000
0000
0000
0000
;

//---------------dance-single - ----------------
#NOTES:
     dance-single:
     :
     Easy:
     7:
     0.393,0.439,0.087,0.040,0.000,330.000,11.000,5.000,0.000,0.000,0.000,0.393,0.439,0.087,0.040,0.000,330.000,11.000,5.000,0.000,0.000,0.000:
0000
0000
0000
0000
,
0000
0000
0000
0000
,
0000
0000
0000
0000
,
0000
0000
0000
0000
,
0000
0000
0000
1000
,
0100
0000
1000
0100
0010
0000
0100
0000
,
0001
0000
1000
0010
0100
0000
0100
0000
,
0000
1000
0100
1000
,
0001
0100
0000
0000
2000
0000
0000
0000
,
0000
0000
0000
0000
,
0000
0000
3100
0100
,
0100
0000
1000
0000
0000
1000
0000
0100
,
0000
0100
0000
1000
0000
0000
0000
0000
,
1000
0001
0100
0000
,
0000
1000
0000
0001
0000
0100
0000
0000
,
0000
0000
1000
0001
1000
0000
0000
0000
,
0000
0000
0000
0010
0100
0010
0000
0000
,
0000
0000
0000
0000
1000
0001
1000
0000
,
0000
0000
0000
0000
0000
1000
0010
1000
,
0000
0000
0000
0000
0000
0000
1000
0001
,
1000
0000
0100
0000
0000
0000
0000
1000
,
0001
1000
0000
0100
0000
0000
0000
0000
,
1000
0001
1000
0000
0100
0000
0000
0000
,
0000
0100
0010
0100
0000
0001
0000
0000
,
0000
0000
1000
0010
1000
0000
0010
0000
,
0000
0000
0000
1000
0010
1000
0000
0100
,
0000
0000
0000
0000
0001
0100
0001
0000
,
1000
0110
1001
0100
,
1000
0000
0100
0000
1000
0000
1000
0100
,
0010
1000
0001
0100
,
2000
0000
3000
0100
,
1000
0100
1000
0100
,
0010
0100
0001
0000
0100
0000
0010
0000
,
1000
0100
0010
0000
1000
0000
1000
0000
,
1000
0000
0000
1000
0000
0000
0100
0000
,
0000
0000
1000
0000
,
0000
0000
0001
0100
,
1000
0100
1000
1000
,
0100
0000
1000
0000
0100
1000
0000
1000
,
0000
1000
0000
0100
0000
0000
1000
0000
,
0100
0010
1000
0000
,
0000
1000
0000
0001
0000
1000
0000
0000
,
0000
1000
0010
1000
,
0000
0000
0000
1000
0001
1000
0000
0000
,
0000
0000
0000
0000
0010
0100
0010
0000
,
0000
0000
0000
0000
0000
0010
0100
0001
,
0000
0000
0000
0000
0000
0000
0010
0100
,
1000
0000
0000
0000
0000
0000
0000
1001
,
0000
0100
0000
0010
0000
1000
0000
0100
,
0000
1000
0000
0020
0000
0000
0000
0030
,
0000
1000
0000
0100
0000
0010
0000
1000
,
0000
0100
0000
1000
0000
0100
0000
0000
,
0000
1000
0000
0100
0000
0010
0000
0100
,
0000
1001
0000
0110
0000
0011
0000
0110
,
0000
1000
0000
0100
0000
1000
0000
0100
,
0000
0000
0000
0000
0000
1000
0001
0100
,
0000
0000
1000
0010
,
0100
0000
0001
0000
1000
0100
0010
0000
,
0001
0100
0010
1000
,
1000
0000
0010
0000
0100
1000
0100
0010
,
0100
0001
0010
0001
,
0100
0000
0010
0000
1000
0100
0010
0000
,
0100
0000
0000
0010
0000
0100
0010
0000
,
1000
0100
0010
0100
0001
1000
0010
0100
,
0001
0000
0000
0000
1000
0100
0010
0000
,
0101
0000
0000
0000
0000
0010
0001
0100
,
0100
1000
0100
1000
,
0100
0010
1000
0001
0100
0010
1000
0100
,
0010
0000
0000
0000
1000
0100
0010
0000
,
0101
0000
0000
0000
0001
0010
0100
0000
,
1000
1000
1000
1000
,
0100
0010
0100
0100
,
1000
0001
0100
2000
,
0000
0000
0000
0000
,
0000
0000
0000
3000
,
0100
1000
0100
1000
,
0010
0100
0001
0000
1000
0000
0100
0000
,
1000
1000
1000
0000
0001
0000
0100
0000
,
0001
0001
0001
0000
0100
0010
0100
0000
,
1000
1000
1000
0000
0010
0100
0010
0000
,
0001
0001
0001
0000
1000
1000
1000
0000
,
0100
0100
0100
0000
0001
0001
0001
0000
,
1000
0100
0010
0001
0100
1000
0100
0000
,
1000
0000
0100
1000
0100
0000
0010
0000
,
0100
0001
0100
0000
1000
0000
0100
0000
,
1000
0000
0100
0010
0100
0000
0001
0000
,
0100
0000
0010
1000
1001
0000
0100
0000
,
0010
0000
1000
0010
1000
0000
0100
0000
,
0010
0000
1000
0001
1000
0000
0110
0000
,
1000
0100
0010
0100
,
0001
0000
1000
0001
1000
0001
2000
0000
,
0000
0000
0000
0000
,
0000
3000
0000
0000
0000
0000
0000
0000
;

//---------------dance-single - ----------------
#NOTES:
     dance-single:
     :
     Beginner:
     4:
     0.182,0.216,0.000,0.000,0.000,160.000,0.000,0.000,0.000,0.000,0.000,0.182,0.216,0.000,0.000,0.000,160.000,0.000,0.000,0.000,0.000,0.000:
0000
0000
0000
0000
,
0000
0000
0000
0000
,
0000
0000
0000
0000
,
0000
0000
0000
0000
,
0000
0000
0000
1000
,
0100
1000
0100
0100
,
0000
0100
0010
0100
,
0000
0000
0000
1000
,
0001
1000
0000
0000
,
0000
0000
0000
0000
,
0000
0000
0000
0100
,
0100
0000
0100
0000
0000
0000
0000
0010
,
0000
0010
0000
0010
0000
0000
0000
0000
,
0000
0001
0001
0000
,
0000
0000
0000
1000
0000
1000
0000
0000
,
0000
0000
0001
0001
,
0000
0000
0000
0000
0000
0100
0000
0100
,
0000
0000
0000
0000
,
0010
0000
0000
0000
,
0000
0000
0000
1000
,
1000
0000
0000
0000
0000
0000
0000
0001
,
0000
0001
0000
0000
0000
0000
0000
0000
,
0100
0100
0000
0000
,
0000
0010
0000
0010
0000
0000
0000
0000
,
0000
1000
0001
0000
,
0000
0000
0000
0010
0000
0100
0000
0000
,
0000
0000
1000
0100
,
0000
0000
0010
0001
,
0000
0000
0000
1000
,
0000
0001
1000
0001
,
0000
0000
1000
0000
,
0000
0000
0010
0100
,
0010
0000
1000
0000
,
0000
0000
0001
1000
,
0001
0000
0000
1000
,
0000
0000
0001
0000
,
0000
0000
1000
0000
,
0000
0100
0000
1000
,
0100
0000
1000
0000
0000
0100
0000
0000
,
0000
1000
0000
1000
0000
0000
0000
0000
,
0000
0001
0001
0000
,
0000
0000
0000
0100
0000
0100
0000
0000
,
0000
0000
0010
0010
,
0000
0000
0000
0000
0000
0001
0000
0001
,
0000
0000
0000
1000
,
1000
0000
0000
0000
0000
0000
0000
0010
,
0000
0010
0000
0000
0000
0000
0000
0000
,
0001
0001
0000
0000
,
0000
1000
0000
0000
0000
1000
0000
0100
,
0000
0010
0000
0000
0000
0000
0000
0000
,
0000
0000
0000
0001
0000
0000
0000
0100
,
0000
1000
0000
0100
0000
0000
0000
0000
,
0000
0000
0100
0000
0000
1000
0000
0000
,
0000
1000
0000
0100
0000
1000
0000
0100
,
0000
0010
0000
1000
0000
0100
0000
0000
,
0000
0000
0000
0000
0000
0001
1000
0000
,
0000
0000
0100
0100
,
0000
0000
0000
0000
,
0001
0000
0000
0000
,
1000
0000
1000
0000
,
0001
0000
0000
0000
,
1000
0000
0000
0000
,
0010
0000
0100
0000
,
0001
0000
0000
0000
,
1000
0000
0001
0001
,
0001
0000
1000
1000
,
1000
0000
0000
0000
,
0010
0000
0000
0000
,
1000
0000
0000
0100
,
0100
0000
0000
0000
,
0010
0000
0001
0000
,
1000
0000
0000
0000
,
1000
0001
0100
0000
,
0000
0000
0000
0000
,
0000
0000
0000
1000
,
0000
0100
0100
0100
,
0000
0000
1000
0100
,
0000
0000
0010
0001
,
0000
0000
0001
1000
,
0000
0000
0100
1000
,
0000
0000
0010
0001
,
0000
0000
0100
1000
,
0000
0000
1000
0001
,
0000
0000
0010
0010
,
0000
0000
1000
0001
,
0000
0000
0000
0010
,
0000
1000
0010
0100
,
0000
0000
0001
0001
,
0000
1000
0001
0000
,
0000
0100
0010
1000
,
0000
0100
1000
0001
;
