#TITLE:PARADISE LOST;
#SUBTITLE:;
#ARTIST:Ryu* vs L.E.D-G;
#TITLETRANSLIT:;
#SUBTITLETRANSLIT:;
#ARTISTTRANSLIT:;
#CREDIT:;
#BANNER:PARADISE LOST.png;
#BACKGROUND:PARADISE LOST-bg.png;
#LYRICSPATH:;
#CDTITLE:;
#MUSIC:PARADISE LOST.mp3;
#MENUCOLOR:0.625,0,0,1;
#METERTYPE:DDR X;
#OFFSET:-0.075;
#SAMPLESTART:100.050;
#SAMPLELENGTH:12.000;
#SELECTABLE:YES;
#BPMS:0.000=100.000,39.500=400.000,41.500=200.000,114.500=100.000,122.500=200.000,234.500=100.000,251.000=200.000,283.000=100.000,284.000=399.998,288.000=200.000;
#STOPS:234.500=2.100
;
#BGCHANGES:;

//---------------dance-single - ----------------
#NOTES:
     dance-single:
     :
     Hard:
     16:
     0.940,1.000,0.399,0.203,0.700:
0000
0000
0000
0000
,
0000
2000
0000
0000
0000
3020
0000
0230
,
0320
2030
0000
0000
0000
3002
0000
0000
,
0000
0203
0000
0000
0000
0320
0000
0000
,
0000
0000
1030
0000
1000
0100
0010
0001
0010
0100
0000
0000
0001
0100
0010
0100
,
0010
0100
2000
0000
0000
0000
3002
0000
0000
0000
0023
0000
0000
0000
0230
0000
,
0320
2030
0000
0000
0000
3002
0000
0000
,
0000
2003
0000
0000
0000
0010
0000
0100
,
0000
0000
3001
0100
1000
0100
0010
0001
0100
0010
0100
0010
0100
0100
0100
0100
,
0100
0010
1000
0100
0010
0001
0100
1000
0100
0010
0001
0100
0010
0100
0220
0000
,
0330
0000
0000
0000
0000
0000
2002
0000
3003
0000
0100
1000
0100
0000
0000
0000
,
0010
0001
0010
0000
0100
0010
0100
0000
0000
0000
0001
0010
0001
0000
1000
0010
,
0001
0000
0000
0000
0100
0000
0101
0000
0100
0000
0010
0001
0100
0000
0000
0000
,
0010
0001
0010
0000
0100
0010
0001
0000
0000
0000
1000
0100
0010
0000
0100
0010
,
0001
0000
0000
0000
0010
0000
0100
0000
0010
0000
0100
0000
0100
0010
0100
0000
,
0000
0000
0100
0010
1000
0000
1000
0010
1000
0000
0000
0000
0001
0100
0001
0000
,
0000
0000
0001
0010
0001
0010
0100
0000
0100
0000
0001
0000
0010
0000
0100
0000
,
1000
0000
0100
0000
0010
0000
0001
0000
0100
0000
0010
0100
0010
0000
0100
0010
,
0100
0000
1000
0001
1000
0000
0001
1000
0001
0000
0110
0000
0100
0000
1000
0000
,
0100
0001
0010
0000
0001
0000
0100
0000
0010
0000
0100
0000
0010
0000
1000
0000
,
0100
0110
0100
0110
0100
1000
0100
0010
,
0001
0010
0100
0010
0100
1001
0000
0100
,
0010
0110
0100
0110
0100
0100
0010
1001
,
1010
0010
0001
0110
1100
0100
1000
0110
,
0011
0000
0100
0000
0001
0000
0101
0000
0011
0000
0010
0001
0010
0000
0100
1000
,
0100
0000
0001
0010
0001
0000
0100
1000
0100
0000
0000
0000
0010
0000
0001
0000
,
0100
0010
0100
0010
0100
1001
0100
0010
,
0100
0001
1000
0100
0010
0001
1000
0010
,
0100
0000
0000
0000
0001
0000
0000
0000
1000
0000
0000
0000
0001
0000
0010
0000
0100
0000
1000
0000
0100
0000
0000
1000
0000
0000
0010
0000
1000
0000
0010
0000
,
1000
0000
0010
0000
0100
0000
0000
0100
0000
0000
0100
0000
1000
0000
0010
0000
1000
0000
0010
0000
1000
0000
0000
0010
0000
0000
0100
0000
0100
0000
0000
0001
,
0000
0000
0100
0000
0100
0000
0000
1000
0000
0000
0100
0000
0100
0000
0000
0001
0000
0000
0010
0000
0100
0000
0000
0000
0010
0000
0000
0000
1001
0000
0000
0000
,
1001
0010
0100
1001
1001
0010
0001
0110
,
1100
0000
0100
0000
1000
0000
0110
0000
0011
0000
1000
0100
1000
0100
0010
0000
,
0000
0000
0000
0000
0000
0000
0010
0001
0010
0001
1000
0000
0000
0000
1001
0000
,
0000
0000
1001
0000
0000
0000
1001
0000
0000
0000
1000
0010
0100
0000
0010
0000
,
0100
0000
0010
0000
0100
0000
0010
0000
0100
0000
1000
0010
0100
0000
0010
0000
,
0001
0000
0100
0000
0010
0000
0100
0000
0010
0000
1000
0100
0001
0000
1000
0000
,
0001
0000
0100
0000
1000
0001
0100
0000
0001
0000
1010
0000
0000
0000
1000
0001
,
0100
0010
1000
0010
0100
0010
1000
0100
,
1000
0001
0100
0000
0010
0000
0100
0000
0010
0000
0100
0000
0001
0000
0100
1000
,
0100
0000
0100
0000
0010
0000
0001
0000
0100
0000
0010
0000
0100
0000
0010
1000
,
0100
0000
1000
0000
0100
0000
0010
0000
0001
0010
0100
0000
0010
0000
0100
0000
,
0001
1000
0010
1000
0000
1000
0100
0010
,
0001
1000
0100
0000
0010
0000
0100
0000
0010
0000
1000
0000
0100
0000
0010
0000
,
0001
0000
0100
0000
0010
0000
0100
1000
0010
0000
0100
0000
0001
0000
1000
0100
,
0010
0000
0100
1000
0010
0000
0010
0100
1000
0000
1000
0000
0001
0000
0100
0000
,
0010
1000
0100
0010
0001
1000
0010
0100
,
0001
0010
0100
0010
0100
1000
0100
0010
,
1000
1000
0100
0010
0001
0100
0010
0100
,
0010
1000
0100
0010
0001
0100
0010
0100
,
0000
0000
1001
0000
1000
0000
1001
0000
0000
0000
1000
0100
0010
0000
0000
0000
,
0001
0100
0010
0000
0001
0010
0100
0000
0000
0000
0010
0001
0010
0000
1000
0100
,
0010
0000
0000
0000
0110
0000
0110
0000
0000
0000
0001
0010
0100
0000
0000
0000
,
0100
0001
0100
0000
0000
0000
0010
0001
1000
0000
0100
0010
0100
0000
1000
0010
,
0100
1000
0010
0000
0101
0000
0101
0000
0000
0000
0100
0000
0010
0000
0101
0000
,
0110
0010
0001
0110
0011
0010
0100
1010
,
1001
0000
0010
0000
1000
0000
0101
0000
0011
0000
0001
0010
0001
0010
0001
0000
,
0000
0000
1000
0100
1000
0100
1000
0000
0000
0000
0010
1000
0010
1000
0010
0000
,
0000
0000
0000
0000
0000
0000
0000
0000
0100
0000
0000
0000
0001
0000
0000
0000
0100
0000
0000
0000
0001
0000
0000
0000
0100
0000
0000
0000
0000
0000
0000
0000
0000
0000
0000
0000
0000
0000
0000
0000
0202
0303
0000
0000
0000
0000
0000
0000
1000
0000
0000
0000
0100
0000
0000
0000
0010
0000
0000
0000
0100
0000
0000
0000
,
0010
0100
0010
1000
0100
0010
0001
0100
0010
0100
0010
0100
1000
0100
0010
0001
,
0100
0010
0100
1000
0100
0010
0001
0010
0100
0001
0100
0010
1000
0100
0010
0001
,
0010
0100
1000
0100
0010
0100
0010
0100
0010
0100
0010
1000
0100
1000
0100
1000
,
0100
0010
0100
0010
1000
1000
0100
0100
0010
0010
0001
0001
1000
0000
0100
0000
,
0010
0000
0100
0000
0001
0000
0100
1000
0100
1000
0100
0000
0001
0000
1000
0000
,
0100
0000
0010
0000
0001
0000
1000
0010
0100
0000
0010
0000
1000
0000
0001
0010
,
0100
0000
0010
0000
1000
0000
0100
0000
0010
1000
0001
0000
0100
0000
1000
0100
,
1000
0000
0100
0000
1000
0100
1000
0000
0100
0000
1000
0000
0100
0000
1000
0000
,
0100
1000
0100
1000
0100
0000
1000
0000
0100
0000
1000
0010
0100
1000
0010
0001
,
0100
0000
0010
0000
0100
0000
0010
0000
0100
0010
0100
0000
0010
0100
0001
0100
,
0010
0000
0001
0100
0010
0100
0001
0000
0010
0100
0001
0100
0010
0000
0100
1000
,
0010
0001
0100
0000
1000
0100
0010
1000
0100
1000
0000
0000
0100
0000
0000
0000
,
0220
0000
0000
0330
2002
0000
0000
3003
,
1001
0000
0100
0000
0010
0000
0100
0000
0010
0000
0100
0000
0010
1000
0100
0000
,
1000
0000
0100
0000
1000
0000
0100
0000
1000
0010
0100
0000
1000
0000
0100
0000
,
0010
0000
0100
0000
0010
0000
0100
0000
0010
1000
0100
0000
0010
0000
0100
0000
,
0010
0000
0001
0000
0010
0000
0001
0000
0010
1000
0001
0000
0010
0000
0001
0000
,
0010
0000
0100
0000
0010
0000
0100
0001
0010
0000
0100
0001
0010
0000
0100
0000
,
1000
0000
0100
0000
1000
0000
1000
0100
1000
0100
1000
0100
1000
0010
0001
0000
,
0010
0100
0010
0100
0010
0100
0010
0100
,
0010
0001
0010
0001
0010
0001
0010
0001
,
0010
0001
0010
0001
0010
0000
1000
0000
0010
0000
0100
0000
0010
0100
0010
0100
,
1000
0000
0100
0000
1000
0000
0100
0000
1000
0000
0100
0000
1000
0000
0100
1000
,
0100
1000
0100
0000
0100
0000
0010
0000
0000
0100
0010
0100
0010
0001
0000
0000
,
0010
0001
0010
0001
0010
0001
0011
0000
,
0010
0010
0100
0010
0100
0010
0110
0110
,
1000
0010
1000
0010
1000
0010
1010
1010
,
0001
0010
0001
0100
0001
0000
0000
0000
0010
1000
0010
0100
0010
0000
0000
0100
,
0010
0100
0001
0100
0000
0000
0001
0100
1000
0100
0010
0000
0100
0010
0100
0010
,
0002
0000
0000
0000
,
0000
0000
0000
0000
,
0000
0000
0000
0003
;

//---------------dance-single - Copied from----------------
#NOTES:
     dance-single:
     Copied from:
     Challenge:
     19:
     1.000,1.000,0.828,0.279,1.000:
0000
0000
0000
0000
,
0000
0000
0022
0000
0000
0000
0000
0000
0000
0030
0200
0003
0000
0000
0320
0000
,
0200
0030
0002
0300
0000
0000
0000
0000
0000
0000
2000
0000
0000
0000
0003
0000
,
0000
0000
0020
3000
0000
0000
0000
0000
0000
0000
0200
0030
0000
0000
0000
0000
,
0000
0000
0301
0000
0001
0010
0100
1000
0100
0010
0001
0010
0100
0010
0100
0010
,
0100
0010
0002
0000
0000
0000
2000
0000
0003
0000
0200
0000
3000
0000
0020
0300
,
0200
0030
0002
0300
0000
0000
0000
0000
0000
0000
2000
0003
0000
0000
0000
0000
,
0000
3002
0000
0000
0000
0100
0000
0010
,
0000
0000
0000
0000
1003
0000
0010
0000
0001
0000
0010
0000
0100
0000
1000
0000
0010
0000
0100
0000
0010
0001
0100
0001
0010
0100
0010
0100
0010
0100
0010
0100
,
0010
0001
0100
0010
0001
0000
0010
0000
0100
0000
1000
0000
0010
0000
0001
0000
0010
0000
0100
0000
1000
0100
0010
0001
0010
0100
1000
0001
0220
0000
0000
0000
,
0330
0000
2002
0000
3003
0000
0220
0000
0330
0000
0010
0001
0010
0001
0010
0001
,
0010
0001
0010
0100
0010
0100
0010
0100
0010
0100
1000
0100
1000
0100
1000
0100
,
1000
0010
1010
0000
0010
0000
1010
0000
0010
0000
0100
1000
0100
1000
0100
1000
,
0100
1000
0100
0010
0100
0010
0100
0010
0100
0010
0001
0010
0001
0010
0001
0010
,
0001
0010
0110
0000
0110
0000
0110
0000
0110
0000
0110
0000
0010
0100
0010
0100
,
0010
0100
0010
0100
0001
0100
0001
0100
0001
0100
0001
0010
1000
0010
1000
0010
,
1000
0010
1000
0100
1000
0100
0110
0000
0010
0000
1000
0000
0100
0000
0010
0000
,
0001
0000
0010
0000
0100
0000
1000
0000
0010
0000
0100
0010
0110
0000
0010
0100
,
0110
0000
0001
1000
1001
0000
1000
0001
1001
0000
0110
0000
0010
0000
0001
0000
,
0010
1000
0100
0010
1000
0001
0010
0001
0010
0100
1000
0100
1000
0100
0001
0100
,
0010
1000
0110
0000
0010
0000
0110
0000
0010
0000
0001
0010
0001
0010
0100
1000
,
0100
1000
0100
0010
0001
0100
0010
1000
0010
0100
0001
0010
0100
1000
0010
0001
,
0100
1000
0110
0000
0010
0000
0110
0000
0010
0000
0011
0000
0101
0000
1001
0000
,
0101
0110
1010
0110
0011
0110
0101
0110
,
1100
0000
1010
0000
1001
0000
1010
0000
1100
0000
0100
1000
0100
1000
0010
0001
,
0010
0001
1000
0100
1000
0100
0010
0001
0010
0001
0010
0000
0100
0001
1000
0000
,
0010
1000
0100
0000
0010
0001
0100
0000
0010
0000
1001
0000
0010
0000
0100
0000
,
0010
1000
0001
0010
0100
1000
0001
0100
,
0010
0000
0000
0000
1000
0000
0000
0000
0001
0000
0000
0000
1000
0000
0100
0000
0010
0000
0001
0000
0011
0000
0000
0001
0000
0000
0100
0000
0001
0010
0100
0000
,
0001
0000
0100
0000
0010
0000
0000
0010
0000
0000
0010
0000
0001
0010
0100
0000
0001
0000
0100
0000
0001
0000
0100
0010
0000
0000
0010
0000
0010
0000
0100
0010
,
0000
0000
0010
0000
0010
0000
1000
0010
0000
0000
0010
0000
0010
0000
1000
0010
0000
0100
0010
0000
0011
0000
0000
0000
0101
0000
0000
0000
1001
0000
0000
0000
,
1001
1100
1010
1001
1001
0110
1010
0110
,
0011
0000
0110
0000
0101
0000
0110
0000
1100
0000
0001
0010
0001
0010
0100
1000
,
0100
1000
0010
0001
0010
0001
0100
1000
0100
1000
1001
0000
0000
0000
1001
0000
,
0000
0000
1001
0000
0000
0000
1001
0000
0000
0000
0002
0100
0013
0000
0100
0000
,
0010
0000
0100
0000
0010
0000
0100
0000
0010
0000
0002
0100
0013
0000
0100
0000
,
1000
0000
0010
0000
0100
0000
0010
0000
0100
0000
0002
0010
1003
0100
0001
0000
,
1000
0000
0010
0000
0001
1000
0010
0000
0010
0000
0101
0000
0000
0000
0001
1000
,
0010
0100
0001
0100
0010
0100
0001
0010
,
0001
1000
0010
0000
0100
0000
0010
0000
0100
0000
0010
0000
1000
0000
0010
0001
,
0010
0001
0010
0000
0100
0000
1000
0000
0010
0000
0100
0000
0010
0000
0100
0001
,
0010
0000
0001
0000
0010
0000
0100
0000
1000
0100
0010
0000
0100
0000
0010
0000
,
1000
0001
0100
0001
0000
0001
0010
0100
,
1000
0001
0010
1000
0100
0000
0010
0000
0100
0000
0001
0000
0010
0000
0100
0000
,
1000
0000
0010
0000
0100
0000
0010
0001
0100
0000
0010
0000
1000
0000
0002
0010
,
0103
0000
0020
0001
0130
0000
0200
0010
0301
0000
0001
0000
1000
0000
0010
0000
,
0100
0001
0010
0100
1000
0001
0100
0010
,
1000
0001
0100
1000
0010
0000
0100
0000
0010
0000
0001
0000
0010
0000
0100
0010
,
0001
1000
0001
0000
0010
0000
0100
0000
1000
0000
0010
1000
0100
0001
0010
0000
,
0100
1000
0001
0100
0010
0000
0100
0001
1000
0100
0010
0000
0100
0001
0010
0100
,
0010
0000
1001
0000
0001
0000
1001
0000
0000
0000
0100
0001
0100
0010
0100
0001
,
0100
0010
0100
0001
0100
0010
0100
0001
0100
0010
0100
1000
0100
0010
0100
1000
,
0100
0010
0110
0000
0110
0000
0110
0000
0000
0000
0010
0100
0010
1000
0010
0100
,
0010
1000
0010
0100
0010
1000
0010
0100
0010
1000
0010
0100
0010
0001
0010
0100
,
0010
0001
0110
0000
1010
0000
1010
0000
0000
0000
0011
0000
0110
0000
1010
0000
,
0110
0101
1100
0110
1100
0101
0011
0101
,
1001
0000
1100
0000
1001
0000
1010
0000
1100
0000
1000
0100
1000
0100
1000
0100
,
1000
0100
0001
0010
0001
0010
0001
0010
0001
0010
0100
0001
0100
0001
0100
0001
,
0100
0000
0000
0000
0001
0000
0000
0000
0010
0000
0000
0000
1000
0000
0000
0000
0010
0000
0000
0000
1000
0000
0000
0000
0010
0000
0000
0000
1000
0000
0000
0000
0010
0000
0000
0000
1000
0000
0000
0000
2020
3030
0000
0000
0000
0000
0000
0000
0001
0000
0000
0000
0010
0000
0000
0000
0100
0000
0000
0000
0010
0000
0000
0000
,
0100
0010
0100
0001
0010
0100
1000
0010
0100
0010
0100
0010
0001
0010
0100
1000
,
0010
0100
0010
0001
0010
0100
1000
0100
0010
1000
0010
0100
0001
0010
0100
1000
,
0100
0010
0001
0010
0100
0010
0100
0010
0100
0010
0011
0001
0010
0001
0010
0001
,
0010
0000
0100
0000
0010
0000
0100
0000
0001
0010
0001
0010
0100
0010
0100
1000
0100
1000
0100
0010
0100
0010
0001
0010
0001
0000
0000
0000
0010
0000
0001
0000
,
0100
0000
0010
0000
1000
0000
0010
0001
0100
1000
0010
0100
1000
0000
0001
0100
,
0010
0000
0100
0001
1000
0000
0001
0100
0010
0000
0100
0000
0001
0000
1000
0100
,
0010
0000
0100
0000
0001
0000
0010
0000
0100
0001
1000
0000
0010
0000
0001
0010
,
0011
0000
0010
0000
0001
0010
0011
0000
0010
0000
0001
0000
0010
0000
0001
0000
,
0010
0001
0010
0001
0010
0000
0001
0000
0010
0000
0001
0100
0010
0001
0100
1000
,
0010
0000
0100
0000
0010
0000
0100
0000
0010
0100
0110
0000
0100
0010
1000
0010
,
0100
0010
1000
0010
0100
0010
1000
0010
0100
0010
1000
0010
0100
1000
0010
0001
,
0100
1000
0010
0100
0001
0010
0100
0001
0010
0001
0100
1000
0010
0000
0000
0000
,
0220
0000
0000
0330
2002
0000
0000
3003
,
1001
0000
0010
0000
0100
0000
0010
0000
0100
0000
0010
0000
0100
0001
0010
0100
,
0001
0000
0010
0000
0001
0000
0010
0000
0001
0100
0010
1000
0001
0000
0010
0000
,
0100
0000
0010
0000
0100
0000
0010
0000
0100
0001
0010
1000
0100
0001
0010
0000
,
0100
0000
1000
0000
0100
0000
1000
0000
0100
0001
1000
0001
0100
0001
1000
0000
,
0100
0000
0010
0000
0100
0000
0010
1000
0100
1000
0010
1000
0100
0000
0010
0000
,
0001
0000
0010
0000
0001
0000
0010
0100
0001
0100
0010
0100
0001
0100
0010
0000
,
0100
0010
0100
0010
0100
0010
0100
0010
,
0100
1000
0100
1000
0100
1000
0100
1000
,
0100
1000
0100
1000
0100
1000
0100
1000
0100
0010
0100
0010
0100
0010
0100
0010
,
0001
0000
0010
0000
0001
0000
0010
0000
0001
0000
0010
0000
0011
0000
0001
0010
,
0001
0010
0001
0010
0001
0010
0100
0010
0100
0010
0100
0010
0100
1000
0000
0000
,
0100
1000
0100
1000
0100
1000
1100
0000
,
0100
0100
0110
0110
0110
0110
0110
0110
,
0101
0101
0101
0101
0101
0101
0101
0101
,
1000
0100
1000
0010
1000
0001
1000
0010
0100
0001
0100
0010
0100
1000
0100
0010
,
0100
0010
1000
0010
0001
0100
1000
0010
0001
0010
0100
1000
0010
0100
0010
0011
,
2002
0000
0000
0000
,
0000
0000
0000
0000
,
0000
0000
0000
3003
;

//---------------dance-single - ----------------
#NOTES:
     dance-single:
     :
     Medium:
     12:
     0.542,0.617,0.045,0.120,0.000:
0000
0000
0000
0000
,
0000
0000
2000
0000
0000
0000
0000
0000
0000
0000
0000
0000
0000
3000
0000
0000
,
0000
0002
0000
0000
0000
0000
0000
0003
,
0000
0200
0000
0000
0000
0000
0000
0300
,
0000
0020
0000
0000
0000
0000
0000
0030
,
0000
2000
0000
0000
0000
0000
0000
3000
,
0000
0002
0000
0000
0000
0000
0000
0003
,
0000
2000
0000
0000
0000
0000
0000
3000
,
0000
1000
0000
0010
0100
0001
1000
0100
,
0010
0001
1000
0100
0010
1000
0001
0200
,
0000
0000
0000
0301
0000
1000
0000
0010
,
0000
1000
0001
1000
0000
0100
0010
0100
,
0000
1000
0100
0010
0000
0100
0000
0001
,
0000
0100
0010
0100
0010
0100
0001
0100
,
0010
1000
0100
0010
0000
0100
0001
0100
,
0000
1000
0100
0010
0000
1000
0100
0010
,
0001
0100
0001
0101
0000
0100
0010
0100
,
0000
1000
0100
0010
0000
1000
0100
0010
,
0000
0100
0010
0100
0000
1000
0100
0001
,
0000
1000
0100
0010
0001
0100
0010
0100
,
0000
1000
0100
0010
0000
1000
0001
0100
,
0000
1000
0010
0100
0000
1000
0100
0010
,
0001
0100
0000
0001
0000
0100
0010
0100
,
0000
1000
0100
0010
0000
0100
0001
0100
,
0000
1000
0100
0000
0000
1000
0100
0010
,
0100
0001
0100
0010
1000
0100
0010
0001
,
0100
0010
1000
0100
0001
2002
0000
0000
,
0000
0000
0000
0000
,
3003
0000
0000
0000
0000
1000
0000
0100
,
0000
0010
0000
0001
0000
1000
0000
0010
,
0000
0100
0000
0010
0000
1000
0000
0001
,
0000
1000
0000
0001
0000
1000
0000
0010
,
0000
0100
0000
0001
0000
1000
0100
0010
,
0001
0100
1000
0100
0010
0200
0000
0000
,
0000
0000
0000
0000
0000
0301
0000
1000
,
0000
0010
0000
0100
0000
1000
0100
0010
,
0001
0100
0000
0010
0000
1000
0100
0010
,
0001
0100
0000
0001
0000
0100
0000
0010
,
0000
0001
0010
0100
1000
0100
0000
0010
,
0000
0100
0010
0100
0010
0100
0000
0001
,
0000
1000
0100
0010
0001
0100
0010
0100
,
0010
0100
0000
1000
0100
0010
0000
0100
,
0001
0100
0000
0010
0100
0010
0000
0100
,
0000
1000
0100
0010
0001
0100
0000
0100
,
0000
1000
0100
0010
0001
0100
0000
0010
,
0100
0010
0000
0100
0001
0100
0000
0010
,
0100
0010
0000
1000
0100
0010
0000
0001
,
0100
0010
0100
0001
0100
0010
0000
1000
,
0100
0010
0001
0100
0010
0100
0000
1000
,
0100
0010
0000
0001
0010
0100
0000
0000
,
0100
0010
0100
0010
0000
0100
0010
0100
,
0010
0100
0010
0100
0010
0100
0010
0100
,
0010
1000
0100
0010
0000
0100
0010
0100
,
0010
0100
0010
0100
0010
0001
0010
0001
,
0010
0100
0010
0100
0010
1000
1000
0100
,
0100
0010
0010
0001
0001
0010
0010
0100
,
0100
1000
1000
0100
0100
0010
1000
0010
,
1000
0010
0100
0010
0100
0010
0001
1000
,
0100
0010
0001
0010
0000
2002
3003
0000
,
0100
0000
1000
0010
0100
0001
1000
0100
,
0010
0001
0100
0010
1000
0001
1000
0100
,
0010
0001
0100
1000
0100
0010
0001
0010
,
0100
1000
0100
0001
0100
0001
1001
0000
,
0100
0010
0100
0010
,
0100
0000
0010
0000
1000
0010
1000
0000
,
0001
0000
0100
0000
0010
0100
0010
0000
,
1000
0000
0100
0000
0001
0100
0001
0000
,
0100
0000
0010
0000
0100
0010
0100
0000
,
0010
0000
1000
0000
0001
1000
0001
0000
,
0100
0010
0100
0000
0010
1000
0010
0000
,
0100
0001
0100
0000
0001
0000
1000
0000
,
2000
0000
0000
0000
,
3001
0000
1000
0000
0010
0000
0100
0010
,
0100
0000
1000
0000
0100
0010
0100
0110
,
0000
0001
0000
0000
0100
0010
0100
0010
,
0100
0000
0001
0000
1000
0100
0010
0001
,
0100
0000
0010
0000
1000
0100
0010
0001
,
0010
0000
0100
0000
0001
0100
0001
0100
,
0001
0000
1000
0000
1000
0100
0010
0100
,
0010
0000
0100
0001
1000
0100
0010
0001
,
0100
0000
0010
0000
0100
0010
0100
0010
,
0100
0000
1000
0000
1000
0100
0010
0001
,
0100
0000
0010
0000
1000
0100
0010
0001
,
0100
0000
0001
0000
0100
0001
0100
0000
,
1000
0100
0010
0001
0010
0100
1000
0100
,
0010
0100
0010
0100
0010
0001
0010
0001
,
0100
0010
0100
0010
1000
0100
0010
0001
,
0100
0010
1000
0100
0010
0100
0010
0001
,
2002
0000
0000
0000
,
0000
0000
0000
0000
,
0000
0000
0000
0000
,
3003
0000
0000
0000
;

//---------------dance-single - ----------------
#NOTES:
     dance-single:
     :
     Easy:
     7:
     0.362,0.373,0.075,0.083,0.000: // measure 1
0000
0000
0000
0000
,  // measure 2
0000
0020
0000
0000
0000
0030
0000
0000
,  // measure 3
0000
2000
0000
0000
0000
3000
0000
0000
,  // measure 4
0000
0020
0000
0000
0000
0030
0000
0000
,  // measure 5
0000
0002
0000
0000
0000
0003
0000
0000
,  // measure 6
0000
0200
0000
0000
0000
0300
0000
0000
,  // measure 7
0000
0020
0000
0000
0000
0030
0000
0000
,  // measure 8
0000
0002
0000
0000
0000
0003
0000
0000
,  // measure 9
0000
1000
0000
0100
0000
0010
0000
0001
,  // measure 10
0000
1000
0000
0100
0000
0010
0000
0001
,  // measure 11
0000
0000
0000
0000
0000
1000
0000
0010
,  // measure 12
0000
0100
0000
0001
0000
1000
0000
0100
,  // measure 13
0000
0001
0000
1001
0000
0100
0000
0010
,  // measure 14
0000
0100
0000
0010
0000
1000
0000
0100
,  // measure 15
0000
0010
0000
1001
0000
1000
0000
0010
,  // measure 16
0000
0100
0000
0010
0000
0100
0000
0010
,  // measure 17
0000
1000
0000
1001
0000
0100
0000
0010
,  // measure 18
0000
0100
0000
0010
0000
0100
0000
0001
,  // measure 19
0000
1000
0000
0100
0000
0010
0000
1000
,  // measure 20
0000
0001
0000
0100
0000
1000
0000
0100
,  // measure 21
0000
0010
0000
1001
0000
0100
0000
0010
,  // measure 22
0000
0001
0000
0010
0000
0001
0000
0010
,  // measure 23
0000
0100
0000
1001
0000
0100
0000
0010
,  // measure 24
0000
0100
0000
0010
0000
1000
0000
0100
,  // measure 25
0000
0010
0000
0001
0000
1000
0100
0010
,  // measure 26
0001
0100
0000
0000
0000
0100
0000
0010
,  // measure 27
0000
0100
0000
0001
0000
1001
0000
0100
,  // measure 28
0000
0010
0000
0100
0000
0010
0000
1000
,  // measure 29
0000
0100
0000
0010
0000
1000
0000
0100
,  // measure 30
0000
0010
0000
1000
0000
0100
0000
0010
,  // measure 31
0000
0001
0000
0100
0000
0001
1000
0000
,  // measure 32
0000
0010
0000
0000
0000
1000
0000
0010
,  // measure 33
0000
1000
0000
0000
0000
1000
0000
0010
,  // measure 34
0000
1000
0000
0010
0000
1000
0000
0100
,  // measure 35
0000
0010
0000
0100
0000
0001
0000
1000
,  // measure 36
0000
0001
0000
1000
0000
0100
0000
0010
,  // measure 37
0000
0100
0000
0010
0000
0001
0000
0010
,  // measure 38
0000
0001
0000
0010
0000
0100
0000
1000
,  // measure 39
0000
0100
0000
1000
0000
0100
0000
0010
,  // measure 40
0000
0001
0000
0100
0000
1000
0000
0001
,  // measure 41
0000
1000
0000
0001
0000
1000
0000
0100
,  // measure 42
0000
0010
0000
0001
0000
1000
0000
0010
,  // measure 43
0000
0100
0000
0001
0000
1000
0000
1000
,  // measure 44
0000
0001
0000
0001
0000
0100
0000
0100
,  // measure 45
0000
0010
0000
0010
0000
1000
0000
1000
,  // measure 46
0000
0001
0000
0001
0000
0100
0000
0100
,  // measure 47
0000
0010
0000
0010
0000
1000
0000
0001
,  // measure 48
0000
1000
0000
0001
0000
0100
0000
0100
,  // measure 49
0000
0010
0000
0010
0000
1000
0000
0001
,  // measure 50
0000
1000
0000
0100
0000
0010
0000
0001
,  // measure 51
0000
0010
0000
0100
0000
1000
0000
1000
,  // measure 52
0000
1000
0000
1000
0000
0001
0000
0001
,  // measure 53
0000
0001
0000
0001
0000
1000
0000
1000
,  // measure 54
0000
0001
0000
1000
0000
0001
0000
1000
,  // measure 55
0000
0001
0000
1000
0000
1001
0000
0100
,  // measure 56
0000
0010
0000
0100
0000
1001
0000
0100
,  // measure 57
0000
0010
0000
0100
0000
1000
0000
0100
,  // measure 58
0000
0010
0000
0001
0000
0100
0000
0100
,  // measure 59
0000
0100
0000
0010
0000
2002
3003
0000
,  // measure 60
0100
0010
1000
0000
0000
0000
0100
0000
,  // measure 61
0010
0000
1000
0000
0001
0100
0010
0000
,  // measure 62
1000
0000
0100
0000
0010
1000
0001
0000
,  // measure 63
0010
0000
1000
0000
0001
1000
0010
0000
,  // measure 64
0000
0100
0000
0001
,  // measure 65
0000
0001
0000
0001
,  // measure 66
0000
0100
0010
1000
,  // measure 67
0000
0001
0000
0000
0100
0000
0010
0000
,  // measure 68
0000
1000
0010
0100
,  // measure 69
0000
1000
0100
0010
,  // measure 70
0001
0010
0100
1000
,  // measure 71
0010
0100
0001
1000
,  // measure 72
0001
0000
0000
0000
,  // measure 73
1000
0100
0010
0100
,  // measure 74
0010
1000
0100
0010
,  // measure 75
1000
0001
0100
0010
,  // measure 76
0001
1000
0100
0010
,  // measure 77
0001
0100
0010
1000
,  // measure 78
0001
0100
1000
0100
,  // measure 79
0010
0001
0010
0100
,  // measure 80
1000
0100
0010
0001
,  // measure 81
1000
0001
1000
0001
,  // measure 82
0100
0010
0100
0010
,  // measure 83
1000
0001
1000
0001
,  // measure 84
0100
0010
0100
0010
,  // measure 85
1000
1000
0001
0001
,  // measure 86
0100
0100
0010
0010
,  // measure 87
1000
0100
0010
0001
,  // measure 88
0010
0100
1000
0001
,  // measure 89
2002
0000
0000
0000
,  // measure 90
0000
0000
0000
0000
,  // measure 91
3003
0000
0000
0000
;

//---------------dance-single - ----------------
#NOTES:
     dance-single:
     :
     Beginner:
     3:
     0.123,0.265,0.015,0.000,0.000: // measure 1
0000
0000
0000
0000
,  // measure 2
0000
1000
0000
0000
0000
0000
0000
0000
,  // measure 3
0000
0001
0000
0000
0000
0000
0000
0000
,  // measure 4
0000
0100
0000
0000
0000
0000
0000
0000
,  // measure 5
0000
0010
0000
0000
0000
0000
0000
0000
,  // measure 6
0000
0001
0000
0000
0000
0000
0000
0000
,  // measure 7
0000
1000
0000
0000
0000
0000
0000
0000
,  // measure 8
0000
0010
0000
0000
0000
0000
0000
0000
,  // measure 9
0000
0001
0000
0000
0000
0000
0000
0000
,  // measure 10
0000
1000
0000
0000
0000
0000
0000
1000
,  // measure 11
0000
0000
0000
0000
0000
0001
0000
0000
,  // measure 12
0000
0000
0000
0000
0000
1000
0000
0000
,  // measure 13
0000
0010
0000
0000
0000
0100
0000
0000
,  // measure 14
0000
0000
0000
0000
0000
0001
0000
0000
,  // measure 15
0000
1000
0000
1000
0000
1000
0000
0000
,  // measure 16
0000
0000
0000
0000
0000
0010
0000
0000
,  // measure 17
0000
0001
0000
0001
0000
0001
0000
0000
,  // measure 18
0000
0000
0000
0000
0000
0100
0000
0000
,  // measure 19
0000
1000
0000
1000
0000
1000
0000
0000
,  // measure 20
0000
0000
0000
0000
0000
0010
0000
0000
,  // measure 21
0000
0001
0000
0001
0000
0001
0000
0000
,  // measure 22
0000
0000
0000
0000
0000
0100
0000
0000
,  // measure 23
0000
1000
0000
1000
0000
1000
0000
0000
,  // measure 24
0000
0000
0000
0000
0000
0010
0000
0000
,  // measure 25
0000
0001
0000
0001
0000
0001
0000
0000
,  // measure 26
0000
0000
0000
0000
0000
0100
0000
0000
,  // measure 27
0000
1000
0000
1000
0000
1000
0000
0000
,  // measure 28
0000
0000
0000
0000
,  // measure 29
0000
0000
0000
0000
0000
1000
0000
0000
,  // measure 30
0000
0001
0000
0000
0000
1000
0000
0000
,  // measure 31
0000
0001
0000
0000
0000
1000
0000
0000
,  // measure 32
0000
0000
0000
0000
0000
0001
0000
0000
,  // measure 33
0000
0000
0000
0000
0000
1000
0000
0000
,  // measure 34
0000
0000
0000
0000
0000
0100
0000
0000
,  // measure 35
0000
0000
0000
0000
0000
0010
0000
0000
,  // measure 36
0000
0000
0000
0000
0000
0001
0000
0000
,  // measure 37
0000
0000
0000
0000
0000
1000
0000
0000
,  // measure 38
0000
0000
0000
0000
0000
0100
0000
0000
,  // measure 39
0000
0000
0000
0000
0000
0010
0000
0000
,  // measure 40
0000
0000
0000
0000
0000
0100
0000
0000
,  // measure 41
0000
0000
0000
0000
0000
0010
0000
0000
,  // measure 42
0000
0000
0000
0000
0000
1000
0000
0000
,  // measure 43
0000
0000
0000
0000
0000
1001
0000
0000
,  // measure 44
0000
0000
0000
0000
0000
1000
0000
0000
,  // measure 45
0000
0000
0000
0000
0000
0001
0000
0000
,  // measure 46
0000
0000
0000
0000
0000
1000
0000
0000
,  // measure 47
0000
0000
0000
0000
0000
0010
0000
0000
,  // measure 48
0000
0000
0000
0000
0000
0100
0000
0000
,  // measure 49
0000
0000
0000
0000
0000
0010
0000
0000
,  // measure 50
0000
0000
0000
0000
0000
1000
0000
0000
,  // measure 51
0000
0000
0000
0000
0000
1001
0000
0000
,  // measure 52
0000
0000
0000
0000
,  // measure 53
0000
0010
0000
0000
0000
0010
0000
0000
,  // measure 54
0000
0000
0000
0000
,  // measure 55
0000
1000
0000
0000
0000
1000
0000
0000
,  // measure 56
0000
0000
0000
0001
0000
0001
0000
0000
,  // measure 57
0000
0000
0000
1000
0000
1000
0000
0000
,  // measure 58
0000
0000
0000
0000
0000
0100
0000
0000
,  // measure 59
0000
0000
0000
0000
0000
1000
0000
0000
,  // measure 60
0000
0000
0000
0100
,  // measure 61
0000
0000
0000
0001
,  // measure 62
0000
0000
0000
1000
,  // measure 63
0000
0000
0000
0100
,  // measure 64
0000
0000
0000
1000
,  // measure 65
0000
0000
0000
0001
,  // measure 66
0000
0000
0000
0100
,  // measure 67
0000
0000
0000
0010
,  // measure 68
0000
0000
0000
1000
,  // measure 69
0000
0000
0000
0001
,  // measure 70
0000
0000
0000
1000
,  // measure 71
0000
0000
0000
0010
,  // measure 72
1000
0000
0000
0000
,  // measure 73
1000
0000
0000
0000
,  // measure 74
0010
0000
0000
0000
,  // measure 75
0100
0000
0000
0000
,  // measure 76
0010
0000
0000
0000
,  // measure 77
0100
0000
0000
0000
,  // measure 78
1000
0000
0000
0000
,  // measure 79
0100
0000
0000
0000
,  // measure 80
0010
0000
0000
0000
,  // measure 81
0001
0000
0000
0000
,  // measure 82
0010
0000
0000
0000
,  // measure 83
0100
0000
0000
0000
,  // measure 84
1000
0000
0000
0000
,  // measure 85
1000
0000
0000
0000
,  // measure 86
0001
0000
0000
0000
,  // measure 87
1000
1000
1000
1000
,  // measure 88
0000
0001
0001
0001
,  // measure 89
0001
0000
0000
0000
;
