#TITLE:OkeLah Kalo Begitu;
#SUBTITLE:;
#ARTIST:Warteg Boyz;
#TITLETRANSLIT:;
#SUBTITLETRANSLIT:;
#ARTISTTRANSLIT:;
#GENRE:;
#CREDIT:;
#BANNER:OkeLah Kalo Begitu.png;
#BACKGROUND:OkeLah Kalo Begitu-bg.png;
#LYRICSPATH:;
#CDTITLE:;
#MUSIC:OkeLah Kalo Begitu.mp3;
#OFFSET:-1.542;
#SAMPLESTART:100.030;
#SAMPLELENGTH:12.000;
#SELECTABLE:YES;
#BPMS:0.000=100.000
;
#STOPS:
;
#BGCHANGES:;
#KEYSOUNDS:;
#ATTACKS:;

//---------------dance-single - ----------------
#NOTES:
     dance-single:
     :
     Hard:
     7:
     0.182,0.257,0.043,0.112,0.021,209.000,8.000,21.000,0.000,0.000,0.000,0.182,0.257,0.043,0.112,0.021,209.000,8.000,21.000,0.000,0.000,0.000:
0000
0000
0000
0000
,
0000
0000
0000
0000
,
0000
0000
0000
0000
,
0000
0000
0000
0000
,
1000
0000
0010
0000
1000
0010
1000
0000
,
0010
0000
0100
0000
0001
0100
0001
0000
,
0100
0000
0100
0000
0010
1000
0010
0000
,
0100
0000
0100
0000
0010
0001
0010
0000
,
1000
1000
0001
0002
,
1003
0100
1000
2000
,
3001
0010
0100
0200
,
0310
0001
0002
1003
,
0100
0010
0001
0002
,
1003
1000
2000
3001
,
0001
0001
0002
1003
,
0100
0100
0020
0130
,
1000
0000
0100
0000
0010
0001
0010
0000
,
1000
0000
1000
0000
0100
1000
0100
0000
,
0010
0000
0010
0000
0100
0001
0100
0000
,
0010
0000
0010
0000
0010
1000
0010
0000
,
1000
1000
0001
0001
,
0100
0100
0010
0010
,
1000
1000
0001
0001
,
0100
0100
0010
0010
,
2000
0000
0000
0000
,
0000
0000
0000
0000
3000
0000
0000
0000
0000
0000
0000
0000
1000
0000
0000
0100
,
0000
0002
0000
0000
0000
0000
0000
0000
0000
0000
0000
0000
0000
0000
0000
0000
,
0000
0000
0003
0000
0000
0000
0010
1000
,
0020
0000
0000
0000
,
0000
0000
0030
0000
1000
0001
1000
0001
,
2000
0000
0000
0000
0000
0000
0000
3000
,
0001
0001
0200
0310
,
0010
0010
1000
1000
,
0001
0001
1000
1000
,
0100
0010
1000
0100
,
0010
0001
2000
0000
,
3001
0000
0001
0000
0010
0100
0110
0000
,
0010
0000
0010
0000
1000
0001
1001
0000
,
0010
0000
0010
0000
0100
0001
1001
0000
,
0010
0000
0010
0000
0001
0000
1000
0001
,
1001
0000
1000
1000
,
2000
0000
0000
3000
0001
0000
0001
0000
,
0020
0000
0000
0030
0100
0000
0100
0000
,
2000
0000
0000
3000
0100
0000
0100
0000
,
0010
0000
0100
0000
1000
0100
0001
0000
,
0010
0000
0010
0000
0001
0010
1000
0000
,
0100
0000
1000
0000
1000
0100
1000
0000
,
0010
0000
0010
0000
0001
0010
0001
0000
,
2000
0000
0000
3000
,
0002
0000
0003
0000
,
0200
0000
0300
0000
,
0020
0000
0030
0000
,
0001
0000
0000
0001
0000
0001
0000
0001
0001
0000
0001
0000
1001
0000
0000
0000
,
1000
0000
1000
0000
1000
0000
1000
1000
1000
0000
0100
0000
0110
0000
0000
0000
,
0001
0000
0001
0000
0001
0000
0001
0000
1000
0000
1000
0000
1000
0000
0100
0100
,
0110
0000
0000
0000
0100
0000
1000
1000
1000
0000
1000
0000
1000
0000
0000
0000
,
0001
0001
1001
0000
;

//---------------dance-single - ----------------
#NOTES:
     dance-single:
     :
     Beginner:
     1:
     0.044,0.061,0.000,0.021,0.000,54.000,0.000,4.000,0.000,0.000,0.000,0.044,0.061,0.000,0.021,0.000,54.000,0.000,4.000,0.000,0.000,0.000:
0000
0000
0000
0000
,
0000
0000
0000
0000
,
0000
0000
0000
0000
,
0000
0000
0000
0000
,
1000
0000
0000
0000
,
1000
0000
0000
0000
,
0001
0000
0000
0000
,
0100
0000
0000
0000
,
0010
0000
0000
0000
,
0100
0000
0000
0000
,
0100
0000
0000
0000
,
0100
0000
0000
0000
,
0010
0000
0000
0000
,
1000
0000
0000
0000
,
0001
0000
0000
0000
,
0100
0000
0000
0000
,
1000
0000
0000
0000
,
0100
0000
0000
0000
,
0010
0000
0000
0000
,
0001
0000
0000
0000
,
1000
0000
0000
0000
,
1000
0000
0000
0000
,
0001
0000
0000
0000
,
0001
0000
0000
0000
,
0200
0000
0000
0000
,
0000
0000
0300
0000
,
0020
0000
0000
0000
,
0000
0000
0030
0000
,
2000
0000
0000
0000
,
0000
0000
3000
0000
,
0002
0000
0000
0000
,
0000
0000
0003
0000
,
1000
0000
0000
0000
,
0100
0000
0000
0000
,
0010
0000
0000
0000
,
0100
0000
0000
0000
,
0001
0000
0000
0010
,
1000
0000
0000
0100
,
0001
0000
0000
0010
,
0000
1000
0000
0000
,
0001
0000
0000
0000
,
0010
0000
0000
0000
,
0100
0000
0000
0000
,
1000
0000
0000
0000
,
1000
0000
0000
0000
,
1000
0000
0000
0000
,
0100
0000
0000
0000
,
0100
0000
0000
0000
,
0010
0000
0000
0000
,
0010
0000
0000
0000
,
0001
0000
0000
0000
,
0001
0000
0000
0000
,
1000
0000
0000
1000
,
0000
0000
0000
0010
,
0000
0000
0001
0000
,
0000
0000
0100
0000
,
1000
0000
1000
0000
;

//---------------dance-single - ----------------
#NOTES:
     dance-single:
     :
     Easy:
     2:
     0.085,0.091,0.037,0.021,0.000,100.000,7.000,4.000,0.000,0.000,0.000,0.085,0.091,0.037,0.021,0.000,100.000,7.000,4.000,0.000,0.000,0.000:
0000
0000
0000
0000
,
0000
0000
0000
0000
,
0000
0000
0000
0000
,
0000
0000
0000
0000
,
1000
0000
1000
0000
,
1000
0000
1000
0000
,
0001
0000
0001
0000
,
0100
0000
0100
0000
,
0010
0000
0010
0000
,
0100
0000
0100
0000
,
0100
0000
0100
0000
,
0100
0000
0100
0000
,
0010
0000
0010
0010
,
1000
0000
0100
0100
,
0001
0000
0001
0001
,
0100
0000
0010
0010
,
1000
0000
1000
0000
,
0100
0000
0100
0000
,
0010
0000
0010
0000
,
0001
0000
1001
0000
,
1000
0000
1000
0000
,
1000
0000
1000
0000
,
0001
0000
0001
0000
,
0001
0000
0001
0010
,
0200
0000
0000
0000
,
0000
0000
0300
0010
,
0020
0000
0000
0000
,
0000
0000
0030
0100
,
2000
0000
0000
0000
,
0000
0000
3000
0010
,
0002
0000
0000
0000
,
0000
0000
0003
0000
,
1000
0000
0001
0000
,
0100
0000
0010
0000
,
0010
0000
0100
0000
,
0100
0000
1000
0000
,
0001
0000
0000
0010
,
1000
0000
0000
0100
,
0001
0000
0000
0010
,
0000
1000
0100
0010
,
0001
0000
0000
0000
,
0010
0000
0100
0000
,
0100
0000
1000
0000
,
1000
0000
1000
0000
,
1000
0000
0100
0000
,
1000
0000
0010
0000
,
0100
0000
0010
0000
,
0100
0000
0001
0000
,
0010
0000
0100
0000
,
0010
0000
0100
0000
,
0001
0000
0100
0000
,
0001
0000
0001
0000
,
1000
0000
0000
1001
,
0000
0000
0000
0110
,
0000
0000
1001
0000
,
0000
0000
0110
0000
,
1001
0100
1001
0000
;

//---------------dance-single - ----------------
#NOTES:
     dance-single:
     :
     Medium:
     5:
     0.157,0.166,0.118,0.091,0.000,166.000,22.000,17.000,0.000,0.000,0.000,0.157,0.166,0.118,0.091,0.000,166.000,22.000,17.000,0.000,0.000,0.000:
0000
0000
0000
0000
,
0000
0000
0000
0000
,
0000
0000
0000
0000
,
0000
0000
0000
0000
,
1000
0100
1000
0010
,
1000
0001
1000
0100
,
0001
0010
0001
0100
,
0100
0010
0100
1000
,
0010
0001
0010
1000
,
0100
0010
0100
0010
,
0100
0010
0100
0010
,
0100
0010
0100
0010
,
0010
1000
0010
2010
,
3000
0100
0100
0102
,
0003
0000
0001
0002
,
0103
0000
0010
0020
,
1030
0000
1000
0100
,
0100
0010
0100
0010
,
0010
0010
0010
1000
,
0001
0001
1001
0000
,
1001
0000
1001
0000
,
1001
0000
1001
0000
,
0011
0000
0011
0000
,
1001
0000
1001
0010
,
0200
0000
0000
0000
,
0000
0000
0000
0000
0300
0000
0010
0001
,
0020
0000
0000
0000
,
0000
0000
0000
0000
0030
0000
0100
0001
,
2000
0000
0000
0000
,
0000
0000
0000
0000
3000
0000
0010
1000
,
0002
0000
0000
0000
,
0000
0000
0003
0100
,
1001
0000
0101
0000
,
0101
0000
0010
0110
,
0010
0010
0100
0000
,
0100
0000
1001
0000
,
0001
0000
0001
0000
0010
1000
0010
0000
,
1000
0000
0010
0000
0100
0010
0100
0000
,
0001
0000
1000
0000
0001
1000
0010
0000
,
0000
0000
1000
0000
0100
1000
0010
0000
,
0001
0100
0010
0010
,
0010
0001
0100
0100
,
0100
0010
1000
0001
,
1000
0010
1000
0100
,
1000
1000
0100
0100
,
1000
1000
0010
0010
,
0100
0100
0010
0010
,
0100
0100
0001
0001
,
0020
0000
0230
0000
,
0320
0000
0230
0000
,
0302
0000
0203
0000
,
0302
0000
2003
0000
,
3200
0000
0300
1001
,
0010
0000
0100
0000
0010
0100
0110
0000
,
1000
0001
1001
0100
,
0010
0000
0100
0010
0110
0000
0100
0000
,
1001
0100
1001
0000
;
