#TITLE:My Soul, Your Beats!;
#SUBTITLE:Angel Beats! Main Opening Theme;
#ARTIST:Lia;
#TITLETRANSLIT:;
#SUBTITLETRANSLIT:;
#ARTISTTRANSLIT:;
#GENRE:;
#CREDIT:;
#BANNER:My Soul, Your Beats!.png;
#BACKGROUND:My Soul, Your Beats!-bg.png;
#LYRICSPATH:My Soul, Your Beats!.lrc;
#CDTITLE:;
#MUSIC:My Soul, Your Beats!.mp3;
#OFFSET:-0.133;
#SAMPLESTART:0.030;
#SAMPLELENGTH:12.000;
#SELECTABLE:YES;
#BPMS:0.000=145.020
;
#STOPS:
;
#BGCHANGES:;
#KEYSOUNDS:;
#ATTACKS:;

//---------------dance-single - ----------------
#NOTES:
     dance-single:
     :
     Hard:
     10:
     0.523,0.504,0.022,0.389,0.039,293.000,2.000,35.000,0.000,0.000,0.000,0.523,0.504,0.022,0.389,0.039,293.000,2.000,35.000,0.000,0.000,0.000:
0000
0000
1000
0100
0010
1000
0100
0010
,
1000
0002
0000
0000
0000
0000
0000
0000
,
0000
0000
1003
0010
0100
1000
0100
0010
,
0001
2000
0000
0000
0000
0000
0000
0000
,
0000
3000
0010
0100
0001
1000
0010
0100
,
0001
1000
0010
2002
0003
3000
0000
0000
,
0000
0000
1000
0100
0010
1000
0001
0100
,
0010
2000
0000
0000
0000
0000
0000
0000
,
0000
0000
3000
1000
0000
1000
0000
1000
,
0000
1000
0000
1000
1000
0100
0100
1000
,
1000
0000
0100
0000
0100
0000
0010
0000
0010
0000
0001
1000
0001
0000
1000
0000
,
0100
0000
0100
0000
0010
0000
0001
0000
0001
0000
1000
0000
0000
0000
0100
0010
,
1000
0010
0100
0001
1000
0010
0100
0000
0100
0000
1000
0000
1000
0000
0000
0000
,
0100
0100
0000
1000
0100
0010
0100
0001
,
1000
0100
0010
1000
0000
0100
1000
0100
,
0010
0000
0100
0000
0001
0000
0100
0000
0010
0000
1000
0000
0100
0000
0010
0001
,
1000
0100
0001
0000
0100
0000
0000
0000
1000
0000
0100
0000
0000
0000
1000
0000
,
0100
1000
0100
0010
0000
0100
0010
0100
,
0001
1000
0100
0010
0000
1000
0000
0001
,
0000
0100
0000
1000
0000
0100
0010
1000
,
0001
0100
1000
0100
0010
0001
0200
0000
,
0310
2000
0000
3010
0100
0001
0100
0010
,
0000
1000
0100
0010
0001
0100
0010
1000
,
0100
0010
0000
0100
0001
1000
0100
1000
,
0100
0000
1000
0100
0000
0010
0000
2000
,
0000
3002
0000
0203
0000
0000
0000
0000
,
0300
1000
0000
0100
0000
0100
0000
2000
,
0000
0010
3020
0230
0000
0000
0000
0000
,
0300
1000
0001
0100
0000
0010
0000
1000
,
0000
1000
0000
1000
0000
1000
0100
0010
,
1000
0002
0000
0203
0000
0320
0000
1030
,
0001
0100
0010
1000
0100
0010
0001
0100
,
1000
0100
0010
0200
0000
0000
0000
0000
,
0000
2300
0002
3000
0000
2003
0020
0000
,
0000
0000
3030
1000
0100
0010
0200
0000
,
0301
1000
0020
0000
0000
0130
0002
0000
,
0000
1003
0020
0000
0000
0000
0000
0000
,
0000
0000
0030
1000
0000
0100
0000
1000
,
0100
0010
0100
0002
0000
1003
0010
0100
,
0001
1000
0100
0010
0002
0000
0000
0000
,
0000
0000
0000
1003
0100
0010
2000
0000
,
0000
3001
0200
0000
0000
0310
2000
0000
,
0000
0000
0000
3010
0100
0001
1000
0100
,
0010
0001
0200
0000
0000
0301
2000
0000
,
0000
3010
0200
0000
0000
0000
0000
0000
,
0000
0000
0300
1000
0100
0010
0100
0001
,
0100
0010
1000
0200
0000
0010
0001
0010
,
0001
0010
0301
1000
0100
0010
0100
0001
,
1000
0010
0100
0010
0100
0001
1000
0100
,
0010
0001
0100
0010
1000
0100
0010
0001
,
0010
0100
1000
0100
0010
0100
0001
0100
,
0010
1000
0100
1000
0100
0010
0100
0010
,
1000
0002
0000
0000
0000
0000
0000
0000
,
0000
1003
0000
0110
0000
0000
0000
0000
;

//---------------dance-single - ----------------
#NOTES:
     dance-single:
     :
     Medium:
     7:
     0.377,0.385,0.011,0.211,0.000,218.000,1.000,19.000,0.000,0.000,0.000,0.377,0.385,0.011,0.211,0.000,218.000,1.000,19.000,0.000,0.000,0.000:
0000
0000
1000
0100
0000
1000
0000
0100
,
0000
0020
0000
0000
0000
0000
0000
0000
,
0030
0000
1000
0100
0000
0010
1000
0001
,
0100
0020
0000
0000
0000
0000
0000
0000
,
0030
0000
1000
0100
0000
0010
0000
1000
,
0000
0010
0000
1001
0000
0000
0000
0000
,
0000
0000
1000
0100
0010
1000
0001
0100
,
0010
0002
0000
0000
0000
0000
0000
0000
,
0003
0000
0000
1000
0000
0001
0000
1000
,
0000
0010
0000
1000
0000
0001
0000
0100
,
0000
0010
0000
1000
0000
0001
0100
0000
,
0000
0010
1000
0000
1000
0100
0000
0010
,
0000
1000
0000
0001
0000
1000
0100
0000
,
0010
0100
0000
0000
1000
0100
0010
0100
,
0000
0001
0100
0010
0000
0000
0000
1000
,
0100
0010
0000
0100
0010
0000
1000
0100
,
0000
0010
0000
0000
0000
0100
0000
1000
,
0000
0100
0000
1000
0100
0010
0100
0000
,
0001
0100
0000
1000
0000
0100
0000
1000
,
0100
0010
1000
0000
0000
0100
0000
0010
,
0000
1000
0000
0100
0000
1000
0100
0010
,
0000
0100
0001
0000
1000
0100
0010
0001
,
0100
0010
1000
0100
0010
0001
0000
0100
,
0000
0010
0000
0001
0010
0100
0000
0001
,
0000
0100
0010
0000
1000
0001
0000
0100
,
0000
1000
0000
0100
0000
0000
0000
0000
,
0000
1000
0000
0100
0000
1000
0000
0200
,
0000
0000
0000
0320
0000
0000
0000
0000
,
0030
1000
0000
0100
0000
0001
0000
0001
,
0000
0001
0000
0100
0000
1000
0000
1000
,
0000
1000
0000
0100
0000
1000
0000
0100
,
0000
1000
0100
0010
0000
0100
0000
0010
,
1000
0100
0010
0001
0000
0100
0010
0100
,
0000
1000
0001
0000
0000
1000
0020
0000
,
0000
0000
0030
1000
0001
0100
0010
0000
,
0000
1000
0002
0000
0000
1003
0020
0000
,
0000
0130
0002
0000
0000
0000
0000
0000
,
0000
0003
0000
0100
0000
1000
0100
0010
,
0100
0001
0000
1000
0000
0010
0100
0000
,
0001
1000
0010
0100
0001
0000
0000
1000
,
0100
1000
0000
0100
0010
0100
0020
0000
,
0000
1030
0002
0000
0000
0103
0020
0000
,
0000
0000
0030
1000
0100
0010
0002
0000
,
0000
1003
0020
0000
0000
0130
0002
0000
,
0000
1003
0020
0000
0000
0000
0000
0000
,
0030
0000
1000
0100
0000
0010
0100
0001
,
0000
1000
0100
0010
0000
0100
0010
0001
,
0000
0100
0010
0100
0000
1000
0000
0100
,
0000
0020
0000
0000
0000
0000
0000
0000
,
0000
0030
1000
0100
0000
0010
0000
0001
,
0000
0020
0000
0000
0000
0000
0000
0000
,
0000
0030
1000
0100
0000
0010
0000
1000
,
0001
0200
0000
0000
0000
0000
0000
0000
,
0300
1000
0000
0010
0000
0000
0000
0000
;

//---------------dance-single - ----------------
#NOTES:
     dance-single:
     :
     Easy:
     6:
     0.319,0.296,0.000,0.067,0.000,195.000,0.000,6.000,0.000,0.000,0.000,0.319,0.296,0.000,0.067,0.000,195.000,0.000,6.000,0.000,0.000,0.000:
0000
0000
1000
0100
0000
0001
0000
1000
,
0000
2000
0000
0000
0000
0000
0000
0000
,
3000
0000
0100
0010
0000
1000
0000
1000
,
0000
0002
0000
0000
0000
0000
0000
0000
,
0003
0000
0010
0001
0000
0100
0000
1000
,
0000
1000
0000
0020
0000
0000
0000
0000
,
0000
0030
0000
0000
0000
1000
0000
0100
,
0000
0100
0000
0000
0000
0000
0000
0000
,
0000
0000
0000
0010
0000
0001
0000
0010
,
0000
0001
0000
0000
0000
0000
0000
0000
,
0000
0000
0000
0000
0000
1000
0010
0000
,
0000
0100
0010
0000
0001
0000
0000
0010
,
0000
0010
0000
0001
0000
1000
0000
0000
,
0000
0100
0000
0010
0000
0100
0000
0001
,
0000
1000
0000
0010
0000
0100
0000
0001
,
0000
1000
0000
0100
0000
0100
0000
0100
,
0000
1000
0000
0100
0000
0010
0000
1000
,
0000
1000
0000
0001
0000
0000
0000
0000
,
0000
0010
0000
0100
0000
0010
0000
1000
,
0001
0100
0000
0100
0000
0100
0000
0100
,
0000
1000
0000
0100
0000
0100
0000
0010
,
0000
1000
0001
0000
0000
0100
0000
0100
,
0000
0100
0000
0100
0000
1000
0000
0100
,
0000
1000
0000
0100
0000
0001
0000
0100
,
0000
0010
0000
1000
0000
0100
0000
1000
,
0000
0100
0000
0200
0000
0000
0000
0000
,
0300
1000
0000
0100
0000
0100
0000
0100
,
0000
0100
0000
0002
0000
0000
0000
0000
,
0003
0100
0000
0100
0000
0100
0000
1000
,
0100
0010
0000
0100
0000
0100
0000
0100
,
0000
0001
0010
0100
0000
0100
0000
0100
,
0000
0100
0000
0010
0000
0010
0000
0010
,
0000
1000
0000
0100
1000
0100
0000
0000
,
0000
0010
0000
0001
0000
0100
0000
1000
,
0000
0100
0000
1000
0100
0010
0000
0100
,
0000
0010
0000
0001
0000
0001
0000
0001
,
0000
1000
0010
0100
0000
0100
0000
0100
,
0000
0100
0000
0010
0000
0010
0000
0010
,
0000
0001
0000
0010
0000
0010
0000
0001
,
0000
0010
0000
1000
0000
1000
0000
1000
,
0000
0100
0000
0010
1000
0010
0000
0100
,
0000
0010
0000
0010
0000
0010
0000
0001
,
0000
0001
0000
0100
0010
0100
0000
0001
,
0000
0001
0000
1000
0000
1000
0000
0010
,
0000
0001
0000
0010
0000
0010
0000
0001
,
0000
1000
0000
0010
0000
0100
0000
0010
,
1000
0001
0000
0100
0000
0100
0000
0100
,
0000
0100
0000
1000
0100
0010
0000
0100
,
0000
0010
0000
0010
0000
0010
0000
0010
,
0000
0010
1000
0001
0000
0100
0000
0100
,
0000
0100
0000
0001
0000
0001
0000
0001
,
0000
0001
1000
0001
0000
0100
0000
0100
,
0000
0200
0000
0000
0000
0000
0000
0000
,
0000
0000
0000
0000
0000
0000
0000
0000
0000
0000
0000
0000
0000
0000
0000
0000
0000
0000
0000
0000
0000
0000
0000
0000
0000
0000
0000
0000
0000
0000
0000
0000
0000
0000
0000
0000
0000
0000
0000
0000
0000
0000
0000
0000
0000
0000
0000
0000
0000
0000
0000
0000
0000
0000
0000
0000
0000
0000
0000
0000
0000
0000
0000
0000
0000
0000
0000
0000
0000
0000
0000
0000
0010
0300
0000
0000
0000
0000
0000
0000
0000
0000
0000
0000
0000
0000
0000
0000
0000
0000
0000
0000
0000
0000
0000
0000
0000
0000
0000
0000
0000
0000
0000
0000
0000
0000
0000
0000
0000
0000
0000
0000
0000
0000
0000
0000
0000
0000
0000
0000
0000
0000
0000
0000
0000
0000
0000
0000
0000
0000
0000
0000
0000
0000
0000
0000
0000
0000
0000
0000
0000
0000
0000
0000
0000
0000
0000
0000
0000
0000
0000
0000
0000
0000
0000
0000
0000
0000
0000
0000
0000
0000
0000
0000
0000
0000
0000
0000
0000
0000
0000
0000
0000
0000
0000
0000
0000
0000
0000
0000
0000
0000
0000
0000
0000
0000
0000
0000
0000
0000
0000
0000
;

//---------------dance-single - ----------------
#NOTES:
     dance-single:
     :
     Beginner:
     3:
     0.140,0.178,0.011,0.000,0.000,87.000,1.000,0.000,0.000,0.000,0.000,0.140,0.178,0.011,0.000,0.000,87.000,1.000,0.000,0.000,0.000,0.000:
0000
0000
0000
1000
0000
1000
0000
1000
,
0000
0000
0000
0000
,
0000
0000
0000
0000
0000
0001
0000
0001
,
0000
0001
0000
0000
0000
0000
0000
0000
,
0000
0000
0000
0000
0000
0100
0000
0100
,
0000
0100
0000
0000
0000
0000
0000
0000
,
0000
0000
0000
0000
0000
0010
0000
0010
,
0000
0010
0000
0000
0000
0000
0000
0000
,
0000
0000
0000
0000
0000
0010
0000
0000
,
0000
0001
0000
0010
0000
0000
0000
0000
,
0000
1000
0000
0100
0000
1000
0000
0000
,
0000
0100
0000
0000
0000
0100
0000
0000
,
0000
0000
0000
0010
0000
0010
0000
0000
,
0000
0001
0000
0000
0000
0000
0000
1000
,
0000
0100
0000
0010
0000
0000
0000
0000
,
0000
1000
0000
0100
0000
0010
0000
1000
,
0000
0000
0000
0000
0000
0001
0000
0100
,
0000
0010
0000
0001
0000
0000
0000
0000
,
0000
1000
0000
0100
0000
0010
0000
0100
,
0000
1000
0000
0000
0000
0000
0000
0000
,
0000
0000
0000
0000
0000
0001
0000
0000
,
0000
0100
0000
0000
0000
0000
0000
0000
,
0000
0000
0000
0010
0000
0010
0000
0000
,
0000
0000
0000
0000
0000
1000
0000
0001
,
0000
0000
0000
0000
0000
0000
0000
0100
,
0000
0010
0000
1000
0000
0000
0000
0000
,
0000
0000
0000
0000
0000
0000
0000
1000
,
0000
1000
0000
1000
0000
0000
0000
0000
,
0000
0000
0000
0000
0000
0100
0000
0100
,
0000
0000
0000
0000
,
0000
0000
0000
0001
0000
0001
0000
0000
,
0000
0000
0000
0000
,
0000
0100
0000
0100
0000
0000
0000
0000
,
0000
0000
0000
0010
0000
0000
0000
1000
,
0000
0000
0000
0000
,
0000
0000
0000
0001
0000
0000
0000
1000
,
0000
0000
0000
0100
0000
0000
0000
0000
,
0000
0000
0000
0000
,
0000
0000
0000
0010
0000
0000
0000
0000
,
0000
0000
0000
1000
0000
0000
0000
0001
,
0000
0000
0000
1000
0000
0000
0000
0000
,
0000
0000
0000
0100
0000
0000
0000
0010
,
0000
0000
0000
1000
0000
0000
0000
0000
,
0000
0000
0000
0001
0000
0000
0000
1000
,
0000
0000
0000
0001
0000
0000
0000
0000
,
0000
0000
0000
1000
0000
0001
0000
1000
,
0000
0000
0000
0100
0000
0000
0000
0100
,
0000
0000
0000
0010
0000
0010
0000
0010
,
0000
0000
0000
0000
,
0000
0000
0000
0001
0000
0001
0000
0001
,
0000
0000
0000
0000
,
0000
0000
0000
1000
0000
1000
0000
1000
,
0000
0000
0000
0000
,
0000
0000
0000
1001
0000
0000
0000
0000
;
