#TITLE:My Secret (STREAM Special);
#SUBTITLE:Kaichou wa Maid-sama! Opening Theme;
#ARTIST:Saaya Mizuno;
#TITLETRANSLIT:;
#SUBTITLETRANSLIT:;
#ARTISTTRANSLIT:;
#GENRE:;
#CREDIT:;
#BANNER:My Secret (STREAM Special).png;
#BACKGROUND:My Secret (STREAM Special)-bg.png;
#LYRICSPATH:My Secret (STREAM Special).lrc;
#CDTITLE:;
#MUSIC:My Secret (STREAM Special).mp3;
#OFFSET:-0.266;
#SAMPLESTART:50.227;
#SAMPLELENGTH:12.000;
#SELECTABLE:YES;
#BPMS:0.000=184.000
;
#STOPS:
;
#BGCHANGES:;
#KEYSOUNDS:;
#ATTACKS:;

//---------------dance-single - ----------------
#NOTES:
     dance-single:
     :
     Challenge:
     14:
     0.866,0.722,0.556,0.189,0.000,478.000,50.000,17.000,0.000,0.000,0.000,0.866,0.722,0.556,0.189,0.000,478.000,50.000,17.000,0.000,0.000,0.000:
0000
0000
0000
0000
0000
2002
0000
0000
,
0000
0000
0000
3003
0100
0220
0000
0000
,
0000
0000
0000
0330
0100
2200
0000
0000
,
0000
0000
0000
3300
0000
1000
0100
0010
,
0100
0010
0100
0001
0100
0010
0100
1000
,
0100
0010
0001
0010
0100
1000
0100
0010
,
0100
0010
0100
0010
0100
1000
0100
0010
,
0001
0010
0100
0010
0100
0010
0100
1000
,
0100
0010
0001
0010
0100
0010
0100
0010
,
0100
0010
1000
0100
0010
0001
0010
0100
,
0010
0100
0001
0100
0010
1000
0010
0100
,
0010
0100
0010
0100
0010
0100
1000
0100
,
0010
0001
1000
0010
0010
0001
0100
1000
,
0010
0100
0001
0010
0100
0010
1000
0100
,
0010
0001
0100
0010
1000
0110
0100
0010
,
0100
0010
0100
0010
0100
1000
0100
0010
,
0001
0100
0010
0100
0010
0100
1000
0100
,
0010
0001
0010
0100
1000
0100
0010
0100
,
0010
1000
0100
0010
0100
0010
0100
0010
,
0100
0010
1000
0100
0010
0001
0010
0100
,
1000
0100
0010
0001
0010
2000
0000
0100
,
0002
3000
0010
0200
0003
0000
0000
0000
,
0000
0310
0000
1010
0000
0100
0010
0100
,
0010
0000
0110
1000
0110
0100
0010
0011
,
1000
0010
0100
0010
0110
0100
1000
0100
,
0010
0001
0010
0100
0110
1000
0100
0010
,
0001
0010
1000
0110
0100
0010
0100
1000
,
0100
0010
0001
1000
0010
1100
0100
0010
,
0001
1000
0010
0100
0010
0110
0100
1000
,
0100
0010
0001
0110
0100
1000
0100
0010
,
0001
0010
0100
1000
0100
0020
0000
1000
,
0000
1000
0000
1000
0000
2030
0000
0010
,
0000
0010
0000
3010
0100
0002
0000
0100
,
0000
0100
0000
0103
0010
2000
0000
0010
,
0000
0010
0000
3010
0100
0020
0000
0100
,
0000
0100
0000
0130
1000
0200
0000
0010
,
0000
0010
0000
0010
0310
1001
1001
0000
,
1010
1010
0000
0101
0101
0000
0110
0110
,
0000
1000
0100
0010
0100
0110
0000
0010
,
0100
1000
0110
0001
0100
0010
1000
0101
,
0100
0110
0000
1100
0010
0100
0001
1000
,
0100
0010
0001
0100
0010
1000
0100
0010
,
0100
0101
1000
0010
0100
0010
1000
0100
,
0010
0001
0100
0010
0100
0010
0100
0001
,
1000
0100
0010
1000
0100
1000
0100
0010
,
0100
0001
0100
0010
0100
1000
0100
0010
,
0001
0100
1000
0100
0010
1001
0100
0010
,
0100
0010
0100
0010
1000
0100
0010
0001
,
0010
0011
0100
1000
0100
0110
1000
0100
,
0010
0100
0001
0010
0100
0010
0100
0010
,
0100
1000
0100
0010
0001
0110
1000
0100
,
0010
0001
0010
0100
1000
0100
0010
0001
,
0100
0110
1000
0100
0010
0110
0000
0100
,
0010
0100
0010
0100
0010
0100
1000
0100
,
0010
0001
0010
0100
0010
1001
0100
0010
,
1000
0010
0100
0001
1000
1010
1010
0100
,
0010
0001
0010
0100
1000
0010
1100
0100
,
0000
0110
0000
0010
0110
1000
0100
0010
,
0001
0010
0010
0010
0100
1010
0100
0010
,
0100
0010
1000
0100
1010
0100
0010
0100
,
0001
0010
0100
0010
0001
0100
0101
1000
,
0110
0010
0100
0100
0110
1000
0100
0010
,
0001
0010
0100
1000
0010
1001
0100
0010
,
0100
0000
1001
0010
1010
0100
1000
0100
,
0010
0001
0010
0001
0010
0011
0100
0001
,
0010
0100
1000
0100
0010
0001
0010
0100
,
0010
0100
0010
0100
1000
0100
0010
1000
,
0010
0100
0001
1000
2002
0000
0000
0000
,
0000
0000
0000
3003
0000
0000
0000
0000
;
