#TITLE:Mermaid girl;
#SUBTITLE:-秋葉工房MIX-;
#ARTIST:Remixed by DJ Command;
#TITLETRANSLIT:;
#SUBTITLETRANSLIT:;
#ARTISTTRANSLIT:;
#GENRE:;
#CREDIT:;
#BANNER:Mermaid girl -AKIBA KOUBOU MIX-.png;
#BACKGROUND:Mermaid girl -AKIBA KOUBOU MIX--bg.png;
#LYRICSPATH:;
#CDTITLE:;
#MUSIC:Mermaid girl -AKIBA KOUBOU MIX-.mp3;
#OFFSET:-0.094;
#SAMPLESTART:100.030;
#SAMPLELENGTH:12.000;
#SELECTABLE:YES;
#BPMS:0.000=150.000
;
#STOPS:
;
#BGCHANGES:;
#KEYSOUNDS:;
#ATTACKS:;

//---------------dance-single - ----------------
#NOTES:
     dance-single:
     :
     Hard:
     13:
     0.573,0.634,0.197,0.501,0.087,437.000,26.000,66.000,0.000,0.000,0.000,0.573,0.634,0.197,0.501,0.087,437.000,26.000,66.000,0.000,0.000,0.000:
0000
0000
0000
0000
,
0000
0000
0000
0000
,
0000
0000
0000
0000
,
0000
0000
0000
0000
,
0000
0000
0000
0000
,
0000
0000
0000
0000
,
1010
0000
1000
0000
1000
0001
1000
0000
,
0001
0000
0001
0000
0001
1000
0001
0000
,
0110
0000
1000
0000
0001
0010
0100
0000
,
0220
0000
0000
0330
,
0010
0001
1000
0001
1000
0001
0002
0000
,
0013
0001
1000
0100
1000
0001
0020
0000
,
0031
1000
0001
1000
0001
1000
0002
0000
,
1003
0000
0000
0010
0001
0000
1000
0000
0002
0000
0000
0000
0023
0000
0000
0000
,
1030
0001
1000
0001
1000
0001
2000
0000
,
3100
1000
0001
1000
0001
0010
0002
0000
,
0013
0001
0010
0000
1000
0001
1000
0000
0001
0100
0001
0000
0020
0000
0000
0000
,
0031
0100
0001
0000
1000
0001
1000
0000
0010
1000
0010
0000
0200
0000
0000
0000
,
0310
0000
1001
0000
0000
0000
1000
0001
,
0011
0001
1000
1000
1200
0000
1300
0001
,
1000
0010
0001
0002
0000
0003
1000
0100
,
0020
0000
0032
0000
2003
0000
3001
0100
,
0010
0001
2000
0000
0000
0000
3001
0001
,
0021
0000
0032
0000
2003
0000
3100
0001
,
0011
0000
1100
0000
1001
0000
0010
1000
,
0011
0000
1000
0100
1000
0001
1000
0001
,
0010
0001
1000
0000
0000
1000
0001
1000
,
1001
0000
0001
1000
0001
1000
0001
2000
,
0000
0001
0001
3001
0000
0000
0000
0010
,
0020
0230
2300
3002
,
0023
2030
3002
0203
,
1300
0001
1000
0001
1000
0001
1000
0001
,
1010
0000
1001
0000
0101
0000
1000
0001
,
1001
0000
0010
0100
0110
0000
1000
0001
,
1010
0000
1100
0000
0000
0000
1000
0001
,
0010
0001
1000
0001
0010
0001
0020
0000
,
0130
1000
0001
1000
0001
0010
0200
0000
,
1300
0000
0001
1000
0000
1000
0001
0000
1000
0000
0001
0000
2000
0000
0000
0000
,
3001
1000
0010
1000
0002
0000
1003
0100
,
1000
0001
0010
1000
0001
0100
0020
0000
,
0031
1000
0001
1000
0001
0010
2000
0000
,
3001
0000
1000
0001
0000
0001
1000
0000
0100
0000
0001
0000
0002
0000
0000
0000
,
1003
0000
0100
1000
0000
1000
0001
0000
0010
0000
0001
0000
0200
0000
0000
0000
,
1300
0001
1000
0100
0010
0001
0020
0000
,
1030
1000
0001
0001
0100
0100
0002
0000
,
1003
0000
0001
0010
0000
0010
1000
0000
0001
0000
0010
0000
0002
0000
0000
0000
,
0013
0010
1000
1000
0002
0000
1003
0100
,
1000
0000
0001
1000
0000
1000
0100
0000
0010
0000
0001
0000
0020
0000
0000
0000
,
0130
0100
1000
0001
1000
0001
0020
0000
,
0130
1000
0001
1000
0100
0010
0002
0000
,
1003
0100
1000
0001
1000
0100
0020
0000
,
0130
0000
0110
0000
1000
0001
1000
0000
,
1000
0001
1000
0000
2000
0000
3001
0001
,
0020
0230
2300
3002
,
0023
0000
0000
0000
,
0130
1000
0001
1000
,
1010
1000
1000
1000
,
0101
1000
1001
1000
,
0110
0110
1000
1000
,
0110
0001
1000
0100
,
0010
0100
0010
0100
0010
0001
0020
0000
,
0031
1000
0001
1000
0100
0010
0002
0000
,
1003
0000
0100
0010
0000
0010
1000
0000
0001
0000
0010
0000
0200
0000
0000
0000
,
1300
1000
0001
0001
0020
0000
0130
1000
,
0001
0010
0100
1000
0001
0010
0020
0000
,
0031
1000
1000
1000
1000
0100
2000
0000
,
3001
0000
0010
0001
0000
0001
1000
0000
0001
0000
0010
0000
0200
0000
0000
0000
,
1300
0000
0001
0010
0000
0010
0001
0000
1000
0000
0001
0000
0010
0000
0000
0000
,
1000
1000
0001
0001
1000
0100
2000
0000
,
3001
0001
0010
0010
0001
0000
0020
0000
,
0031
1000
0001
1000
0100
0010
0002
0000
,
1003
1000
0100
0010
0002
0000
0023
0000
,
0031
1000
0001
1000
0001
0010
0200
0000
,
1300
1000
0001
0010
0001
1000
0200
0000
,
0310
0010
0001
0001
1000
0001
0010
0001
,
1000
0001
0010
1000
0001
0100
0020
0000
,
0130
0000
0000
0000
;

//---------------dance-single - ----------------
#NOTES:
     dance-single:
     :
     Challenge:
     15:
     0.646,0.577,0.273,0.531,0.231,490.000,36.000,70.000,0.000,0.000,0.000,0.646,0.577,0.273,0.531,0.231,490.000,36.000,70.000,0.000,0.000,0.000:
0000
0000
0000
0000
,
0000
0000
0000
0000
,
0000
0000
0000
0000
,
0000
0000
0000
0000
,
0000
0000
0000
0000
,
0000
0000
0000
0000
,
1100
0000
0000
0010
0000
0000
0100
0000
0100
0000
0010
0000
0200
0000
0000
0000
,
0310
0010
0001
0001
0010
0100
0020
0000
,
1030
0000
0100
1000
0000
0100
0010
0000
0010
0000
0010
0000
0020
0000
0000
0000
,
1030
0000
0010
0001
0000
0010
0100
0000
0100
0000
0100
0000
0200
0000
0310
0000
,
1000
0000
0010
1000
0000
1000
0010
0000
0100
0000
0010
0000
0020
0000
0000
0000
,
1030
0100
0010
0001
0000
0001
0100
0000
0010
0000
0010
0000
2000
0000
0000
0000
,
3010
0000
0100
0010
0000
0010
0100
0000
0010
0000
0100
0000
0020
0000
0000
0000
,
0130
0000
0000
0010
1000
0000
0100
0000
0020
0000
0000
0030
1002
0000
0000
0000
,
0103
0000
0010
0100
0000
0100
0010
0000
0100
0000
0010
0000
0200
0000
0000
0000
,
0301
0010
0100
1000
0000
1000
0100
0000
0010
0000
1000
0000
0020
0000
0000
0000
,
1030
0010
0100
0010
1000
0010
2000
0000
,
3100
0000
0010
0000
0001
0000
0100
0000
0010
0000
0100
0000
0002
0000
0000
0003
,
1010
0000
0120
0000
0000
0000
0130
0010
,
1010
0000
0110
0000
0101
0001
0100
0010
,
0100
0010
1000
1020
0000
0030
0100
0001
,
2000
0000
3020
0000
0230
0000
0310
0001
,
1000
0010
0210
0000
0310
1000
0010
0010
,
2010
3020
0230
0301
,
1010
0000
0101
0000
0110
0000
1000
0100
,
1010
1010
0100
0001
0100
0010
0100
0010
,
1100
0100
0110
0010
0011
0100
0010
0100
,
0110
0100
0010
0100
0010
0100
0020
0000
,
0000
0130
0001
0020
1030
0100
0001
0100
,
2000
0001
3002
0100
0203
0010
0320
1000
,
2030
0000
3200
0000
0320
0000
0032
0013
,
0110
0010
0100
0010
0100
0010
0100
0010
,
1100
0000
0110
0010
0011
0000
0100
0010
,
0110
0000
1000
0001
1001
0000
0100
0010
,
1100
0000
0102
0000
0000
0000
0103
0010
,
1000
0000
0010
1000
0000
1000
0010
0000
1000
0000
0010
0000
2000
0000
0000
0000
,
3001
0010
0001
0010
0000
1000
0100
0000
0010
0000
1000
0000
0002
0000
0000
0000
,
0103
0000
0100
0001
0000
0001
0100
0000
0100
0000
0010
0000
0200
0000
0000
0000
,
0310
0100
1000
0100
0020
0000
0130
0001
,
0100
0000
0010
0100
0000
0100
0010
0000
0010
0000
0001
0000
0200
0000
0000
0000
,
1300
0100
1000
0100
0000
0010
0100
0000
0010
0000
1000
0000
0200
0000
0000
0000
,
0310
0000
0010
0001
0000
0001
0010
0000
0001
0000
0010
0000
0020
0000
0000
0000
,
0130
0000
0001
0100
0000
0010
1000
0000
1000
0000
0010
0000
0002
0000
0103
0000
,
0100
0000
0100
0010
0000
0010
0100
0000
1000
0000
0010
0000
2000
0000
0000
0000
,
3100
0100
0010
0010
0001
0001
0020
0000
,
0130
0000
1000
0100
0000
0010
0001
0000
0010
0000
1000
0000
0020
0000
0000
0000
,
1030
1000
0100
0100
0020
0000
0130
0001
,
0100
0000
0010
0100
0000
0010
0100
0000
1000
0000
0010
0000
2000
0000
0000
0000
,
3001
1000
0001
1000
0000
0000
0010
0000
0100
0000
0010
0000
2000
0000
0000
0000
,
3001
0100
0010
0100
0001
1000
0020
0000
,
0130
0001
0100
0010
0100
0001
2000
0000
,
3001
0000
1001
0000
0100
0010
0100
0001
,
0100
0010
0100
1000
0100
0010
0100
0001
,
2000
0000
3002
0000
0203
0000
0320
1000
,
2030
0000
0000
3000
,
0011
0100
0100
0010
0010
0100
0100
0001
,
0011
0100
0100
0100
,
0011
0000
0100
0000
0110
0000
0100
0001
,
1001
1001
0100
0100
,
1001
1000
0100
0010
,
1000
0000
0001
1000
0000
1000
0001
0000
1000
0000
0010
0000
2000
0000
0000
0000
,
3010
0100
0010
0100
0001
1000
0020
0000
,
0130
0000
0001
1000
0000
1000
0100
0000
0010
0000
1000
0000
0002
0000
0000
0000
,
0103
0100
0010
0010
2000
0000
3001
0100
,
0010
0000
1000
0001
0000
0001
0100
0000
0010
0000
1000
0000
2000
0000
0000
0000
,
3010
0100
0100
1100
0100
0001
0200
0000
,
0310
0000
1000
0010
0000
0010
0100
0000
0010
0000
1000
0000
0002
0000
0000
0000
,
0103
0000
0010
1000
0000
1000
0010
0000
0100
0000
0010
0000
2000
0000
0000
0000
,
3100
0010
0100
0010
0000
0000
0010
0000
0100
0000
0001
0000
0200
0000
0000
0000
,
0310
1000
0010
1000
0000
0000
1000
0100
0010
0000
0010
0000
2000
0000
0000
0000
,
3010
0100
0010
0100
0000
0000
0100
0000
0001
0000
1000
0000
0020
0000
0000
0000
,
0130
0100
0001
1000
0020
0000
2030
0000
,
3100
0000
0010
0100
0000
0100
0010
0000
0010
0000
1000
0000
0002
0000
0000
0000
,
0103
0100
0010
1000
0010
0100
0002
0000
,
1003
1000
0010
0010
0100
0010
1000
0010
,
0100
0010
1000
0100
0010
0001
2000
0000
,
3001
0000
0000
0000
;

//---------------dance-single - ----------------
#NOTES:
     dance-single:
     :
     Medium:
     11:
     0.527,0.461,0.182,0.455,0.004,402.000,24.000,60.000,0.000,0.000,0.000,0.527,0.461,0.182,0.455,0.004,402.000,24.000,60.000,0.000,0.000,0.000:
0000
0000
0000
0000
,
0000
0000
0000
0000
,
0000
0000
0000
0000
,
0000
0000
0000
0000
,
0000
0000
0000
0000
,
0000
0000
0000
0000
,
1100
0100
0100
0100
,
0010
0010
0010
0010
,
1000
0100
0010
0001
,
2002
0000
0000
3003
,
1000
0010
0100
0010
0100
0010
0020
0000
,
1030
0010
0100
0001
0100
0010
2000
0000
,
3010
0100
0010
0100
0010
0100
0020
0000
,
0130
0000
0010
0100
0010
0000
1001
0000
,
0100
0010
0100
0010
0100
0010
0200
0000
,
0301
0100
0010
0100
0010
1000
0020
0000
,
1030
0010
0100
0010
1000
0010
2000
0000
,
3100
0010
0001
0100
0010
0100
0002
0000
,
1003
0000
0110
0000
0000
0000
0100
0010
,
1010
0000
0110
0000
0101
0000
0100
0010
,
0100
0000
1000
0020
0000
0030
0100
0001
,
2000
0000
3020
0000
0230
0000
0310
0001
,
1000
0010
0200
0000
0300
0000
0010
0010
,
2000
3020
0230
0301
,
1010
0000
0101
0000
0110
0000
1000
0100
,
1000
0000
0100
0001
0100
0000
0100
0010
,
1000
0010
0200
0000
0000
0000
0000
0000
,
0310
0100
0010
0100
0010
0100
0010
0000
,
0000
0010
0010
0010
0000
0000
0000
1000
,
2000
3001
0200
0310
,
2000
0000
3020
0000
,
0130
0010
0100
0010
0100
0010
0100
0010
,
1100
0110
0011
0100
,
0110
1000
1001
0100
,
1100
0000
0101
0000
0000
0000
0100
0010
,
1000
0010
0100
0010
1000
0010
2000
0000
,
3001
0100
0010
0100
0010
1000
0002
0000
,
0103
0010
0100
0010
0100
0010
0200
0000
,
0310
0100
1000
0100
0020
0000
0130
0001
,
0100
0010
1000
0100
0010
0001
2000
0000
,
3010
0100
0010
0100
0010
1000
0200
0000
,
0310
0100
0010
0100
0001
0010
0020
0000
,
0130
0001
0100
0010
1000
0010
0002
0000
,
0103
0010
0100
0001
1000
0010
2000
0000
,
3100
0100
0010
0010
0001
0001
0020
0000
,
0130
0010
1000
0100
0010
1000
0020
0000
,
1030
1000
0100
0100
0020
0000
0130
0001
,
0100
0010
0100
0001
1000
0010
2000
0000
,
3001
0001
0100
0010
0100
0010
2000
0000
,
3001
0100
0010
0100
0001
1000
0020
0000
,
0130
0001
0100
0010
0100
0001
2000
0000
,
3001
1001
0100
0100
,
0100
0000
0100
0000
0100
0000
0100
0010
,
2000
3002
0203
0320
,
2030
0000
0000
0000
,
3001
0100
0010
0100
,
1100
0100
0100
0100
,
0011
0100
0110
0100
,
1001
1001
0100
0100
,
1001
1000
0100
0010
,
1000
0001
1000
0001
1000
0010
2000
0000
,
3010
0100
0010
0100
0001
1000
0020
0000
,
0130
0001
1000
0100
0010
1000
0002
0000
,
0103
0100
0010
0010
2000
0000
3001
0100
,
0010
1000
0001
0100
0010
1000
2000
0000
,
3010
0100
0100
0100
0100
0001
0200
0000
,
0310
1000
0010
0100
0010
1000
0002
0000
,
0103
0010
1000
0010
0100
0010
2000
0000
,
3100
0100
0010
0010
0100
0001
0200
0000
,
0310
0010
1000
1000
0010
0000
2000
0000
,
3010
0100
0010
0100
0001
1000
0020
0000
,
0130
0000
0000
0001
0000
0000
1000
0000
0020
0000
0000
0000
2030
0000
0000
0000
,
3010
0100
0010
0100
0010
1000
0002
0000
,
0103
0100
0010
1000
0010
0100
0002
0000
,
1003
1000
0010
0010
0100
0010
2000
0000
,
3010
0010
1000
0100
0010
0001
2000
0000
,
3001
0000
0000
0000
;

//---------------dance-single - ----------------
#NOTES:
     dance-single:
     :
     Beginner:
     3:
     0.144,0.173,0.099,0.023,0.000,117.000,13.000,3.000,0.000,0.000,0.000,0.144,0.173,0.099,0.023,0.000,117.000,13.000,3.000,0.000,0.000,0.000:
0000
0000
0000
0000
,
0000
0000
0000
0000
,
0000
0000
0000
0000
,
0000
0000
0000
0000
,
0000
0000
0000
0000
,
0000
0000
0000
0000
,
1000
0000
0000
0000
,
0100
0000
0000
0000
,
0010
0000
0000
0000
,
0001
0000
0000
0000
,
0001
0000
0001
0001
,
0001
0000
1000
1000
,
1000
0000
0100
0100
,
0100
0000
0010
0010
,
0010
0000
1000
0001
,
1000
0000
0001
1000
,
0001
0000
0010
0100
,
0010
0000
0100
0010
,
0100
0000
0000
0000
,
1001
0000
0000
0000
,
1000
0000
0000
0000
,
0001
0000
0000
0000
,
0010
0010
0000
0000
,
1001
0000
0000
0000
,
0100
0100
0100
0000
,
0010
0000
0000
0000
,
0100
0000
0000
0000
,
1001
0000
0000
0000
,
0010
0100
0010
0000
,
1000
0000
0001
0000
,
2000
0000
0000
0000
,
3000
0000
0000
0000
,
1001
0000
1001
0000
,
1001
0000
0000
0000
,
0110
0000
0000
0000
,
1000
0000
0000
0000
,
1000
0000
0000
0000
,
0001
0000
0001
0000
,
0001
0000
0000
0000
,
0100
0000
0100
0000
,
0010
0000
0010
0000
,
0100
0000
0000
0000
,
0010
0010
0010
0010
,
0000
0000
0000
0000
,
1000
0001
1000
0001
,
0000
0000
0000
0000
,
0010
0100
0010
0100
,
0000
0000
0000
0000
,
1000
0001
1000
0001
,
0000
0000
0000
0000
,
0100
0010
0100
0010
,
1000
0000
0000
0000
,
0001
0000
0000
0000
,
1000
0000
0000
0000
,
1000
0000
0000
0000
,
1001
0000
0000
0000
,
1001
0000
0000
0000
,
1000
0000
0001
0000
,
1000
0000
0000
0000
,
2002
0000
0000
0000
,
3003
0000
1000
1000
,
1000
0000
0000
0000
,
0001
0000
0001
0001
,
0001
0000
0000
0000
,
0100
0000
0010
0010
,
0010
0000
0000
0000
,
0010
0000
0100
0100
,
0100
0000
0000
0000
,
1000
0000
0000
0000
,
0001
0000
0000
0000
,
1000
0000
0000
0000
,
0110
0000
0000
0000
,
1001
0000
0000
0000
,
1000
0000
0000
0000
,
0001
0000
0001
0000
,
1000
0000
1000
0000
,
1001
0000
0000
0000
;

//---------------dance-single - ----------------
#NOTES:
     dance-single:
     :
     Easy:
     6:
     0.334,0.317,0.152,0.319,0.000,246.000,20.000,42.000,0.000,0.000,0.000,0.334,0.317,0.152,0.319,0.000,246.000,20.000,42.000,0.000,0.000,0.000:
0000
0000
0000
0000
,
0000
0000
0000
0000
,
0000
0000
0000
0000
,
0000
0000
0000
0000
,
0000
0000
0000
0000
,
0000
0000
0000
0000
,
1001
1000
1000
0000
,
1001
0001
0001
0000
,
0110
0100
0100
0000
,
0110
0010
0010
0000
,
1000
0010
1000
0002
,
1003
0001
1000
0002
,
1003
0010
0100
0020
,
0130
0010
0100
0200
,
0310
0001
0010
0200
,
0301
1000
0010
2000
,
3100
0010
0001
0020
,
0130
0001
0100
0020
,
0031
0001
0000
0000
,
1000
0001
1000
0000
,
0010
0100
0010
0000
,
1000
0001
1000
0001
,
1001
1001
0000
0100
,
1001
0100
0010
0100
,
1001
1001
1001
0100
,
0010
0100
0010
0100
,
1000
0100
0020
0000
,
1030
0100
0010
0001
,
0100
0100
0010
1000
,
0001
0001
1000
1000
,
2002
0000
0000
0000
,
3003
0000
0000
0000
,
1001
1000
1001
0000
,
0010
0100
0010
0100
,
0020
0000
0000
0000
,
1030
0100
0010
0002
,
1003
1000
0100
0020
,
0130
0010
0010
0002
,
0013
0010
1000
2000
,
3010
0100
0010
0002
,
0013
0010
0100
0200
,
0310
0010
1000
2000
,
3001
0100
0010
0020
,
1030
1000
0100
0020
,
1030
1000
0100
0001
,
0100
0100
0010
0020
,
1030
1000
1000
1000
,
0010
0010
0100
0020
,
1030
0100
0010
0200
,
0310
0010
0010
0002
,
0013
0010
0010
0100
,
1001
0000
0100
0000
,
0100
0000
0100
0000
,
0100
0000
0010
0100
,
0020
0000
0000
0000
,
1030
0100
0010
0000
,
1000
0010
0100
0010
,
0200
0000
0010
0000
,
0301
0100
0010
0100
,
2002
0000
0000
3003
,
0100
0010
1000
2000
,
3001
0001
0010
0020
,
0130
0010
0100
2000
,
3100
0100
0010
0200
,
0310
0100
0010
0002
,
1003
0010
0100
0020
,
1030
0010
0100
0200
,
0310
0010
0100
0200
,
0301
0001
0010
0200
,
1300
0100
0010
2000
,
3001
0100
0010
2000
,
3100
0010
0100
1002
,
0103
0100
0010
0200
,
1300
0100
0010
0100
,
1010
0100
0110
0100
,
1001
0100
0010
0100
,
1001
0000
0000
0000
;
