#TITLE:Medicine of love;
#SUBTITLE:;
#ARTIST:IROHA & RIRINA;
#TITLETRANSLIT:;
#SUBTITLETRANSLIT:;
#ARTISTTRANSLIT:;
#GENRE:;
#CREDIT:;
#BANNER:Medicine of love.png;
#BACKGROUND:Medicine of love-bg.png;
#LYRICSPATH:;
#CDTITLE:;
#MUSIC:Medicine of love.mp3;
#OFFSET:-0.031;
#SAMPLESTART:0.050;
#SAMPLELENGTH:12.000;
#SELECTABLE:YES;
#BPMS:0.000=173.000
,104.000=86.500
,112.000=173.000
,257.500=86.500
,263.250=173.000
;
#STOPS:37.500=0.173,
38.000=0.173,
124.000=0.087,
124.250=0.087,
124.500=0.087,
124.750=0.087,
255.500=0.173,
256.000=0.173,
256.500=0.173
;
#BGCHANGES:;
#KEYSOUNDS:;
#ATTACKS:;

//---------------dance-single - ----------------
#NOTES:
     dance-single:
     :
     Hard:
     12:
     0.514,0.493,0.100,0.689,0.010,281.000,10.000,69.000,0.000,4.000,0.000,0.514,0.493,0.100,0.689,0.010,281.000,10.000,69.000,0.000,4.000,0.000:
0000
1001
0000
0000
,
0000
0000
0000
0200
,
0000
0000
1300
0000
0010
0200
0000
0310
,
0000
1000
0020
0000
0000
0230
0000
0000
,
0001
0300
2000
0000
3010
0200
0000
0310
,
0000
1000
0200
0000
0000
0320
0000
0000
,
1030
0001
0100
0000
0010
0000
2000
0000
,
3200
0000
0320
0000
0000
0230
0000
0000
,
0000
0302
0000
0000
,
1003
0010
1000
0001
0100
0010
1000
0000
,
1001
0000
1000
0000
0010
0100
0000
0100
,
0000
1000
0100
0010
0000
0100
0001
0000
,
0100
1000
0100
0010
0001
0100
0000
0010
,
0000
1000
0000
0010
0000
0001
0010
0000
,
0100
0000
1000
0000
0100
0010
0100
0000
,
0001
0000
0010
0100
0000
0000
0000
1000
,
0010
0100
0001
0000
1000
0001
0010
0000
,
0100
0010
1001
1010
,
1001
0000
0100
0010
0100
0001
0000
1000
,
0000
0100
0000
0010
0000
0001
0010
0000
,
0000
0100
1000
0100
1000
0100
1000
0010
,
0000
0100
0001
0000
0000
0100
0010
0000
,
0101
0000
1000
0000
0010
1000
0010
0000
,
0100
0000
0010
0000
1000
0001
0100
0000
,
0010
0000
1000
0000
0100
0000
0010
0001
,
0100
0010
1000
0010
,
2001
0000
0010
0000
0001
0000
3010
0100
,
1002
0000
0100
0000
1000
0100
1000
0103
,
1000
0000
0100
0010
0100
0000
0100
1000
,
0000
0100
0010
0000
0100
0000
0010
0000
,
1000
0001
0000
1000
0000
0010
0000
0100
,
2001
0001
0001
0001
3001
0000
0000
0000
0100
0000
0000
0000
0010
0000
1000
0000
,
0100
0000
0010
0100
0010
0000
1000
0000
,
0100
0010
0100
0000
0001
1000
0010
0000
,
0100
0000
0001
1000
0100
0000
0010
0000
,
0100
0001
1000
0000
0100
0010
0100
0000
,
0001
2000
3020
0130
,
0001
1000
0010
0000
0100
0010
1000
0000
,
0010
0000
0100
0010
0100
0000
1000
0100
,
0010
0001
0100
0000
0000
0100
0020
0000
,
2030
0000
3001
0100
0010
0000
0100
0010
,
0100
0010
0100
0000
1000
0100
0020
0000
,
2030
0000
3001
0100
0010
0100
0010
0000
,
1000
0100
0010
0000
0100
0001
0100
0000
,
2000
3200
0320
0031
,
0100
0010
0100
0010
1000
0020
0000
0000
,
0000
0000
0000
0030
1000
0010
0200
0000
,
0320
1030
0010
2000
,
0000
0001
0010
3002
,
0000
0000
0200
0000
0000
0300
2000
0000
,
0023
0000
3200
0030
0002
0300
2000
0000
,
0000
0003
0020
0000
0000
3000
0100
0000
,
0002
0000
1003
0000
0100
0030
0020
0000
,
0000
2030
0000
3020
,
0230
0320
0032
0023
,
0000
0230
0000
2300
,
3200
0320
0031
0020
,
0000
0002
0030
0000
0000
0000
0023
0000
,
0230
2300
3200
0320
,
0000
0230
0000
2300
,
0200
3000
0320
0000
0032
0000
0023
0000
,
0000
0000
0230
0020
,
0300
2000
0000
3230
,
0000
0000
0000
0000
0320
0000
1030
0001
,
1000
0001
1000
2002
0000
0000
0000
0000
,
0000
0000
0000
0000
0000
0000
0000
0000
0000
0000
0000
0000
0000
3003
0000
0000
;

//---------------dance-single - ----------------
#NOTES:
     dance-single:
     :
     Beginner:
     3:
     0.124,0.165,0.030,0.200,0.000,64.000,3.000,20.000,0.000,0.000,0.000,0.124,0.165,0.030,0.200,0.000,64.000,3.000,20.000,0.000,0.000,0.000:
0000
0000
0000
0000
,
0000
0000
0000
0000
,
0000
0001
0000
0000
,
0000
1000
0000
0000
,
0000
0010
0000
0000
,
0000
0100
0000
0000
,
0000
0001
0000
0000
,
0000
0010
0000
0000
,
0000
0100
0000
0000
,
0000
1000
0000
0000
,
0001
0000
0000
0000
,
0100
0000
0000
0000
,
0010
0000
0000
0000
,
1000
0000
0000
0000
,
0001
0000
0000
0000
,
0010
0000
0000
0000
,
0100
0000
0000
0000
,
1000
0000
0000
0000
,
0010
0000
0000
0000
,
0001
0000
0000
0000
,
1000
0000
0000
0000
,
0010
0000
0000
0000
,
0100
0000
0000
0000
,
1000
0000
0000
0000
,
0001
0000
0000
0000
0000
0000
0000
0100
,
0000
0000
0000
0000
,
2000
0000
0000
0000
0000
3000
0000
0000
,
0002
0000
0003
0000
,
1000
0000
0000
0000
,
0010
0000
0000
0000
,
0100
0000
0000
0000
,
0001
1000
0000
0100
,
0000
0000
0000
0010
,
0000
0000
0000
0001
,
0000
0000
0000
1000
,
0000
0000
0000
1001
,
0000
0000
0000
1000
,
0000
0000
0000
0001
,
0000
0000
0000
0010
,
0000
0000
0000
0100
,
0000
0000
0000
1000
,
0000
0000
0000
0001
,
0000
0000
0000
0110
,
0000
0000
0000
0000
,
0000
0000
0000
0001
,
0000
0000
0000
0010
,
0000
0000
0000
0100
,
0000
0000
0000
2002
,
0000
0000
3003
2000
,
0000
3000
0000
0002
,
0000
0003
0000
0200
,
0000
0300
0000
0020
,
0000
0030
0000
0200
,
0000
0300
0000
2000
,
0000
3000
0000
0002
,
0000
0003
0000
0200
,
0000
0300
0000
0020
,
0000
0030
0000
2000
,
0000
3000
0000
0002
,
0000
0003
0000
0200
,
0000
0300
0000
0020
,
0000
0030
0000
2000
,
0000
3000
0000
0002
,
0000
0003
0000
1000
,
0000
0000
0000
2000
0000
0000
0000
0000
,
0000
0000
0000
0000
0000
0000
0000
3000
;

//---------------dance-single - ----------------
#NOTES:
     dance-single:
     :
     Medium:
     8:
     0.408,0.395,0.040,0.420,0.000,240.000,4.000,42.000,0.000,0.000,0.000,0.408,0.395,0.040,0.420,0.000,240.000,4.000,42.000,0.000,0.000,0.000:
0000
1000
0000
0000
,
0000
0000
0000
0200
,
0000
0000
1300
0000
0100
0010
0000
0100
,
0000
0100
0002
0000
0000
1003
0000
0000
,
0000
0000
1000
0000
0010
0100
0000
0100
,
0000
0100
0002
0000
0003
2000
0000
3000
,
0100
0010
1000
0000
0001
0000
0001
0000
,
1000
0000
0020
0000
0000
1030
0000
0000
,
0001
1000
0000
0001
,
0000
0000
1000
0001
1000
0001
0000
0000
,
0100
0000
0010
0000
1000
0100
0000
0010
,
0000
0010
0000
0001
0000
0010
0100
0000
,
0000
1000
0000
0100
0010
0100
0000
0001
,
0000
0010
0000
0100
0000
1000
0001
0000
,
0100
0010
0010
1000
,
0001
0000
0001
1000
0000
0000
0000
0010
,
0100
0000
0001
0000
1000
0100
0010
0000
,
0001
0010
0100
1000
,
1001
0100
0010
0100
,
0001
1000
0010
1000
,
1000
0100
0010
0001
,
0010
0000
0100
0000
0001
1000
0001
0000
,
1000
0010
0010
0010
,
1000
0001
0001
0001
,
0100
0010
1000
0001
,
1000
0010
0100
0001
,
2000
0001
0001
0001
,
3002
1000
1000
1000
,
1003
1000
0100
0010
,
0001
0010
0100
1000
,
1000
0100
0001
0100
,
1000
0001
1000
0000
0010
0000
0100
0000
,
0001
0000
1000
0010
1000
0000
0001
0000
,
0001
0001
0001
1000
,
0010
0000
0100
0010
0100
0000
2000
0000
,
0010
0000
0001
0000
0010
3000
0001
0000
,
0100
1000
0010
0100
,
1000
0100
0010
1000
,
0001
0000
0100
0010
0100
0000
1000
0000
,
0100
0010
0001
1000
,
1000
0000
0001
0100
0001
0000
1000
0000
,
0100
0010
0001
0010
,
0100
0000
0100
0010
0100
0000
0001
0000
,
0010
0100
1000
0100
,
0100
0000
0010
0100
0010
0000
1000
0000
,
0100
0010
0001
0010
,
0100
0000
1000
0000
0100
0000
0010
1000
,
0010
0100
0010
2000
,
0000
0000
0001
0000
0001
3000
0002
0000
,
0000
0203
0000
0310
,
1000
0001
0100
0020
,
0000
2030
0000
3001
,
0100
0010
1000
0002
,
0000
0003
0200
0000
0000
0300
0010
0000
,
2000
3002
0203
0320
,
0000
2030
0000
3002
,
0203
0320
2030
3200
,
0000
0320
0000
0032
,
0023
0230
2300
3200
,
0000
0320
0000
0032
,
0023
0230
2300
3200
,
0000
0000
0000
0020
,
0000
0000
0330
2002
,
0000
0000
3003
0000
0000
0000
0000
1001
,
0100
0010
0000
2002
0000
0000
0000
0000
,
0000
0000
0000
0000
0000
0000
0000
3003
;

//---------------dance-single - ----------------
#NOTES:
     dance-single:
     :
     Easy:
     6:
     0.341,0.362,0.030,0.280,0.000,208.000,3.000,28.000,0.000,0.000,0.000,0.341,0.362,0.030,0.280,0.000,208.000,3.000,28.000,0.000,0.000,0.000:
0000
0010
0000
0000
,
0000
0000
0000
0200
,
0000
1300
0100
0010
,
0100
0001
1000
0100
,
0010
1000
0001
1000
,
0010
0100
0100
1000
,
1000
0100
0010
0001
,
0010
0100
1000
0100
,
0010
1000
0001
1000
,
0010
0000
1000
0000
0100
0010
0000
0000
,
1000
0001
0100
0010
,
1000
0001
1000
0010
,
1000
1000
0001
0001
,
0100
0010
1000
0010
,
1000
1000
0010
0010
,
0100
0100
0001
0001
,
1000
0010
1000
0100
,
0010
0001
0010
0100
,
1000
0010
0010
1000
,
1000
0001
0001
0100
,
0010
1000
1000
1000
,
0100
0100
0010
0010
,
1001
0010
0010
0010
,
1001
0010
0010
0010
,
0100
1000
0100
0010
,
0001
0010
0100
0001
,
1000
0000
0100
0000
0010
0000
1000
1000
,
0100
0000
0010
0000
1000
0001
0100
0010
,
1000
0000
0100
0010
,
1000
0000
0001
1000
,
0100
0010
0100
0001
,
1000
0001
1000
0000
0010
0000
0100
0000
,
0100
0100
0100
1000
,
1000
1000
1000
0001
,
0001
0001
0001
1000
,
1000
1000
1000
0002
,
0000
0000
0003
2000
,
0000
0000
3000
0010
,
0010
0100
0100
1000
,
0100
0010
0001
1000
,
1000
0001
0001
0010
,
0100
0100
0100
2000
,
3000
0002
0003
0200
,
0300
0020
0030
1000
,
1000
0010
0010
1000
,
1000
0001
0001
1000
,
0001
1000
0010
0100
,
0010
1000
0001
2002
,
0000
0000
3003
2000
,
0000
3000
0200
0000
0000
0300
0020
0000
,
0000
0030
0000
0000
0000
0000
0002
0000
,
0000
0003
0200
0000
0000
0300
0020
0000
,
0000
0030
0000
0000
0000
0000
2000
0000
,
0000
3000
0002
0000
0000
0003
0200
0000
,
0300
0000
0000
2000
,
0000
3000
0200
0000
0000
0000
0320
0000
,
0000
0030
0000
0000
0000
0000
0002
0000
,
0000
0003
2000
0000
0000
3000
0002
0000
,
0000
0003
0000
0000
0000
0000
2000
0000
,
0000
3000
0020
0000
0000
0000
0230
0000
,
0000
0300
0000
0000
0000
0000
1000
0000
,
0000
0001
0000
1000
,
1000
0010
0010
1000
,
0000
0000
0001
0000
0000
0000
1000
0001
,
1000
0001
0000
2000
0000
0000
0000
0000
,
0000
0000
0000
0000
0000
0000
0000
3000
;
