#TITLE:Lunatic Tears EVOLVED ver. C;
#SUBTITLE:~Another verse~;
#ARTIST:Tatsh feat. 彩音;
#TITLETRANSLIT:;
#SUBTITLETRANSLIT:;
#ARTISTTRANSLIT:Tatsh feat. AYANE;
#CREDIT:;
#BANNER:Lunatic Tears EVOLVED ver. C ~Another verse~.png;
#BACKGROUND:Lunatic Tears EVOLVED ver. C ~Another verse~-bg.png;
#LYRICSPATH:;
#CDTITLE:;
#MUSIC:Lunatic Tears EVOLVED ver. C ~Another verse~.MP3;
#OFFSET:-0.345;
#SAMPLESTART:102.768;
#SAMPLELENGTH:12.000;
#SELECTABLE:YES;
#BPMS:0.000=176.000,128.000=88.000,164.000=176.000;
#STOPS:;
#BGCHANGES:;

//---------------dance-single - ----------------
#NOTES:
     dance-single:
     :
     Hard:
     14:
     0.756,0.867,0.512,0.390,0.354: // measure 1
1001
0000
0100
0010
0100
0010
0100
0000
,  // measure 2
1000
0100
0010
0001
0010
0100
1000
0000
,  // measure 3
0101
0000
1000
0100
0010
0001
0100
0000
,  // measure 4
1000
0100
0001
0100
1000
0100
0001
0000
,  // measure 5
1010
0000
0100
0010
0001
0010
0100
0000
,  // measure 6
1000
0100
0001
0100
1000
0100
0010
0000
,  // measure 7
1002
0000
0103
0120
0000
1030
0010
0102
,  // measure 8
0000
0000
0103
0000
0010
0000
0100
0000
0010
0100
0010
0000
0100
0000
0010
0000
,  // measure 9
0110
0000
1000
0100
0010
0001
0100
0000
,  // measure 10
1000
0100
0010
0001
0010
0100
1000
0000
,  // measure 11
0101
0000
1000
0100
0010
0001
1000
0000
,  // measure 12
1000
0100
0001
0100
1000
0010
0001
0000
,  // measure 13
1001
0000
1000
0010
0001
0010
1000
0000
,  // measure 14
0001
1000
0100
0001
1000
0100
0010
0000
,  // measure 15
1002
0000
0103
0120
0000
1030
0001
1002
,  // measure 16
0000
0000
0103
0000
0010
0000
0120
0000
0000
0000
1030
0000
0100
0001
0010
0000
,  // measure 17
0101
0000
1000
0100
0010
0001
0100
0000
,  // measure 18
1000
0100
0010
0000
1000
0100
0010
0000
,  // measure 19
0001
0000
0010
0000
0100
0000
0000
0000
1000
0000
0100
0000
0010
0100
0001
0000
,  // measure 20
0010
0000
0100
0010
1000
0000
0100
0000
0010
0100
0010
0000
0010
0000
0100
0000
,  // measure 21
1002
1000
0100
1003
,  // measure 22
2000
0010
0001
3010
,  // measure 23
0100
0110
1001
0110
,  // measure 24
0010
1100
0011
1100
,  // measure 25
2010
0010
0010
3010
,  // measure 26
0102
0100
0100
0103
,  // measure 27
0110
1001
1000
1001
,  // measure 28
0110
1001
0001
1001
,  // measure 29
1020
0100
0100
0130
,  // measure 30
0001
0000
1000
0000
0001
0100
1000
0000
0001
0100
1000
0001
0010
0000
0001
1000
,  // measure 31
0010
0000
0100
0010
0100
0000
0010
0100
0010
0100
0010
0100
0010
0100
0010
0000
,  // measure 32
1001
0100
0010
0100
0010
0100
0010
0100
,  // measure 33
2002
0000
0000
0000
3003
0000
0100
0010
0200
0000
0000
2300
0000
0000
0000
3100
,  // measure 34
0010
0000
0000
2000
0000
0000
3100
0000
0020
0000
0000
0000
1030
0000
0000
0100
,  // measure 35
0010
2000
0000
3200
0000
0320
0000
0000
0230
0000
0000
0320
0000
0000
0000
1030
,  // measure 36
0200
0000
0310
0200
0000
0000
0310
0000
0100
0000
1000
0100
0000
0010
0001
0100
,  // measure 37
0000
0100
0000
0100
0000
0100
0000
0000
1000
0100
0010
0200
0000
0000
0000
0301
,  // measure 38
0010
0100
0010
0200
0000
0000
0302
0000
1003
0100
0010
0001
0000
0100
0010
0000
,  // measure 39
1000
0100
0000
0020
0000
0130
0010
0000
2000
0000
3100
0000
0010
0100
0010
0000
,  // measure 40
1000
0200
0000
0310
0000
0100
1000
0000
0100
0000
0010
0100
0000
1000
0000
0200
,  // measure 41
0000
0320
0000
0230
0000
0320
0000
0130
0010
0100
0010
0100
2002
0000
3003
0000
,  // measure 42
1001
0000
0100
0110
0000
0100
1000
0100
,  // measure 43
0110
0000
1000
0100
0010
0001
1000
0000
,  // measure 44
0110
0000
1000
0001
0100
0010
1000
0000
,  // measure 45
0010
0100
0110
0000
1000
0100
0010
0000
,  // measure 46
1001
0000
0100
0010
0100
0010
1000
0000
,  // measure 47
1000
0100
0010
0000
1000
0001
0100
0000
,  // measure 48
0210
0000
1300
2010
0000
3100
0001
0102
,  // measure 49
0000
0000
1003
0000
0010
0000
0110
0000
1000
0100
1000
0000
0010
0000
0100
0000
,  // measure 50
0110
0000
1000
0100
0000
0010
0100
0000
,  // measure 51
1010
0000
1000
0100
0010
0001
0100
0000
,  // measure 52
0110
0000
1000
0100
0010
0100
0010
0000
,  // measure 53
1000
0100
0010
0000
0001
0010
0100
0000
,  // measure 54
1100
0000
0100
0010
0001
0100
0010
0000
,  // measure 55
0011
0000
1000
0100
0010
0001
0100
0000
,  // measure 56
1200
0000
0310
0120
0000
1030
0010
1002
,  // measure 57
0000
0000
0103
0000
0010
0000
0120
0000
0000
0000
1030
0000
0010
0100
1000
0000
,  // measure 58
1010
0000
0100
0010
0001
0100
0010
0000
,  // measure 59
1000
0100
0010
0000
0100
0010
0100
0000
,  // measure 60
1000
0000
0100
0000
0010
0000
0001
0000
0100
0000
1000
0000
1000
0001
1000
0000
,  // measure 61
0001
1000
0001
0000
0100
0010
0100
0000
0010
0000
1000
0000
0000
0000
0000
0000
,  // measure 62
1001
0000
0100
0010
0100
0010
0100
0000
,  // measure 63
1000
0100
0010
0001
0100
0010
0100
0000
,  // measure 64
1010
0000
1000
0100
0010
0001
0100
0000
,  // measure 65
1000
0100
0010
0000
1000
0100
0001
0000
,  // measure 66
1010
0000
0100
0010
0001
0100
0010
0000
,  // measure 67
0011
0000
0100
0010
0100
0001
1000
0000
,  // measure 68
1200
0000
0310
0012
0000
0103
0010
0210
,  // measure 69
0000
0000
1300
0000
0010
0000
0210
0000
0000
0000
1300
0000
0001
1000
0001
0000
,  // measure 70
1001
0000
0100
0010
0000
1000
0100
0010
,  // measure 71
0101
0000
1000
0010
0000
0100
0001
1000
,  // measure 72
1010
0000
1000
0100
0010
0001
0100
0000
,  // measure 73
1000
0100
0010
0000
1000
0100
0010
0000
,  // measure 74
0101
0000
1000
0100
0010
0001
0100
0000
,  // measure 75
1010
0000
0100
0010
0001
1000
0010
0000
,  // measure 76
2100
0000
3010
1200
0000
0301
0100
0012
,  // measure 77
0000
0000
0103
0000
0010
0000
2010
0000
0000
0000
3100
0000
0010
0001
0100
0000
,  // measure 78
1000
0100
1000
0000
0100
0000
0010
0001
0010
0000
1000
0000
0001
1000
0001
0000
,  // measure 79
1000
0010
1000
0010
1000
0000
1000
0001
1000
0000
0010
0000
0100
0010
0100
0000
,  // measure 80
1000
0001
1000
0001
1000
0000
0001
0100
0001
0000
1000
0000
0010
0100
0010
0000
,  // measure 81
0100
0010
0100
0010
0100
0000
0001
0100
0001
0000
0100
0001
0100
0001
0100
0000
,  // measure 82
0001
0010
0001
0010
0001
0000
1000
0100
1000
0100
1000
0000
0010
0100
0010
0000
,  // measure 83
1000
0001
1000
0001
1000
0000
0001
1000
0001
1000
0001
0000
0100
0010
0100
0000
,  // measure 84
0010
0001
0010
0001
0010
0000
1000
0001
1000
0001
1000
0000
0100
0010
0100
0000
,  // measure 85
0010
0100
0010
0100
0010
0000
1000
0001
1000
0001
1000
0000
0001
0100
0001
0000
,  // measure 86
2002
0000
0000
0000
,  // measure 87
0000
0000
0000
0000
,  // measure 88
0000
0000
0000
0000
,  // measure 89
0000
0000
0000
0000
,  // measure 90
3003
0000
0000
0000
;

//---------------dance-single - ----------------
#NOTES:
     dance-single:
     :
     Medium:
     11:
     0.566,0.610,0.303,0.498,0.069:
1001
0000
0100
0000
0100
0010
0100
0000
,
1000
0100
0001
0000
0001
0100
1000
0000
,
0101
0000
1000
0000
0010
0001
0100
0000
,
1000
0100
0001
0000
0001
0100
1000
0000
,
1001
0000
0100
0000
0001
0010
0100
0000
,
1000
0100
0001
0000
1000
0100
0010
0000
,
2002
0000
0003
3020
0000
0000
0000
0032
,
0000
0000
0013
0000
0010
0100
0010
0000
,
0110
0000
1000
0000
0010
0001
0100
0000
,
1000
0001
1000
0000
0001
1000
0001
0000
,
0110
0000
1000
0000
0010
0001
1000
0000
,
1000
0100
0001
0000
0001
0010
1000
0000
,
0110
0000
1000
0000
0001
0010
1000
0000
,
0001
1000
0100
0000
1000
0100
0010
0000
,
0102
0000
0000
0203
0000
0000
0000
0302
,
0000
0103
0000
0110
0000
1000
0010
0000
,
0101
0000
1000
0000
0010
0001
0100
0000
,
1000
0001
1000
0000
1000
0000
0001
0000
,
0100
0010
0100
0000
1000
0100
0010
0010
,
0001
0100
0100
0010
1000
1000
0010
0000
,
1002
1000
0103
0000
,
2000
0010
3001
0000
,
0100
0110
0000
0110
,
0000
1100
0000
0010
,
2010
0010
3010
0000
,
0102
0100
0103
0000
,
0100
1001
0000
1001
,
0000
1001
0000
0010
,
1020
0100
0100
0130
,
0001
1000
0001
0001
1000
1000
0010
0001
,
0010
0100
0100
0010
0100
0010
0100
0010
,
1001
0100
0010
0100
0010
0100
0010
0100
,
2000
0000
0000
0000
0000
0000
0000
0000
3002
0000
0000
0203
0000
0000
0000
0300
,
0020
0000
2030
0000
,
3200
0000
0000
0320
0000
0000
0000
0000
2030
0000
0000
3200
0000
0000
0000
0000
,
0302
0000
0000
0203
0000
0000
0000
0000
0320
0000
0000
2030
0000
0000
0000
3200
,
0000
0320
0000
2000
0030
3200
0000
0000
0320
0000
0000
2000
0030
0000
0000
0000
,
3200
0000
0000
0320
0000
0000
2030
0000
3200
0000
0000
0000
0000
0000
0000
0000
,
0302
0000
0000
2003
0000
0000
3020
0000
0230
0000
0000
0000
0302
0000
0000
0000
,
2003
0000
0000
3200
0000
0000
0000
0000
0320
0000
0000
2030
0000
0000
0000
3002
,
0000
0203
0000
0320
0000
2030
0000
3002
0000
0000
0003
0000
2002
0000
0000
0000
,
3003
0000
0100
0010
0000
0100
1000
0010
,
0100
0000
1000
0000
0010
0001
1000
0000
,
0110
0000
1000
0000
0100
0010
1000
0000
,
0010
0100
0010
0000
1000
0100
0010
0000
,
1001
0000
0100
0000
0100
0010
1000
0000
,
1000
0100
0010
0000
1000
0001
0100
0000
,
0210
0000
0000
2300
0000
0000
0000
3002
,
0000
1003
0010
0100
1000
1000
0010
0100
,
0010
0000
1000
0100
0000
0010
0100
0000
,
1010
0000
1000
0000
0010
0001
0100
0000
,
0110
0000
1000
0200
0310
0100
0010
0000
,
1000
0100
0010
0000
0001
0010
0100
0000
,
1001
0000
0100
0000
0001
0100
0010
0000
,
0100
0000
1000
0000
0010
0001
0100
0000
,
1200
0000
0000
0320
0000
0000
0000
0032
,
0000
0000
0000
0023
0000
1030
0010
1000
,
1010
0000
0100
0000
0001
0100
0010
0000
,
1000
0100
0010
0000
0100
0010
0100
0000
,
1000
0000
0010
0001
0100
1000
1000
1000
,
0001
0001
0100
0100
0010
1000
0000
0000
,
1001
0000
0100
0000
0100
0010
0100
0000
,
1000
0100
0010
0000
0100
0010
0100
0000
,
1010
0000
1000
0000
0010
0001
0100
0000
,
1000
0100
0010
0000
1000
0100
0001
0000
,
1010
0000
0100
0000
0001
0100
0010
0000
,
0011
0000
0100
0000
0100
0001
1000
0000
,
1200
0000
0000
0302
0000
0000
0000
0203
,
0000
0000
0000
0320
0000
1030
0001
0001
,
1001
0000
0100
0010
0000
1000
0100
0000
,
0101
0000
1000
0010
0000
0100
0001
0000
,
1010
0000
1000
0000
0010
0001
0100
0000
,
1000
0100
0010
0000
1000
0100
0010
0000
,
0101
0000
1000
0000
0010
0001
0100
0000
,
1010
0000
0100
0000
0001
1000
0010
0000
,
2100
0000
0000
3200
0000
0000
0000
0302
,
0000
0000
0000
2003
0000
3100
0010
0100
,
1000
1000
0100
0010
0010
1000
0001
0001
,
1000
0100
0010
1000
1000
0010
0100
0100
,
1000
0100
0010
0001
0001
1000
0010
0010
,
0100
1000
0100
0001
0001
1000
0100
0010
,
0001
0001
0001
1000
1000
1000
0010
0010
,
1000
1000
1000
0001
0001
0001
0100
0100
,
0010
0010
0010
1000
1000
1000
0100
0100
,
0010
0010
0010
1000
1000
1000
0001
0000
,
2002
0000
0000
0000
,
0000
0000
0000
0000
,
0000
0000
0000
0000
,
0000
0000
0000
0000
,
3003
0000
0000
0000
;

//---------------dance-single - ----------------
#NOTES:
     dance-single:
     :
     Easy:
     7:
     0.379,0.418,0.339,0.173,0.007:
1001
0100
0100
0100
,
1000
0001
0001
1000
,
0101
1000
0010
0100
,
1000
0001
0001
1000
,
1001
0100
0001
0100
,
1000
0001
1000
0010
,
2000
0000
0000
3020
0000
0000
0000
0032
,
0000
0013
0100
0010
,
0110
1000
0010
0100
,
1000
1000
0001
0001
,
0110
1000
0010
1000
,
1000
0001
0001
1000
,
0110
1000
0001
1000
,
0001
0100
1000
0010
,
0002
0000
0000
0203
0000
0000
0000
0302
,
0000
0103
0000
0110
0000
0000
0010
0000
,
0101
1000
0010
0100
,
1000
1000
1000
0001
,
0100
0000
0100
0000
1000
0100
0010
0000
,
0001
0100
0001
0000
1000
1000
0010
0000
,
1002
0000
0103
0000
,
2001
0000
3001
0000
,
0100
0110
0000
0110
,
0000
0110
0000
0000
,
2010
0000
3010
0000
,
0102
0000
0103
0000
,
0100
1001
0000
1001
,
0000
1001
0000
0000
,
1020
0000
0100
0030
,
0001
0001
1000
0010
,
0010
0100
0100
0100
,
1001
0010
0010
0010
,
2000
0000
3002
0003
,
0100
0010
0200
0300
,
0010
1000
0001
0200
,
0300
0000
0000
0020
0000
0000
0000
0030
0000
0000
0000
0000
1000
0000
0000
0000
,
0100
0010
2000
3000
,
0002
0003
0200
0300
,
0010
0100
1000
1000
,
0100
0000
0000
0000
0010
0000
0000
0000
1000
0000
0000
0000
0001
0000
0000
2000
,
0000
0002
0000
0000
,
3003
0100
0010
1000
,
0100
0010
0001
0100
,
1010
0100
0010
0010
,
1000
0100
0001
0100
,
1010
0100
0010
0001
,
1000
0100
0010
0001
,
1010
0000
0000
0110
0000
0000
0000
0101
,
0000
0000
0000
1010
0000
0000
0100
0000
,
0110
1000
0100
0010
,
0001
0100
1000
0100
,
1001
0100
0010
0001
,
0100
0100
1000
1000
,
0110
0001
0010
0100
,
1000
1000
0100
0100
,
0110
0000
0000
1010
0000
0000
0000
0110
,
0000
0000
0000
0101
0000
0000
0000
0000
,
1010
0100
0010
0100
,
1000
0100
0010
0001
,
1000
1000
0001
0001
,
0100
0010
0002
0000
,
1003
0100
0010
1000
,
0100
0100
0010
0010
,
1000
0100
0010
0001
,
1000
1000
0010
0100
,
0110
1000
0100
0001
,
0100
1000
0010
0001
,
1001
0000
0000
0101
0000
0000
0000
1010
,
0000
0000
0000
0110
0000
0000
1000
0000
,
1001
1000
0100
0010
,
0001
0001
1000
1000
,
0001
0100
0010
0100
,
1000
1000
0100
0010
,
0110
1000
0100
0010
,
0001
0010
0100
1000
,
1010
0000
0000
0110
0000
0000
0000
0101
,
0000
0000
0000
1010
0000
0000
0110
0000
,
1000
0100
0010
0100
,
1000
0001
0010
0100
,
0010
0001
1000
0100
,
0010
0100
1000
0010
,
1000
0010
1000
0100
,
0010
1000
0010
0100
,
0010
0001
0010
0100
,
0010
0001
0100
0010
,
2002
0000
0000
0000
,
0000
0000
0000
0000
,
0000
0000
0000
0000
,
0000
0000
0000
0000
,
0000
3003
0000
0000
0000
0000
0000
0000
0000
0000
0000
0000
0000
0000
0000
0000
0000
0000
0000
0000
0000
0000
0000
0000
0000
0000
0000
0000
0000
0000
0000
0000
0000
0000
0000
0000
0000
0000
0000
0000
0000
0000
0000
0000
0000
0000
0000
0000
0000
0000
0000
0000
0000
0000
0000
0000
0000
0000
0000
0000
0000
0000
0000
0000
0000
0000
0000
0000
0000
0000
0000
0000
0000
0000
0000
0000
0000
0000
0000
0000
0000
0000
0000
0000
0000
0000
0000
0000
0000
0000
0000
0000
0000
0000
0000
0000
0000
0000
0000
0000
0000
0000
0000
0000
0000
0000
0000
0000
0000
0000
0000
0000
0000
0000
0000
0000
0000
0000
0000
0000
0000
0000
0000
0000
0000
0000
0000
0000
0000
0000
0000
0000
0000
0000
0000
0000
0000
0000
0000
0000
0000
0000
0000
0000
0000
0000
0000
0000
0000
0000
0000
0000
0000
0000
0000
0000
0000
0000
0000
0000
0000
0000
0000
0000
0000
0000
0000
0000
0000
0000
0000
0000
0000
0000
0000
0000
0000
0000
0000
0000
0000
0000
0000
0000
0000
0000
0000
0000
0000
0000
0000
0000
;

//---------------dance-single - ----------------
#NOTES:
     dance-single:
     :
     Beginner:
     4:
     0.186,0.321,0.303,0.094,0.000:
1001
0000
0000
0000
,
0100
0000
0000
0000
,
0010
0000
0000
0000
,
0001
0000
0000
0000
,
0110
0000
0000
0000
,
1000
0000
0000
0000
,
0110
0000
0000
0000
,
1001
0000
0000
0000
,
0110
0000
0000
0000
,
1000
0000
0000
0000
,
0110
0000
0000
0000
,
0010
0000
0000
0000
,
0110
0000
0000
0000
,
1000
0000
0000
0000
,
1001
0000
0000
0000
,
0110
0000
0000
0000
,
1001
0000
0000
0000
,
1000
0000
0000
0000
,
0001
0000
0000
0000
,
0100
0000
0000
0000
,
0020
0000
0000
0000
,
0030
0000
0000
0000
,
0200
0000
0000
0000
,
0300
0000
0000
0000
,
0002
0000
0000
0000
,
0003
0000
0000
0000
,
2000
0000
0000
0000
,
3000
0000
0000
0000
,
0200
0000
0000
0000
,
0000
0000
0000
0000
,
0020
0000
0000
0000
,
0330
0000
0000
0000
,
2002
0000
3003
0000
,
0100
0000
0020
0000
,
0030
0000
1000
0000
,
0100
0010
0001
0000
,
0010
0100
1000
0000
,
1000
0100
0002
0003
,
1000
0100
0010
1000
,
0100
0010
1000
0001
,
1000
0001
1000
0000
,
1001
0000
0000
0000
,
0110
0000
0000
0000
,
1001
0000
0000
0000
,
0100
0000
0000
0000
,
0110
0000
1000
0000
,
0001
0000
1000
0000
,
1001
0000
0010
0000
,
0110
0000
0000
0000
,
1001
0000
0100
0000
,
0010
0000
0001
0000
,
1001
0000
1000
0000
,
0010
0000
0100
0000
,
0110
0000
0001
0000
,
1000
0000
0100
0000
,
0110
0000
0000
0000
,
1001
0000
0000
0000
,
1001
0000
0001
0000
,
1000
0000
0001
0000
,
0010
0000
0100
0000
,
1000
0000
0002
0000
,
1003
0000
0010
0000
,
0100
0000
0010
0000
,
1001
0000
1000
0000
,
0010
0000
0100
0000
,
0110
0000
0001
0000
,
1000
0000
0001
0000
,
0110
0000
0000
0000
,
0110
0000
0000
0000
,
1001
0000
1000
0000
,
0100
0000
0010
0000
,
1001
0000
0000
0000
,
0001
0000
0010
0000
,
0110
0000
0000
0000
,
1000
0000
0100
0000
,
1001
0000
0001
0000
,
1001
0000
1000
0000
,
1001
0000
0000
0000
,
1001
0000
0000
0000
,
0110
0000
0000
0000
,
1001
0000
1001
0000
,
1001
0000
0110
0000
,
0110
0000
0110
0000
,
1000
0000
0100
0000
,
0010
0000
0001
0000
,
2002
0000
0000
0000
,
0000
0000
0000
0000
,
0000
0000
0000
0000
,
0000
0000
0000
0000
,
3003
0000
0000
0000
;
