#TITLE:Lunatic Tears EVOLVED ver. B;
#SUBTITLE:~second verse~;
#ARTIST:Tatsh feat. 彩音;
#TITLETRANSLIT:;
#SUBTITLETRANSLIT:;
#ARTISTTRANSLIT:Tatsh feat. AYANE;
#CREDIT:;
#BANNER:Lunatic Tears EVOLVED ver. B ~second verse~.png;
#BACKGROUND:Lunatic Tears EVOLVED ver. B ~second verse~-bg.png;
#LYRICSPATH:;
#CDTITLE:;
#MUSIC:Lunatic Tears EVOLVED ver. B ~second verse~.MP3;
#OFFSET:-0.376;
#SAMPLESTART:102.768;
#SAMPLELENGTH:12.000;
#SELECTABLE:YES;
#BPMS:0.000=176.000;
#STOPS:;
#BGCHANGES:;

//---------------dance-single - ----------------
#NOTES:
     dance-single:
     :
     Hard:
     14:
     0.811,0.983,0.701,0.267,0.160: // measure 1
1001
0000
0100
0010
0100
0010
0100
0000
,  // measure 2
1000
0100
0010
0001
0010
0100
1000
0000
,  // measure 3
0101
0000
1000
0100
0010
0001
0100
0000
,  // measure 4
1000
0100
0001
0100
1000
0100
0001
0000
,  // measure 5
1010
0000
0100
0010
0001
0010
0100
0000
,  // measure 6
1000
0100
0001
0100
1000
0100
0010
0000
,  // measure 7
1002
0000
0103
0120
0000
1030
0010
0102
,  // measure 8
0000
0000
0103
0000
0010
0000
0100
0000
0010
0100
0010
0000
0100
0000
0010
0000
,  // measure 9
0110
0000
1000
0100
0010
0001
0100
0000
,  // measure 10
1000
0100
0010
0001
0010
0100
1000
0000
,  // measure 11
0101
0000
1000
0100
0010
0001
1000
0000
,  // measure 12
1000
0100
0001
0100
1000
0010
0001
0000
,  // measure 13
1001
0000
1000
0010
0001
0010
1000
0000
,  // measure 14
0001
1000
0100
0001
1000
0100
0010
0000
,  // measure 15
1002
0000
0103
0210
0000
1300
0001
1002
,  // measure 16
0000
0000
0103
0000
0010
0000
0120
0000
0000
0000
1030
0000
0100
0001
0010
0000
,  // measure 17
0101
0000
1000
0100
0010
0001
0100
0000
,  // measure 18
1000
0100
0010
0000
1000
0100
0010
0000
,  // measure 19
0001
0000
0010
0000
0100
0000
0000
0000
1000
0000
0100
0000
0010
0100
0001
0000
,  // measure 20
0010
0000
0100
0010
1000
0000
0100
0000
0010
0100
0010
0000
0010
0000
0100
0000
,  // measure 21
1002
0000
1000
0000
0100
0000
1000
0003
,  // measure 22
2000
0010
0001
3010
,  // measure 23
0100
0110
1001
0110
,  // measure 24
0010
1100
0011
1100
,  // measure 25
2010
0010
0010
3010
,  // measure 26
0102
0100
0100
0103
,  // measure 27
0110
1001
1000
1001
,  // measure 28
0120
0030
1001
0000
0001
0000
1001
0000
,  // measure 29
1020
0100
0100
0130
,  // measure 30
0001
0000
1000
0000
0001
0100
1000
0000
0001
0100
1000
0001
0010
0000
0001
1000
,  // measure 31
0010
0000
0100
0010
0100
0000
0010
0100
0010
0100
0010
0100
0010
0100
0010
0000
,  // measure 32
1000
1000
1000
1000
1000
1000
1000
1000
,  // measure 33
1000
0010
0010
0010
0210
0310
0210
0310
,  // measure 34
0010
0100
0100
0100
0100
0100
0100
0100
,  // measure 35
0100
0010
0010
0010
0120
0130
0120
0130
,  // measure 36
0010
0010
0010
0010
0010
0010
0010
0010
,  // measure 37
0010
0010
0010
0010
1002
1003
2001
3001
,  // measure 38
1000
1000
1000
1000
0010
0010
0010
0010
,  // measure 39
0100
0100
0010
0010
0100
0100
0010
0010
,  // measure 40
0110
0000
0110
0000
1000
0100
0010
0100
,  // measure 41
0110
0000
0100
0000
0001
0100
0010
0100
,  // measure 42
0110
0000
1010
0000
0100
0001
0110
0000
,  // measure 43
1000
0000
0110
0000
1000
0001
0101
0000
,  // measure 44
0110
0000
1000
0000
0100
0010
0001
0000
,  // measure 45
0100
0000
0110
0000
1000
0100
0010
0000
,  // measure 46
0002
0000
1000
0003
2000
0000
3001
0000
,  // measure 47
0002
0000
0103
0010
1000
0100
0110
0000
,  // measure 48
0110
0000
1000
0100
0010
0001
0010
0000
,  // measure 49
0100
1000
0100
0000
0010
0100
0010
0000
,  // measure 50
1000
0100
0010
0001
0010
0100
1000
0001
,  // measure 51
0100
0001
0101
0000
1000
0010
1010
0000
,  // measure 52
0110
0000
1000
0100
0010
0001
0100
0000
,  // measure 53
1000
0100
0010
0000
0001
0010
0100
0000
,  // measure 54
1010
0000
0110
0000
1000
0100
0010
0001
,  // measure 55
0000
0100
0100
0000
0010
0000
0100
0000
,  // measure 56
0110
0110
1010
0110
,  // measure 57
0101
0110
1100
0110
,  // measure 58
0001
0100
0010
0100
0010
0100
0010
0100
,  // measure 59
1000
0100
0010
0001
0100
1000
0100
0010
,  // measure 60
0001
1100
1100
0010
0110
0110
0000
0101
,  // measure 61
0000
0010
0202
0000
0000
0000
0303
0000
,  // measure 62
1010
0000
0100
0010
0100
0010
0100
0000
,  // measure 63
1000
0000
0100
0010
0000
0001
0010
0100
,  // measure 64
0110
0000
1000
0100
0010
0001
0110
0000
,  // measure 65
1000
0100
0010
0001
0010
0100
1000
0000
,  // measure 66
0110
0000
1000
0100
0010
0001
0100
0000
,  // measure 67
0100
0000
1000
0100
0010
0001
0100
0000
,  // measure 68
1002
0000
0103
0120
0000
1030
0001
0102
,  // measure 69
0000
0000
1003
0000
0010
0000
1010
0000
0100
0001
0010
0000
0010
0000
0001
0000
,  // measure 70
0110
0000
1000
0100
0010
0100
0100
0000
,  // measure 71
1000
0100
0010
0100
1000
0100
0010
0000
,  // measure 72
0110
0000
1000
0100
0010
0100
0110
0000
,  // measure 73
0001
0100
0110
0000
1000
0100
0010
0000
,  // measure 74
0100
0000
1000
0100
0010
0001
0100
0000
,  // measure 75
1000
0100
0110
0000
0100
0001
0100
0000
,  // measure 76
2010
0000
3100
0120
0000
1030
0001
0102
,  // measure 77
0000
0000
1003
0000
0010
0000
2010
0000
0000
0000
3100
0000
0010
0100
0010
0000
,  // measure 78
0110
0000
1000
0100
0010
0001
0100
0000
,  // measure 79
0001
0010
0100
0000
1000
0100
0010
0000
,  // measure 80
1000
0000
0100
0000
0001
0000
1000
0000
0100
0000
0010
0001
0010
0000
1000
0000
,  // measure 81
0010
0000
0001
0100
1000
0000
0100
0000
0010
0000
0001
0000
0000
0000
0000
0000
,  // measure 82
1001
0000
0100
0010
0100
0010
1000
0000
,  // measure 83
1000
0100
0001
0000
0001
0100
1000
0000
,  // measure 84
1010
0000
1000
0100
0010
0001
0100
0000
,  // measure 85
0101
0000
1000
0100
0010
0001
1000
0000
,  // measure 86
1010
0000
0100
0010
0001
0100
0010
0000
,  // measure 87
1000
0100
0010
0000
0001
0010
0100
0000
,  // measure 88
2010
0000
3100
0102
0000
1003
0010
0210
,  // measure 89
0000
0000
1300
0000
0001
0000
0101
0000
0001
0010
0001
0000
0010
0000
1000
0000
,  // measure 90
1100
0000
0100
0010
0001
1000
0100
0000
,  // measure 91
0010
0001
1000
0000
0100
0010
1000
0000
,  // measure 92
0110
0000
1000
0100
0010
0001
0100
0000
,  // measure 93
0010
0000
1000
0100
0001
0100
0010
0000
,  // measure 94
1010
0000
0100
0010
0001
0100
0001
0000
,  // measure 95
1000
0010
0100
0010
0100
0001
0100
0000
,  // measure 96
1020
0000
0130
0120
0000
1030
0100
0102
,  // measure 97
0000
1003
0010
0210
0000
1300
0100
0001
,  // measure 98
1001
0000
0010
0000
1000
0100
1000
0000
0001
0000
0010
0100
0010
0000
1000
0000
,  // measure 99
0110
0000
1000
0000
0001
0010
0001
0000
1000
0000
0010
0100
0010
0000
1000
0000
,  // measure 100
0110
0000
0001
0000
0010
0100
0010
0000
0100
0000
0100
0001
0010
0000
1000
0000
,  // measure 101
0110
0000
0001
0000
1000
0100
1000
0100
1000
0000
0010
0000
0100
0010
0100
0000
,  // measure 102
1000
0100
1000
0100
1000
0000
0010
0100
0010
0100
0010
0000
0010
0100
0010
0000
,  // measure 103
0100
0010
0100
0010
0100
0000
0001
0010
0001
0010
0001
0000
0010
0100
0010
0000
,  // measure 104
0010
0100
1000
0100
0010
0000
0010
0100
0010
0100
1000
0000
0001
0010
0001
0000
,  // measure 105
0001
0100
0001
0100
0001
0000
0100
0010
0100
0010
1000
0000
0100
0010
0100
0000
,  // measure 106
2002
0000
0000
0000
,  // measure 107
0000
0000
0000
0000
,  // measure 108
0000
0000
0000
0000
,  // measure 109
0000
0000
0000
0000
,  // measure 110
3003
0000
0000
0000
;

//---------------dance-single - ----------------
#NOTES:
     dance-single:
     :
     Medium:
     11:
     0.601,0.619,0.387,0.214,0.000:
1001
0000
0100
0000
0100
0010
0100
0000
,
1000
0100
0001
0000
0001
0100
1000
0000
,
0101
0000
1000
0000
0010
0001
0100
0000
,
1000
0100
0001
0000
0001
0100
1000
0000
,
1001
0000
0100
0000
0001
0010
0100
0000
,
1000
0100
0001
0000
1000
0100
0010
0000
,
2002
0000
0003
3020
0000
0000
0000
0032
,
0000
0000
0013
0000
0010
0100
0010
0000
,
0110
0000
1000
0000
0010
0001
0100
0000
,
1000
0001
1000
0000
0001
1000
0001
0000
,
0110
0000
1000
0000
0010
0001
1000
0000
,
1000
0100
0001
0000
0001
0010
1000
0000
,
0110
0000
1000
0000
0001
0010
1000
0000
,
0001
1000
0100
0000
1000
0100
0010
0000
,
0102
0000
0000
0203
0000
0000
0000
0302
,
0000
0103
0000
0110
0000
1000
0010
0000
,
0101
0000
1000
0000
0010
0001
0100
0000
,
1000
0001
1000
0000
1000
0000
0001
0000
,
0100
0010
0100
0000
1000
0100
0010
0010
,
0001
0100
0100
0010
1000
1000
0010
0000
,
1002
1000
0103
0000
,
2000
0010
3001
0000
,
0100
0110
0000
0110
,
0000
1100
0000
0010
,
2010
0010
3010
0000
,
0102
0100
0103
0000
,
0100
1001
0000
1001
,
0000
1001
0000
0010
,
1020
0100
0100
0130
,
0001
1000
0001
0001
1000
1000
0010
0001
,
0010
0100
0100
0010
0100
0010
0100
0010
,
1000
1000
1000
1000
1000
0000
1000
1000
,
1000
0000
0010
0010
0010
0010
0000
0010
,
0010
0000
0100
0100
0100
0100
0000
0100
,
0100
0000
0010
0010
0100
0100
0000
0100
,
0010
0000
0010
0010
0010
0010
0000
0010
,
0010
0000
0010
0010
1000
1000
0000
0001
,
1000
0000
1000
1000
0010
0010
0000
0010
,
0100
0000
0010
0010
0100
0100
0010
0000
,
0110
0000
0110
0000
1000
0100
0010
0000
,
0110
0000
0100
0000
0001
0000
0010
0100
,
0010
1010
0100
0110
,
1000
0110
1000
0101
,
0110
0000
1000
0000
0100
0010
0001
0000
,
0100
0000
0010
0000
1000
0100
0010
0000
,
0002
1003
2000
3001
,
0002
0000
0103
0000
1000
0100
0010
0000
,
0110
0000
1000
0100
0000
0001
0010
0000
,
0100
1000
0100
0000
0010
0100
0010
0000
,
1000
0100
0010
0000
0010
0100
1000
0000
,
0100
0001
0100
0000
1000
0010
1000
0000
,
0110
0000
1000
0000
0010
0001
0100
0000
,
1000
0100
0010
0000
0001
0010
0100
0000
,
1010
0000
0110
0000
1000
0000
0010
0001
,
0000
0010
0010
0100
,
0110
0000
1010
0000
,
0101
0000
1100
0000
,
0001
0100
0010
0000
0010
0100
0010
0000
,
1000
0100
0010
0000
0100
1000
0100
0000
,
0001
1000
0100
0010
0100
0010
0000
0101
,
0000
0010
0200
0000
0000
0000
0300
0000
,
1010
0000
0100
0010
0100
0010
0100
0000
,
1000
0000
0100
0010
0000
0001
0010
0000
,
0110
0000
1000
0100
0000
0001
0100
0000
,
1000
0100
0010
0000
0010
0100
1000
0000
,
0110
0000
1000
0000
0010
0001
0100
0000
,
0100
0000
1000
0000
0010
0001
0100
0000
,
1002
0000
0000
0023
0000
0000
0000
0032
,
0000
1003
0000
1010
0000
0010
0010
0000
,
0110
0000
1000
0000
0010
0100
0100
0000
,
1000
0100
0010
0000
1000
0100
0010
0000
,
0110
0000
1000
0000
0010
0100
0010
0000
,
0001
0100
0010
0000
1000
0100
0010
0000
,
0101
0000
1000
0000
0010
0001
0100
0000
,
1000
0100
0010
0000
0100
0001
0100
0000
,
2010
0000
0000
3020
0000
0000
0000
0032
,
0000
0000
0000
2003
0000
3100
0000
0010
,
0100
0000
1000
0000
0010
0001
0100
0000
,
0001
0010
0100
0000
1000
0100
0010
0000
,
1000
0100
0001
0000
0100
0010
0010
1000
,
0010
0001
0001
0100
0010
0001
0000
0000
,
1001
0000
0100
0000
0100
0010
1000
0000
,
1000
0100
0001
0000
0001
0100
1000
0000
,
0101
0000
1000
0000
0010
0001
0100
0000
,
0110
0000
1000
0000
0010
0001
1000
0000
,
0011
0000
0100
0000
0001
0100
0010
0000
,
1000
0100
0010
0000
0001
0010
0100
0000
,
2010
0000
0000
3002
0000
0000
0000
0203
,
0000
1300
0000
0101
0000
0001
0010
0000
,
1100
0000
0100
0000
0001
1000
0100
0000
,
0010
0001
1000
0000
0100
0010
1000
0000
,
0110
0000
1000
0000
0010
0001
0100
0000
,
0010
0000
1000
0000
0001
0100
0010
0000
,
1010
0000
0100
0000
0001
0100
0001
0000
,
1000
0010
0100
0000
0100
0001
0100
0000
,
1020
0000
0000
0230
0000
0000
0000
0302
,
0000
0000
0000
0203
0000
1300
0100
0000
,
1001
0000
1000
1000
0001
0010
0010
1000
,
0010
1000
0001
0001
1000
0010
0010
1000
,
0010
0001
0010
0010
0100
0100
0010
1000
,
0010
0001
1000
1000
1000
0000
0100
0100
,
1000
1000
1000
0010
0010
0100
0010
0100
,
0100
0100
0100
0001
0001
0001
0010
0010
,
0010
1000
0010
0010
0010
1000
0001
0001
,
0001
0001
0001
0100
0100
1000
0100
0000
,
2002
0000
0000
0000
,
0000
0000
0000
0000
,
0000
0000
0000
0000
,
0000
0000
0000
0000
,
3003
0000
0000
0000
;

//---------------dance-single - ----------------
#NOTES:
     dance-single:
     :
     Easy:
     7:
     0.424,0.473,0.414,0.134,0.000:
1001
0100
0100
0100
,
1000
0001
0001
1000
,
0101
1000
0010
0100
,
1000
0001
0001
1000
,
1001
0100
0001
0100
,
1000
0001
1000
0010
,
2000
0000
0000
3020
0000
0000
0000
0032
,
0000
0013
0100
0010
,
0110
1000
0010
0100
,
1000
1000
0001
0001
,
0110
1000
0010
1000
,
1000
0001
0001
1000
,
0110
1000
0001
1000
,
0001
0100
1000
0010
,
0002
0000
0000
0203
0000
0000
0000
0302
,
0000
0103
0000
0110
0000
0000
0010
0000
,
0101
1000
0010
0100
,
1000
1000
1000
0001
,
0100
0000
0100
0000
1000
0100
0010
0000
,
0001
0100
0001
0000
1000
1000
0010
0000
,
1002
0000
0103
0000
,
2001
0000
3001
0000
,
0100
0110
0000
0110
,
0000
0110
0000
0000
,
2010
0000
3010
0000
,
0102
0000
0103
0000
,
0100
1001
0000
1001
,
0000
1001
0000
0000
,
1020
0000
0100
0030
,
0001
0001
1000
0010
,
0010
0100
0100
0100
,
1000
0010
0100
0010
,
1000
0100
0020
0000
,
0130
1000
0100
0001
,
0100
1000
0020
0000
,
0130
1000
0100
1000
,
0010
1000
0002
0000
,
1003
0100
1000
0010
,
1000
0010
0100
0010
,
0110
1000
0010
0100
,
0010
1000
0100
0010
,
0001
0010
0110
0000
,
1000
0100
0110
0000
,
0010
1000
0100
0010
,
1000
0100
0001
0100
,
0020
0000
1000
0000
,
0100
0000
0031
0000
,
0110
1000
0100
0010
,
0001
0010
0100
1000
,
0100
1000
0100
0010
,
0100
0010
0000
1000
,
0110
0100
0010
0100
,
1000
0100
0010
0001
,
0100
1000
0010
0100
,
0010
1000
0100
0001
,
1010
0000
0110
0000
,
0101
0000
0110
0000
,
1010
0000
0110
0000
,
0101
0000
0110
0000
,
1000
0000
0110
0000
0000
0000
0000
0110
,
0000
0220
0000
0330
,
1000
0100
0010
0001
,
1000
0100
0001
1000
,
1010
0000
0100
0010
,
0100
1000
0100
0010
,
0101
0000
0010
0100
,
1000
0100
0010
1000
,
1010
0000
0000
0101
0000
0000
0000
0110
,
0000
0000
0000
1010
0000
0000
0100
0000
,
0100
1000
0100
0010
,
1000
0100
0001
0100
,
1001
0000
0100
0010
,
1000
0100
0001
0100
,
1010
0000
0100
0010
,
1000
0100
0010
0100
,
0101
0000
0000
0110
0000
0000
0000
1010
,
0000
0000
0000
0110
0000
0000
0000
0000
,
1000
0100
0010
0001
,
1000
0100
1000
0100
,
0010
0100
0001
0100
,
0010
0100
0002
0000
,
1003
0100
1000
0100
,
0010
0100
0100
0010
,
0100
0001
1000
0100
,
0010
0001
0100
0010
,
1010
0100
0010
0001
,
0110
1000
0100
0010
,
1001
0000
0000
0110
0000
0000
0000
0011
,
0000
0000
0000
1100
0000
0000
0110
0000
,
1000
0100
0010
0001
,
1000
1000
0001
0001
,
1001
0100
0010
0001
,
1000
1000
0001
0001
,
0110
1000
0100
0001
,
0100
1000
0010
0001
,
1001
0000
0000
0110
0000
0000
0000
1010
,
0000
0000
0000
0101
0000
0000
0110
0000
,
1000
1000
0100
0100
,
0010
0010
0001
0001
,
1000
0010
0100
0001
,
1000
0001
0010
0100
,
1000
0010
0100
1000
,
0001
0010
0100
0010
,
0001
1000
0100
0010
,
0100
1000
0010
0100
,
2002
0000
0000
0000
,
0000
0000
0000
0000
,
0000
0000
0000
0000
,
0000
0000
0000
0000
,
3003
0000
0000
0000
;

//---------------dance-single - ----------------
#NOTES:
     dance-single:
     :
     Beginner:
     4:
     0.222,0.328,0.341,0.060,0.000:
1001
0000
0000
0000
,
0100
0000
0000
0000
,
0010
0000
0000
0000
,
0001
0000
0000
0000
,
0110
0000
0000
0000
,
1000
0000
0000
0000
,
0110
0000
0000
0000
,
1001
0000
0000
0000
,
0110
0000
0000
0000
,
1000
0000
0000
0000
,
0110
0000
0000
0000
,
0010
0000
0000
0000
,
0110
0000
0000
0000
,
1000
0000
0000
0000
,
1001
0000
0000
0000
,
0110
0000
0000
0000
,
1001
0000
0000
0000
,
1000
0000
0000
0000
,
0001
0000
0000
0000
,
0100
0000
0000
0000
,
0020
0000
0000
0000
,
0030
0000
0000
0000
,
0200
0000
0000
0000
,
0300
0000
0000
0000
,
0002
0000
0000
0000
,
0003
0000
0000
0000
,
2000
0000
0000
0000
,
3000
0000
0000
0000
,
0200
0000
0000
0000
,
0000
0000
0000
0000
,
0020
0000
0000
0000
,
0330
0000
1000
0000
,
1000
0000
0001
0001
,
0001
0000
0100
0000
,
0010
0000
0100
0100
,
0100
0000
1000
0000
,
0001
0000
0100
0100
,
0100
0000
0010
0000
,
0100
0000
0001
0001
,
0001
1000
0001
1000
,
0000
1000
0001
1000
,
0001
0000
0001
1000
,
0001
1000
0000
0000
,
0110
0000
0010
0000
,
1001
0000
0010
0000
,
0110
0000
1000
0000
,
0110
0000
0001
0000
,
0110
0000
1000
0000
,
1001
0000
0001
0000
,
1001
0000
0100
0000
,
1001
0000
0010
0000
,
1001
0000
0010
0000
,
0110
0000
0100
0000
,
0110
0000
0001
0000
,
0110
0000
1000
0000
,
0110
0000
0110
0000
,
0110
0000
0100
0000
,
1001
0000
0010
0000
,
0010
0000
0010
0000
,
1001
0000
0110
0000
,
1001
0000
0000
0000
,
1000
0000
0010
0000
,
0100
0000
0010
0000
,
1001
0000
0001
0000
,
0100
0000
0010
0000
,
0110
0000
1000
0000
,
0100
0000
0010
0000
,
1001
0000
0000
0000
,
0110
0000
0000
0000
,
1001
0000
1000
0000
,
0100
0000
0010
0000
,
1001
0000
0001
0000
,
0010
0000
0100
0000
,
0110
0000
1000
0000
,
0001
0000
1000
0000
,
1001
0000
0000
0000
,
1001
0000
0000
0000
,
0110
0000
1000
0000
,
0001
0000
0100
0000
,
0010
0000
0010
0000
,
0100
0000
0002
0000
,
1003
0000
0100
0000
,
0010
0000
1000
0000
,
1001
0000
0001
0000
,
1000
0000
0010
0000
,
0110
0000
1000
0000
,
0100
0000
0001
0000
,
1001
0000
0000
0000
,
1001
0000
0000
0000
,
1001
0000
0010
0000
,
0100
0000
0010
0000
,
0110
0000
1000
0000
,
0100
0000
0001
0000
,
1001
0000
1000
0000
,
0010
0000
0001
0000
,
1001
0000
0000
0000
,
0110
0000
0000
0000
,
1001
0000
1000
0000
,
0100
0000
0010
0000
,
1001
0000
0001
0000
,
0010
0000
0100
0000
,
1000
0000
1000
0000
,
0001
0000
0001
0000
,
0100
0000
0100
0000
,
0010
0000
0010
0000
,
2002
0000
0000
0000
,
0000
0000
0000
0000
,
0000
0000
0000
0000
,
0000
0000
0000
0000
,
0000
3003
0000
0000
0000
0000
0000
0000
0000
0000
0000
0000
0000
0000
0000
0000
0000
0000
0000
0000
0000
0000
0000
0000
0000
0000
0000
0000
0000
0000
0000
0000
0000
0000
0000
0000
0000
0000
0000
0000
0000
0000
0000
0000
0000
0000
0000
0000
0000
0000
0000
0000
0000
0000
0000
0000
0000
0000
0000
0000
0000
0000
0000
0000
0000
0000
0000
0000
0000
0000
0000
0000
0000
0000
0000
0000
0000
0000
0000
0000
0000
0000
0000
0000
0000
0000
0000
0000
0000
0000
0000
0000
0000
0000
0000
0000
0000
0000
0000
0000
0000
0000
0000
0000
0000
0000
0000
0000
0000
0000
0000
0000
0000
0000
0000
0000
0000
0000
0000
0000
0000
0000
0000
0000
0000
0000
0000
0000
0000
0000
0000
0000
0000
0000
0000
0000
0000
0000
0000
0000
0000
0000
0000
0000
0000
0000
0000
0000
0000
0000
0000
0000
0000
0000
0000
0000
0000
0000
0000
0000
0000
0000
0000
0000
0000
0000
0000
0000
0000
0000
0000
0000
0000
0000
0000
0000
0000
0000
0000
0000
0000
0000
0000
0000
0000
0000
0000
0000
0000
0000
0000
0000
;
