#TITLE:Hyadain no Jyou-jyou Yuu-Jyou;
#SUBTITLE:Nichijou 2nd Openning Theme;
#ARTIST:Hyadain;
#TITLETRANSLIT:;
#SUBTITLETRANSLIT:;
#ARTISTTRANSLIT:;
#GENRE:;
#CREDIT:;
#BANNER:Hyadain no Jyou-jyou Yuu-jyou.png;
#BACKGROUND:Hyadain no Jyou-jyou Yuu-jyou-bg.png;
#LYRICSPATH:;
#CDTITLE:;
#MUSIC:Hyadain no Jyou-jyou Yuu-jyou.mp3;
#OFFSET:-0.216;
#SAMPLESTART:0.050;
#SAMPLELENGTH:12.000;
#SELECTABLE:YES;
#BPMS:0.000=200.040
,171.500=100.020
,173.500=133.360
,176.167=300.060
,181.167=200.040
,249.500=100.020
,253.250=200.040
,267.500=800.160
,273.500=200.042
;
#STOPS:79.500=0.150,
181.167=0.100,
253.500=0.075
;
#BGCHANGES:;
#KEYSOUNDS:;
#ATTACKS:;

//---------------dance-single - ----------------
#NOTES:
     dance-single:
     :
     Hard:
     17:
     0.899,0.890,0.704,0.704,0.160,444.000,64.000,64.000,0.000,1.000,0.000,0.899,0.890,0.704,0.704,0.160,444.000,64.000,64.000,0.000,1.000,0.000:
0000
0000
0000
1100
,
0110
1001
0110
0011
,
0110
0100
0110
0100
0110
0000
0110
0000
,
1001
1000
1000
1001
1000
1000
1000
1001
,
0000
1000
1000
1000
1000
1000
1000
1000
,
0200
0000
0000
0000
0310
1000
0000
0002
,
0000
0203
0000
0010
0300
1000
1000
2000
,
0020
0000
0000
3000
0130
0020
0000
0230
,
0000
0010
0300
1000
0000
0001
0200
0000
,
0010
0000
0310
0000
1000
0010
0000
0100
,
0000
0100
0000
0010
0100
0000
0010
0000
,
2000
0000
0001
0000
0000
0010
0001
0010
,
3000
0100
0010
0100
0001
0000
0110
0000
,
1001
0000
0100
1000
0100
0020
0000
0230
,
0000
0302
0000
2003
0000
3010
0100
0100
,
0202
0000
0303
1000
0010
0100
0000
0002
,
0000
0203
0000
0320
0000
1030
0100
0100
,
2002
0000
0000
3003
0220
0000
0300
0002
,
0000
0000
0000
0000
0033
0000
0100
0010
,
1001
0000
0000
0000
0000
0000
0000
0000
0000
0000
0000
0000
0100
0000
0000
0000
0000
0000
0010
0000
0000
0000
0000
0000
1000
0000
0000
0000
0000
0000
0001
0000
0000
0000
0000
0000
0100
0000
0000
0000
0000
0000
0020
0030
0000
0000
0000
0000
,
0001
0001
0001
0001
0001
0001
0001
1001
,
0000
0110
1000
0100
0010
0000
2000
0000
,
3002
0000
0203
0000
0310
1000
0001
1001
,
0000
0100
0010
1000
0001
0100
0020
0000
,
1030
0000
0010
0000
0100
0000
0010
2002
,
0000
0000
3003
0220
0000
0300
0002
0000
,
0000
0000
2033
0000
3010
0100
0001
1000
,
0000
0010
0000
0100
0010
1000
0002
0000
,
0000
0000
0000
0000
1003
1000
0100
0100
,
0010
0010
1000
1000
0001
0001
0100
0100
,
0010
0010
1000
1000
0001
1000
0100
0010
,
0001
0010
0001
0010
0100
0100
0010
0010
,
1000
1000
0010
0010
0100
0100
0100
0001
,
0001
0100
1000
0000
0010
1000
0010
0000
0100
0010
0100
0000
0010
1000
0010
0000
,
1000
0001
1000
0000
0001
1000
0101
0000
0010
0000
1000
0000
0100
0000
0010
0000
,
0001
0000
0100
0000
1000
0000
0100
0000
0010
0000
0001
0000
0100
0010
1000
0001
,
0010
1000
0001
0000
1000
0000
2002
0000
0000
0000
0000
0000
3003
0000
0110
0000
,
0000
1000
0100
0010
2000
0000
3020
0000
,
0230
0000
0302
0000
1003
0020
0030
0101
,
0000
1000
0100
0010
2000
0000
3002
0000
,
0203
0000
0320
0000
1030
0002
0003
0110
,
0000
1000
0100
0010
0001
0000
2000
0000
,
3010
0000
0000
0001
0000
0000
0001
0000
0000
0200
0000
0000
1000
0000
0000
0001
0000
0000
0300
0000
0000
1000
0000
1000
,
0000
0000
0000
0000
0000
0000
0000
0000
1000
0000
0000
0000
0000
0000
0000
0000
0000
0000
0000
0000
0000
0000
0000
0000
1000
0000
0000
0000
0000
0000
0000
0000
0000
0000
0000
0000
0000
0000
0000
0000
1000
0000
0000
0000
0000
0000
0000
0000
0000
0000
0000
0000
0000
0000
0000
0000
1000
0000
0000
0000
0000
0000
0000
0000
0000
0000
0000
0000
0000
0000
0000
0000
1000
0000
0000
0000
0000
0000
0000
0000
0000
0000
0000
0000
0000
0000
0000
0000
0000
0000
0000
0000
0000
0100
0000
0000
0000
0000
0000
0000
0000
0000
0000
0000
0000
0000
0000
0000
0000
0000
0000
0000
0000
0000
0100
0000
0000
0000
0000
0000
0000
0000
0000
0000
0000
0000
0000
0000
0000
0000
0000
0000
0000
0000
0000
0000
0100
0000
0000
0000
0000
0000
0000
0000
0000
0000
0000
0000
0000
0000
0000
0000
0000
0000
0000
0000
0000
0100
0000
0000
0000
0000
0000
0000
0000
0000
0000
0000
0000
0000
0000
0000
0000
0000
0000
0000
0000
0000
0100
0000
0000
0000
0000
0000
0000
0000
0000
0000
0000
0000
0000
0000
,
0000
0010
0000
0000
0000
0000
0000
0010
0000
0000
0000
0000
0000
0010
0000
0000
0000
0000
0000
0010
0000
0000
0000
0000
,
0000
0010
0000
0000
0000
0000
0000
0010
0000
0002
0000
0000
0000
0000
0000
0000
0000
0000
0000
0000
0000
0000
0000
0000
,
0000
0000
0000
1003
1000
0100
0100
0010
,
0010
0001
0001
0010
0100
0010
1000
0100
,
0010
1000
0010
0000
1000
0000
0001
0000
0100
0000
0010
0000
1000
0000
1000
0000
,
0001
0110
1000
0100
0100
0010
0001
1000
,
1000
0000
0010
1000
0010
0000
0100
0000
0001
0000
1000
0000
0100
0000
0010
0000
,
0001
0000
0010
0000
0100
0000
1000
0001
1000
0000
0010
0000
0010
0000
0100
0000
,
0001
1000
0010
0100
0001
1000
0100
0010
,
0001
1000
0100
0010
0001
0010
1000
0100
,
0010
0001
0010
0001
0010
0001
0001
0001
,
0001
0000
0001
0000
0001
0000
1000
0001
0100
0000
0010
0000
0001
0000
0100
0000
,
1000
0110
0010
0100
0001
0010
0001
0010
,
0100
0000
1000
0000
0100
0000
0010
1000
0001
0000
0010
0000
0100
0000
1000
0000
,
0110
0100
0010
0100
0010
1000
0100
0010
,
0001
0010
0100
1001
1100
1010
0011
0110
,
1001
0100
0010
1000
0010
0100
0001
2000
,
0000
0000
3010
0110
0000
1001
0000
0110
,
0000
0000
1000
0000
0000
0000
2200
0000
0000
3300
0220
0000
0000
0330
0022
0000
,
0000
0033
0220
0000
0000
0330
0000
0000
0000
0000
1010
0000
0000
0000
0101
0000
,
1000
1010
0000
0101
1000
0100
0100
0110
,
0000
0110
0000
1001
0100
0110
0100
0101
,
0100
0110
1000
0100
1000
0100
1000
0202
,
0000
0000
0000
0000
0000
0000
0303
2020
,
0000
0000
0000
3030
0101
0000
1010
0000
,
0110
0100
0110
0000
1001
0100
0110
0100
,
0110
0100
0110
1000
1000
1000
1000
1000
,
0001
0001
0001
0100
0000
0001
0001
0001
,
0001
0001
0001
0002
0000
0000
0000
0000
,
0000
0000
0003
0000
;

//---------------dance-single - ----------------
#NOTES:
     dance-single:
     :
     Medium:
     12:
     0.652,0.725,0.264,0.143,0.050,378.000,24.000,13.000,0.000,0.000,0.000,0.652,0.725,0.264,0.143,0.050,378.000,24.000,13.000,0.000,0.000,0.000:
0000
0000
0000
1000
,
0100
0000
0010
0000
1000
0001
0100
0000
,
1000
0100
0010
0001
0100
0000
0010
0000
,
1000
0100
0010
0001
0100
0010
0100
0001
,
0000
1000
0100
0010
0001
0100
0010
1000
,
0000
0000
0000
0000
1000
0100
0000
0010
,
0000
1000
0001
1000
0100
1000
0001
0010
,
1001
0000
0100
0000
0001
1000
0100
0010
,
0000
0100
1000
0100
0000
1000
0100
0010
,
0100
0000
0001
1000
0010
0100
0000
1000
,
0000
0100
1000
0100
0010
0000
0100
0010
,
0100
0000
0001
1000
0010
0000
0100
0001
,
0000
1000
0100
0010
0001
0000
1001
0000
,
0110
0000
1000
0100
0010
0000
0001
0000
,
0100
0000
0010
0100
0000
1000
0100
0010
,
0100
0000
0000
0000
0110
0000
0000
0100
,
0000
0000
0010
0000
1000
0100
0010
0001
,
2000
0000
0000
3000
0002
0000
0000
2003
,
0000
0000
3000
0100
0000
1000
0100
0010
,
1000
0000
0001
0100
0010
1000
0001
0100
,
0100
0100
0010
1000
0100
0010
0001
1000
,
0000
0100
0000
0010
0100
0000
0001
0000
,
1000
0000
0010
0000
0100
0001
1000
1001
,
0000
0100
0010
1000
0001
0100
0010
0000
,
1000
0100
0010
0000
1000
0001
0100
2002
,
0000
0000
3003
0220
0000
0330
2002
0000
,
0000
3003
1000
0100
0010
0001
1000
0010
,
0000
0100
0001
1000
0010
0100
0001
0000
,
0000
0000
0000
0000
0000
1000
0100
0010
,
0000
0100
0010
0100
0000
1000
0010
0100
,
0000
0010
1000
0100
0000
0000
0100
0000
,
0100
1000
0000
0110
0000
1000
0001
0100
,
0010
1000
0001
0100
0000
1000
0100
0010
,
0000
1000
0001
0100
0000
1000
0010
0100
,
0001
1000
0010
0000
0100
1000
0100
0000
,
0000
0000
0000
0000
0000
1000
0100
0010
,
0100
0001
0100
1001
0000
0000
0000
1001
,
0000
0100
0000
0100
0000
0100
0000
0100
,
0000
1001
0000
0100
0000
0010
0000
1001
,
0000
0100
0000
0100
0000
0100
0000
0100
,
0000
1000
0000
0100
0000
0010
0000
1001
,
0000
0100
0000
0100
0000
0100
0000
0010
,
0000
0000
0000
0010
0000
0000
0000
0000
0000
0001
0000
0000
0000
0000
0000
0010
0000
0000
0000
0000
0000
1000
0000
0100
,
0000
0000
0000
0000
0000
0000
0000
0000
0010
0000
0000
0000
0000
0000
0000
0000
0000
0000
0000
0000
0000
0000
0000
0000
0001
0000
0000
0000
0000
0000
0000
0000
0000
0000
0000
0000
0000
0000
0000
0000
0000
0000
0000
0000
0000
0000
0000
0000
0000
0000
0000
0000
0000
0000
0000
0000
0000
0000
0000
0000
0000
0000
0000
0000
0000
0000
0000
0000
0000
0000
0000
0000
1000
0000
0000
0000
0000
0000
0000
0000
0000
0000
0000
0000
0000
0000
0000
0000
0000
0000
0000
0000
0000
0100
0000
0000
0000
0000
0000
0000
0000
0000
0000
0000
0000
0000
0000
0000
0000
0000
0000
0000
0000
0000
0010
0000
0000
0000
0000
0000
0000
0000
0000
0000
0000
0000
0000
0000
0000
0000
0000
0000
0000
0000
0000
0001
0000
0000
0000
0000
0000
0000
0000
0000
0000
0000
0000
0000
0000
0000
0000
0000
0000
0000
0000
0000
0000
0000
0000
0000
0000
0000
0000
0000
0000
0000
0000
0000
0000
0000
0000
0000
0000
0000
0000
0000
0000
0000
0000
0000
0000
0000
0000
0000
0000
0000
0000
0000
0000
0000
0000
0000
,
0000
0001
0000
0000
0000
0000
0000
0010
0000
0000
0000
0000
0000
0100
0000
0000
0000
0000
0000
1000
0000
0000
0000
0000
,
0000
0000
0000
0002
0000
0000
0000
0000
,
0000
0000
0003
1000
0100
0010
0001
0100
,
0010
1000
0001
0100
0000
1000
0100
0010
,
0000
1000
0100
0010
0100
0001
0100
0010
,
0000
1000
0100
0010
0000
0100
0001
0100
,
0000
1000
0010
1000
0000
0100
0010
0100
,
0000
1000
0100
0010
0001
0100
0010
0100
,
0000
0010
1000
0100
0100
0001
1000
0100
,
0000
1000
0100
0010
0000
0100
0000
0001
,
0000
0100
0000
0000
0001
1000
0100
0010
,
0100
0100
0001
1000
0000
0100
1000
0100
,
0000
1000
0010
0100
0000
1000
0010
0100
,
0001
1000
0000
1100
0000
1000
0100
1000
,
0000
0000
1000
0100
0010
0100
1001
0010
,
0000
0100
0000
1000
0100
0010
0001
1000
,
0000
0100
0000
1000
0000
0100
0000
0100
,
0000
0000
1000
0000
0100
0010
0000
1000
,
0000
0001
0000
1001
0000
0110
0000
0110
,
0000
1001
0000
0000
0000
1000
0000
0100
,
0010
1000
0000
0100
0010
1000
0001
0100
,
0000
0010
0000
1000
0100
0000
0010
0001
,
0100
0010
1001
0100
0010
1000
0001
2000
,
0000
0000
0000
0000
,
0002
0000
0000
3003
1000
0000
0100
0000
,
1000
0010
0100
0000
1100
0000
1000
0010
,
0100
0001
0000
0100
1000
0100
0010
0001
,
0000
1100
0100
0010
0000
1000
0000
0110
,
0001
0100
0010
2000
0000
0000
0000
0000
,
0000
3000
0000
0000
;

//---------------dance-single - ----------------
#NOTES:
     dance-single:
     :
     Easy:
     7:
     0.239,0.322,0.044,0.044,0.000,144.000,4.000,4.000,0.000,0.000,0.000,0.239,0.322,0.044,0.044,0.000,144.000,4.000,4.000,0.000,0.000,0.000:
0000
0000
0000
0000
,
0100
1000
0100
1000
,
0000
0000
0010
0001
,
0000
0000
0000
0000
,
0000
1000
0000
0000
0000
0000
0000
0000
,
1000
0000
0000
0000
,
0000
0000
0000
0000
,
1000
0000
0000
0000
0100
0000
0000
0100
,
0000
0000
0000
1000
,
0100
0000
0000
0000
0100
0000
0000
1000
,
0000
0100
0000
0000
0000
0000
0000
0000
,
1000
0100
0010
0001
,
0000
0000
1000
0100
,
1000
0000
0000
0000
0000
0000
0000
0010
,
0000
0100
0000
0010
0000
0000
0000
0000
,
1000
0000
0000
0000
0000
0000
0000
0001
,
0000
1000
0000
0001
0000
0000
0000
0000
,
2000
0000
0000
3000
0002
0000
0003
2000
,
0000
3000
0000
0000
,
0100
0000
0000
0000
0000
0000
0000
1000
,
0000
0000
0000
0000
0000
0000
0000
1000
,
0000
0001
0000
0100
0000
0000
0010
0000
,
0000
0000
0000
0000
0000
0000
0000
1000
,
0000
0100
0000
0010
0000
0000
1000
0000
,
0000
0000
0001
0000
0000
0000
0000
1000
,
0000
0000
0000
1000
0000
0000
1000
0000
,
0000
0000
0000
0000
0000
0000
0000
1000
,
0000
0000
0000
0010
0000
0000
1000
0000
,
0000
0000
0000
0000
0000
0000
0000
0001
,
0000
0000
0000
0000
0000
0000
0000
1000
,
0000
0000
0000
0010
0000
0000
0000
0000
,
0000
0000
0000
0000
,
0000
0000
0000
0000
0000
0000
0000
1000
,
0000
0000
0000
0010
0000
0000
0000
0100
,
0000
0000
0000
0001
0000
0000
0000
0000
,
0000
0000
0000
0000
0000
0000
0000
1000
,
0000
0001
0000
1001
0000
0000
0000
1000
,
0000
0000
0000
1000
0000
0000
0000
1000
,
0000
0000
0000
0001
0000
0000
0000
0001
,
0000
0000
0000
0001
0000
0000
0000
1000
,
0000
0000
0000
1000
0000
0000
0000
0001
,
0000
0000
0000
0001
0000
0000
0000
0010
,
0000
0000
0000
0010
0000
0000
0000
0100
,
0000
0000
0000
1000
0000
0000
0000
0000
,
0000
0000
0000
0000
,
0000
0000
0000
0001
0000
0000
0000
0000
,
0000
0000
0000
1000
0000
0100
0000
0010
,
0000
0001
0000
0100
0000
0010
0000
1000
,
0000
0000
1000
1000
,
1000
0000
1000
0100
,
0010
0000
0001
0010
,
0100
1000
0000
0000
,
0000
0000
0000
1000
0000
0100
0000
0010
,
0000
0000
0000
0001
0000
0000
0000
0001
,
0000
0000
1000
0100
,
0000
0000
0000
0010
0000
0001
0000
0010
,
0000
0000
0000
1000
0000
0100
0000
0010
,
0000
0000
0000
1000
0000
0010
0000
0100
,
0000
0000
0000
1000
0000
0100
0000
0010
,
0000
0000
0000
0100
0000
0010
0000
0100
,
0000
0000
0001
0010
,
0100
0000
0000
0000
1000
0000
0010
1000
,
0000
0000
0000
1001
0000
0000
0000
0110
,
0000
1001
0000
0000
0000
0000
0100
0000
,
1000
0000
0100
0000
0000
1000
0000
0000
,
0100
0010
0000
0000
0000
0000
0000
0000
,
0000
0000
0000
0100
0000
0000
0010
1000
,
0000
0000
0000
0000
,
0000
0000
0001
0100
,
0010
0100
0000
0000
,
1000
0000
0010
0000
0100
0000
0000
0010
,
0000
0000
0010
0000
0000
1000
0000
0000
,
0100
0000
0000
2000
0000
0000
0000
0000
,
0000
0000
0000
0000
0000
0000
0000
0000
0000
0000
0000
0000
0000
0000
0000
0000
0000
0000
0000
0000
0000
0000
0000
0000
0000
0000
0000
0000
0000
0000
0000
0000
0000
0000
0000
0000
0000
0000
0000
0000
0000
0000
0000
0000
0000
0000
0000
0000
0000
3000
0000
0000
0000
0000
0000
0000
0000
0000
0000
0000
0000
0000
0000
0000
0000
0000
0000
0000
0000
0000
0000
0000
0000
0000
0000
0000
0000
0000
0000
0000
0000
0000
0000
0000
0000
0000
0000
0000
0000
0000
0000
0000
0000
0000
0000
0000
0000
0000
0000
0000
0000
0000
0000
0000
0000
0000
0000
0000
0000
0000
0000
0000
0000
0000
0000
0000
0000
0000
0000
0000
0000
0000
0000
0000
0000
0000
0000
0000
0000
0000
0000
0000
0000
0000
0000
0000
0000
0000
0000
0000
0000
0000
0000
0000
0000
0000
0000
0000
0000
0000
0000
0000
0000
0000
0000
0000
0000
0000
0000
0000
0000
0000
0000
0000
0000
0000
0000
0000
0000
0000
0000
0000
0000
0000
0000
0000
0000
0000
0000
0000
0000
0000
0000
0000
0000
0000
0000
0000
0000
0000
0000
0000
;

//---------------dance-single - ----------------
#NOTES:
     dance-single:
     :
     Beginner:
     3:
     0.118,0.159,0.011,0.000,0.000,74.000,1.000,0.000,0.000,0.000,0.000,0.118,0.159,0.011,0.000,0.000,74.000,1.000,0.000,0.000,0.000,0.000:
0000
0000
0000
0000
,
1000
0000
0000
0000
0000
0000
0000
0100
,
0000
0000
0000
0000
,
0100
0000
0000
0000
,
0000
0010
0000
0000
0000
0000
0000
0000
,
0001
0000
0000
0000
,
1000
0000
0000
0000
,
0010
0000
0000
0000
,
0001
0000
0000
0000
,
0010
0000
0000
0000
,
1000
0000
0000
0000
,
0010
0000
0010
0000
,
0000
0000
0000
0000
,
0001
0000
0000
0000
,
1000
0000
0000
0001
0000
1000
0000
0000
,
0100
0000
0000
0000
,
1000
0000
0000
0000
,
0001
0000
0001
0000
,
0000
0000
0000
0000
,
0100
0000
0000
0000
0000
0000
0000
1000
,
0000
0000
0000
0000
0000
0000
0000
1000
,
0000
0000
0000
0100
0000
0000
0000
0010
,
0000
0000
0000
0001
0000
0000
0000
0000
,
0000
0000
0000
1000
0000
0000
0000
0100
,
0000
0000
0000
0010
0000
0000
0000
0001
,
0000
0000
0000
0000
0000
0000
0000
1000
,
0000
0000
0000
0000
0000
0000
0000
0100
,
0000
0000
0000
0000
0000
0000
0000
0010
,
0000
0000
0000
0000
0000
0000
0000
1000
,
0000
0000
0000
0000
,
0000
0000
0000
0000
0000
0000
0000
1000
,
0000
0000
0000
0000
,
0000
0000
0000
0000
0000
0000
0000
0001
,
0000
0000
0000
0000
,
0000
0000
0000
1000
0000
0000
0000
0000
,
0000
0000
0000
0000
,
0000
0000
0000
1001
0000
0000
0000
0000
,
0000
0000
0000
0000
0000
0000
0000
1000
,
0000
0000
0000
1000
0000
0000
0000
0000
,
0000
0000
0000
0000
0000
0000
0000
0001
,
0000
0000
0000
0001
0000
0000
0000
0000
,
0000
0000
0000
0000
0000
0000
0000
1000
,
0000
0000
0000
1000
0000
0000
0000
1000
,
0000
0000
0000
0100
0000
0000
0000
0000
,
0000
0010
0000
0000
0000
0000
0000
0000
,
0000
0000
0000
0000
,
0000
0000
0000
1000
0000
0000
0000
0000
,
0000
0000
0000
0001
0000
0000
0000
0000
,
0000
0000
0000
1000
0000
0000
0000
0100
,
0000
0000
0000
0000
,
0000
0000
0000
0010
0000
0000
0000
0001
,
0000
0000
0000
0000
,
0000
0000
0000
1000
0000
0000
0000
0100
,
0000
0000
0000
0000
,
0000
0000
0000
1000
0000
0000
0000
0000
,
0000
0000
0000
0001
0000
0000
0000
0000
,
0000
0000
0000
0100
0000
0000
0000
0000
,
0000
0000
0000
0010
0000
0000
0000
0000
,
0000
0000
0000
1000
0000
0000
0000
0000
,
0000
0000
0000
0001
0000
0000
0000
0000
,
0000
0000
0000
0100
0000
0000
0000
0000
,
0000
0000
0000
1000
0000
0000
0000
0000
,
0000
0000
0000
1000
0000
0000
0000
0100
,
0000
0000
0000
0000
0000
0100
0000
0000
,
0000
1000
0000
0000
0000
0000
0000
0000
,
0000
0100
0000
0000
0000
0000
0000
0000
,
0000
0000
0000
0000
,
0000
0000
0000
0000
,
0000
0000
1000
0000
,
0100
0000
0010
0000
,
0100
0000
0000
0000
,
0000
0000
0000
0000
0000
1000
0000
0000
,
0000
0000
0000
0001
0000
0000
0000
0000
;

//---------------dance-single - Copied from----------------
#NOTES:
     dance-single:
     Copied from:
     Challenge:
     18:
     1.000,0.970,0.869,0.715,0.369,493.000,79.000,65.000,0.000,1.000,0.000,1.000,0.970,0.869,0.715,0.369,493.000,79.000,65.000,0.000,1.000,0.000:
0000
0000
0000
0011
,
0110
1001
0110
1100
,
0110
0010
0110
0010
0110
0000
0110
0000
,
1001
0001
0001
1001
0001
0001
0001
1001
,
0000
0000
0001
0010
0001
0010
0100
0010
0100
1000
0100
1000
0100
0010
0001
0000
,
0020
0000
0000
1000
0130
0001
0000
2000
,
0000
3020
0000
0100
0030
0001
0001
0002
,
0200
0000
0003
1000
0310
0200
0000
0320
,
0000
0100
0030
0001
0000
1000
0020
0000
,
0100
1000
0130
1000
0001
0100
0000
0010
,
1000
0020
0000
0130
0110
0000
0101
0000
,
1002
0010
0100
1000
0010
0100
1000
0100
,
0003
1010
0101
0110
1001
0000
0110
0000
,
1001
0000
0010
0001
0010
0200
0000
0320
,
0000
2030
0000
3002
0000
0103
0010
0010
,
2020
0030
3001
0001
0100
0010
0000
2000
,
0000
3020
0000
0230
0000
0301
0010
0010
,
2002
0000
0000
3003
0220
0000
0030
2000
,
0000
0000
3300
0001
0000
1000
0010
0100
,
1001
0000
0000
0000
0000
0000
0000
0000
0000
0000
0000
0000
0010
0000
0000
0000
0000
0000
0100
0000
0000
0000
0000
0000
0001
0000
0000
0000
0000
0000
1000
0000
0000
0000
0000
0000
0010
0000
0000
0000
0000
0000
0200
0300
0000
0000
0000
0000
,
1000
0001
1000
0000
1000
0001
1000
0000
1000
0001
1000
0000
1000
0001
1001
0000
,
0000
0110
0001
0010
0100
0000
0002
0000
,
2003
0000
3020
0000
0130
0001
1000
1001
,
0000
0010
0100
0001
1000
0010
0200
0000
,
0301
0000
0100
0000
0010
0000
0100
2002
,
0000
0000
3003
0220
0000
0030
2000
0000
,
0000
0000
3302
0000
0103
0010
1000
0001
,
0000
0000
0100
0000
0000
0000
0010
1000
0100
0010
0001
0000
2000
0000
0000
0000
,
0000
0000
0000
0000
3001
0001
0010
0010
,
0100
0001
0101
0000
0001
0100
0101
0000
1000
0100
1100
0000
0010
0000
0010
0000
,
0100
0000
0100
0000
0001
0000
0001
0000
1000
0000
0001
0000
0010
0000
0100
0001
,
1000
0100
1000
0100
0010
0010
0100
0100
,
0001
0001
0100
0100
0010
0010
0010
1000
,
1000
0010
0011
0000
0100
0001
0101
0000
0010
0100
0110
0000
0100
0001
0101
0000
,
0001
1000
1001
0000
1000
0001
1010
0000
0100
0000
0001
0000
0010
0000
0100
0000
,
1000
0000
0010
0000
0001
0000
0010
0000
0100
0000
1000
0000
0010
0100
0001
1000
,
0100
0001
1000
0000
0001
0000
2002
0000
0000
0000
0000
0000
3003
0000
0110
0000
,
0000
0001
0010
0100
0002
0000
0203
0000
,
0320
0000
2030
0000
3001
0200
0300
1010
,
0000
0001
0010
0100
0002
0000
2003
0000
,
3020
0000
0230
0000
0301
2000
3000
0110
,
0000
0001
0010
0100
1000
0000
0002
0000
,
0103
0000
0000
1000
0000
0000
1000
0000
0000
0020
0000
0000
0001
0000
0000
1000
0000
0000
0030
0000
0000
0001
0000
0001
,
0000
0000
0000
0000
0000
0000
0000
0000
0001
0000
0000
0000
0000
0000
0000
0000
0000
0000
0000
0000
0000
0000
0000
0000
0001
0000
0000
0000
0000
0000
0000
0000
0000
0000
0000
0000
0000
0000
0000
0000
0001
0000
0000
0000
0000
0000
0000
0000
0000
0000
0000
0000
0000
0000
0000
0000
0001
0000
0000
0000
0000
0000
0000
0000
0000
0000
0000
0000
0000
0000
0000
0000
0001
0000
0000
0000
0000
0000
0000
0000
0000
0000
0000
0000
0000
0000
0000
0000
0000
0000
0000
0000
0000
0010
0000
0000
0000
0000
0000
0000
0000
0000
0000
0000
0000
0000
0000
0000
0000
0000
0000
0000
0000
0000
0010
0000
0000
0000
0000
0000
0000
0000
0000
0000
0000
0000
0000
0000
0000
0000
0000
0000
0000
0000
0000
0000
0010
0000
0000
0000
0000
0000
0000
0000
0000
0000
0000
0000
0000
0000
0000
0000
0000
0000
0000
0000
0000
0010
0000
0000
0000
0000
0000
0000
0000
0000
0000
0000
0000
0000
0000
0000
0000
0000
0000
0000
0000
0000
0010
0000
0000
0000
0000
0000
0000
0000
0000
0000
0000
0000
0000
0000
,
0000
0100
0000
0000
0000
0000
0000
0100
0000
0000
0000
0000
0000
0100
0000
0000
0000
0000
0000
0100
0000
0000
0000
0000
,
0000
0100
0000
0000
0000
0000
0000
0100
0000
2000
0000
0000
0000
0000
0000
0000
0000
0000
0000
0000
0000
0000
0000
0000
,
0000
0000
0000
0000
0000
0000
3001
1000
0001
0100
0010
0001
0010
0100
0010
1000
,
0100
0010
1000
0001
1000
0000
0100
0000
0010
0000
0100
0000
0001
0000
0010
0000
,
0100
0001
0100
0000
0001
0000
1000
0000
0010
0000
0100
0000
0001
0000
0001
0000
,
1000
0110
0001
0010
0010
0100
1000
0001
,
0001
0000
0100
0001
0100
0000
0010
0000
1000
0000
0001
0000
0010
0000
0100
0000
,
1000
0000
0100
0000
0010
0000
0001
1000
0001
1000
0100
0010
0100
0000
0010
0000
,
1000
0100
0001
0000
0100
0000
0010
0000
1000
0000
0001
0000
0010
0000
0100
0000
,
1000
0001
0010
0100
1000
0100
0001
0010
,
0100
0000
1000
0000
0100
0000
1000
0000
0100
0000
1000
0100
1000
0100
0010
0100
,
0010
0001
0010
0001
0010
0100
0001
1000
0010
0000
0100
0000
1000
0000
0010
0000
,
0001
0110
0100
0010
1000
0100
1000
0100
,
0010
0000
0001
0000
0010
0000
0100
0001
1000
0000
0100
0000
0010
0000
0001
0000
,
0110
0010
0100
0010
0100
0001
0010
0100
,
1000
0100
0010
1001
0011
0101
1100
0110
,
1001
0010
0100
0001
0100
0010
1000
0002
,
0000
0000
0103
0110
0000
1001
0000
0110
,
0000
0000
0001
0000
0000
0000
0022
0000
0000
0033
0220
0000
0000
0330
2200
0000
,
0000
3300
0220
0000
0000
0330
0000
0000
0000
0000
0101
0000
0000
0000
1010
0000
,
0001
0101
0000
1010
0001
0010
0010
0110
,
0000
0110
0000
1001
0010
0110
0010
1010
,
0010
0110
0001
0010
0001
0010
0001
2020
,
0000
0000
0000
0000
0000
0000
3030
0202
,
0000
0000
0000
0303
1010
0000
0101
0000
,
0110
0010
0110
0000
1001
0010
0110
0010
,
0110
0010
0110
0001
0001
0001
0001
0001
,
1000
0000
1000
0000
1000
0000
0010
0000
0000
0000
1000
0100
1000
0100
0010
0001
,
0010
0001
0010
0100
1000
0100
2000
0000
0000
0000
0000
0000
0000
0000
0000
0000
,
0000
0000
3000
0000
;
