#TITLE:Holy Orders (Be Just or Be Dead);
#SUBTITLE:Guilty Gear XX BGM;
#ARTIST:Daisuke Ishiwatari, Koh-ichi Seiyama;
#TITLETRANSLIT:;
#SUBTITLETRANSLIT:;
#ARTISTTRANSLIT:;
#CREDIT:;
#BANNER:Holy Orders (Be Just or Be Dead).png;
#BACKGROUND:Holy Orders (Be Just or Be Dead)-bg.png;
#LYRICSPATH:;
#CDTITLE:;
#MUSIC:Holy Orders (Be Just or Be Dead).mp3;
#OFFSET:-3.564;
#SAMPLESTART:63.536;
#SAMPLELENGTH:14.000;
#SELECTABLE:YES;
#BPMS:0.000=272.080,6.000=136.040,7.000=272.080,13.000=136.040,14.000=272.080,20.000=136.040,21.000=272.080,27.000=136.040,28.000=272.080,60.000=136.040,63.000=272.080,65.000=136.040,66.500=272.080,89.000=136.040,89.500=272.080,91.500=136.040,92.000=272.080,93.000=136.040,93.500=272.080,95.500=136.040,96.000=272.080,103.000=136.040,103.500=272.080,105.500=136.040,106.000=272.080,107.000=136.040,107.500=272.080,109.500=136.040,110.000=272.080,114.000=136.040,114.500=272.080,116.500=136.040,117.000=272.080,121.000=136.040,121.500=272.080,123.500=136.040,124.000=272.080,130.000=272.080,132.000=272.080,144.000=136.040,144.500=272.080,145.500=136.040,146.000=272.080,147.000=136.040,147.500=272.080,150.500=136.040,151.500=272.080,240.500=544.161,241.500=272.081,242.000=544.161,243.000=272.081,243.500=544.161,244.000=272.081,244.500=544.161,245.000=272.081,420.000=136.040,420.750=272.081,422.250=136.040,423.000=272.081;
#STOPS:67.500=0.110
,68.500=0.110
,69.500=0.110
,181.500=0.110
,182.500=0.110
,212.500=0.055
,212.750=0.055
,213.000=0.055
,213.250=0.055
,213.500=0.055
,213.750=0.055
,214.000=0.055
,214.250=0.055
,214.500=0.055
,214.750=0.055
,215.000=0.055
,215.250=0.055
,215.500=0.055
,215.750=0.055
,216.000=0.055
,216.250=0.055
,278.000=0.110
,279.000=0.110
,280.000=0.110
,312.500=0.772
,313.000=0.772
,313.500=0.772
,314.000=0.772
,314.500=0.772
,315.000=0.772
,315.500=0.221
;
#BGCHANGES:;

//---------------dance-single - ----------------
#NOTES:
     dance-single:
     :
     Challenge:
     15:
     1.000,1.000,0.301,0.574,0.091: // measure 1
0100
1000
0100
0001
0100
1000
0100
0001
,  // measure 2
1000
0100
0001
0100
1100
0000
1000
0010
,  // measure 3
0001
0010
1000
0010
0001
0010
1000
0010
,  // measure 4
0001
0010
1100
0000
0001
0100
0010
1000
,  // measure 5
0100
0010
0001
1000
0100
0010
0001
0100
,  // measure 6
0010
0100
1000
0100
0010
0000
0001
0000
0010
0000
0100
0000
1000
0000
0001
0000
,  // measure 7
0100
0000
0010
0000
0100
0000
0001
0000
0100
0000
0001
0000
0100
0010
0100
0010
,  // measure 8
1000
0010
1000
0001
0100
0001
0100
0010
,  // measure 9
1000
0100
0010
0001
0010
0001
0010
0100
,  // measure 10
0110
0000
0010
0100
1000
0100
0010
0100
,  // measure 11
0110
0000
0001
0100
0001
0100
1000
0100
,  // measure 12
1100
0000
1000
0001
0100
0010
1000
0100
,  // measure 13
0110
0000
1000
0010
0100
0001
0100
0010
,  // measure 14
0100
0010
1000
0100
0010
0001
0100
0010
,  // measure 15
1000
0100
0010
0001
0100
0010
0100
0010
,  // measure 16
2000
0000
0000
0000
0000
0000
3100
1000
,  // measure 17
0001
1000
0002
0000
0000
0103
0001
1000
,  // measure 18
0010
0100
0001
0100
0011
0000
0100
0010
,  // measure 19
0100
0001
0110
0000
0010
1000
0100
0010
,  // measure 20
0001
0000
0010
0100
2000
0000
3001
0010
,  // measure 21
1000
0010
0001
0000
1100
0100
0011
1000
,  // measure 22
0110
0001
0011
0100
1000
0000
1000
0100
,  // measure 23
0010
0001
0020
0130
1000
0001
1000
0020
,  // measure 24
0130
0001
0200
0310
1000
0100
0001
0200
,  // measure 25
0310
0001
0100
1000
0001
1000
0010
1000
,  // measure 26
0100
0000
0001
1000
0001
0100
0001
0100
,  // measure 27
1000
0100
0010
1000
1000
0001
0010
0010
,  // measure 28
1000
0100
0010
1000
0001
1000
0010
0100
,  // measure 29
0010
1000
0010
0100
0001
0100
0001
1000
,  // measure 30
0010
1000
0010
0100
1000
0010
1000
0000
,  // measure 31
1000
0100
0001
0001
0100
1000
0100
0001
,  // measure 32
0001
1000
0010
0100
0001
1000
0010
1000
,  // measure 33
0020
0000
0130
1000
0100
0010
0001
1000
,  // measure 34
0020
0000
1030
0010
0100
0001
1000
0010
,  // measure 35
0200
0000
0301
1000
0001
0100
0001
0010
,  // measure 36
0002
0000
0103
1000
0100
0001
0100
0010
,  // measure 37
1000
1000
0010
1000
1000
0001
1000
1000
,  // measure 38
0100
0000
1000
0000
0000
0000
0010
0000
0000
0000
0100
0001
0000
0001
0100
0000
,  // measure 39
0000
1000
1000
0100
0100
0010
0010
0001
,  // measure 40
0001
0010
0010
0100
0000
0010
0100
1000
,  // measure 41
0000
0010
1000
0100
0000
0001
1000
0010
,  // measure 42
0100
0010
1000
0001
0000
0001
0100
0000
,  // measure 43
0100
0010
0000
1000
0001
1000
0001
0000
,  // measure 44
0100
0001
0000
0100
0000
1000
0100
2000
,  // measure 45
0000
3100
0010
0200
0000
0301
1000
0002
,  // measure 46
0000
1003
0010
1010
0000
0101
0000
1010
,  // measure 47
0000
0010
1000
0010
1000
0001
0100
0001
,  // measure 48
0100
1000
0000
1000
0100
0010
0100
2000
,  // measure 49
0000
3200
0000
1300
0100
0010
0000
0010
,  // measure 50
0000
0100
1000
0010
0001
1000
0000
0010
,  // measure 51
1000
0010
0100
1000
0010
2000
0000
3200
,  // measure 52
0000
0301
1000
0001
0000
0100
1000
0100
,  // measure 53
0000
0001
0010
0001
0000
0100
0010
0100
,  // measure 54
0000
0000
0002
2003
3020
2030
3200
0320
0032
0203
2300
3020
0032
0203
2300
3002
,  // measure 55
0203
2300
3020
0030
0000
0000
1000
0000
0001
0000
0010
0000
0000
0000
0010
0000
,  // measure 56
1000
0100
0000
0100
0001
1000
0010
0100
,  // measure 57
0001
2000
0000
0000
3100
0000
0001
1000
,  // measure 58
0000
0001
0100
0001
0200
0320
0230
0320
,  // measure 59
0230
1300
0000
0100
1000
0000
0100
0001
,  // measure 60
0000
0100
1000
0100
1000
0010
0001
0010
,  // measure 61
0001
1001
0000
0000
1100
0000
0000
0110
,  // measure 62
0000
0000
1001
0000
0001
1000
0010
0100
,  // measure 63
1000
0000
0000
0010
0000
0000
1000
0000
0000
0001
0000
0000
1000
0000
0001
0000
,  // measure 64
1000
0010
1000
0100
1000
0000
1000
0010
,  // measure 65
0100
1000
0010
0001
2000
0000
3010
0100
,  // measure 66
1000
0010
1000
0100
0020
0000
0130
1000
,  // measure 67
0100
0001
0100
1000
0200
0000
0010
0000
,  // measure 68
0010
0000
0310
0000
0010
0000
0100
1000
,  // measure 69
0010
0100
0001
1000
0010
0000
0010
1000
,  // measure 70
0100
0001
1000
0010
0100
0010
0100
0001
,  // measure 71
0100
0021
0000
0130
1000
0010
0000
0100
,  // measure 72
0002
0000
0000
0013
0100
0001
1000
0001
,  // measure 73
1000
0020
0000
0130
0001
1000
0010
1000
,  // measure 74
0010
0200
0000
0301
0100
0000
0100
1000
,  // measure 75
0000
0100
0000
0010
0100
0010
0100
0001
,  // measure 76
0100
0001
1000
0001
1000
0001
0010
0001
,  // measure 77
0010
0011
0000
0001
0101
0000
0100
1100
,  // measure 78
0000
0100
1000
0010
1000
0100
0001
1000
,  // measure 79
0010
0000
2020
3030
2200
3300
0022
0033
2200
3300
0220
0330
0022
0033
2020
3030
,  // measure 80
0110
0000
0100
0101
0000
0010
0100
0010
,  // measure 81
0100
0001
1000
0001
1000
0001
1000
0100
,  // measure 82
1000
0010
1000
0100
0010
0001
0100
0001
,  // measure 83
1000
0010
0100
0010
0001
0010
1000
0100
,  // measure 84
0001
0100
0001
1000
0010
1000
0001
1000
,  // measure 85
0001
1000
0010
1000
0010
0100
0010
0100
,  // measure 86
0001
0100
0001
1000
0010
1000
0100
0010
,  // measure 87
0100
0001
0100
1000
0010
1000
0010
1000
,  // measure 88
0010
1000
0100
1000
0100
1000
0001
1000
,  // measure 89
0001
1000
0010
1000
0010
1000
0001
1000
,  // measure 90
0100
1000
0100
0001
0100
1000
0010
1000
,  // measure 91
0001
1000
0001
0010
1000
0010
1000
0100
,  // measure 92
0001
0010
1000
0100
1000
0010
1000
0100
,  // measure 93
0001
1000
0010
0100
0001
1000
0100
0001
,  // measure 94
0100
0010
0100
1000
0100
0010
0001
0010
,  // measure 95
0100
1000
0001
0100
0010
0001
0100
0001
,  // measure 96
0010
1000
0010
0100
0001
0010
0100
1000
,  // measure 97
0010
1000
0100
0001
1000
0010
1000
0010
,  // measure 98
0100
1000
0100
0010
0001
0100
1000
0001
,  // measure 99
1000
0100
0010
0100
0010
1000
0100
1000
,  // measure 100
0001
0010
1000
0100
0001
0100
1000
0010
,  // measure 101
1000
0100
0010
0001
1000
0010
1000
0010
,  // measure 102
0100
1000
0001
1000
0001
1000
0100
0010
,  // measure 103
1000
0001
0100
1000
0010
0100
0010
0100
,  // measure 104
0001
1000
0010
0100
0010
0001
0100
1000
,  // measure 105
0100
0001
0010
1000
0100
0001
1000
0001
,  // measure 106
1000
0000
0000
0010
0000
0100
0000
0010
0000
0100
0000
0000
0001
0000
0100
0000
,  // measure 107
0001
0200
0000
0000
0000
0000
0000
0000
,  // measure 108
0000
1300
0100
1100
0000
0000
0000
0000
;
