#TITLE:HIRAMEKI! Peace;
#SUBTITLE:R-15 Ending Theme;
#ARTIST:R-15;
#TITLETRANSLIT:;
#SUBTITLETRANSLIT:;
#ARTISTTRANSLIT:;
#CREDIT:;
#BANNER:HIRAMEKI! Peace.png;
#BACKGROUND:HIRAMEKI! Peace-bg.png;
#LYRICSPATH:;
#CDTITLE:;
#MUSIC:HIRAMEKI! Peace.mp3;
#OFFSET:0.000;
#SAMPLESTART:0.030;
#SAMPLELENGTH:12.000;
#SELECTABLE:YES;
#BPMS:0.000=168.000,54.500=336.001,55.000=168.000,58.500=336.001,59.000=168.000,62.500=336.001,63.000=168.000,70.500=336.001,71.000=168.000,74.500=336.001,75.000=168.000,78.500=336.001,79.000=168.000,102.500=336.001,104.000=168.000,106.500=336.001,108.000=168.000,110.500=336.001,112.500=168.000;
#STOPS:54.500=0.089
,58.500=0.089
,62.500=0.089
,70.500=0.089
,74.500=0.089
,78.500=0.089
,102.500=0.089
,103.000=0.089
,103.500=0.089
,106.500=0.089
,107.000=0.089
,107.500=0.089
,110.500=0.268
,111.000=0.089
,111.500=0.268
,112.000=0.268
,112.500=0.357
,236.000=0.179
,236.500=0.179
,237.500=0.179
,238.000=0.179
;
#BGCHANGES:;

//---------------dance-single - ----------------
#NOTES:
     dance-single:
     :
     Easy:
     7:
     0.383,0.506,0.275,0.000,0.000:
0000
0000
0000
0000
0000
1000
0000
0010
,
0000
1000
0001
0100
0000
1000
0000
0100
,
0000
1000
0000
0010
0000
1000
0000
0001
,
0000
0100
0000
0010
0000
1000
0000
0000
,
0000
0001
0000
0000
0100
0000
0000
0010
,
0000
1000
0000
0000
0000
0100
0000
0100
,
0000
0100
0000
0000
0000
0010
0000
0010
,
0000
0010
0000
0000
0000
1000
0000
1000
,
0000
1000
0000
0000
0000
0001
0000
0001
,
0000
0001
0000
0000
0000
1000
0000
1000
,
0000
1000
0000
0000
0000
0010
0000
0010
,
0000
0010
0000
0000
0000
1000
0000
0001
,
0000
0100
0000
0010
0000
1001
0000
0000
,
0000
0000
0000
0000
0000
1000
0000
0010
,
0000
0100
0000
0010
0000
1000
0000
0010
,
0000
0100
0000
0010
0000
1000
0000
0001
,
0000
0100
0000
0010
0000
1000
0000
1000
,
0000
0001
0000
0001
0000
1000
0000
0010
,
0000
0100
0000
0010
0000
1000
0000
0001
,
0000
0100
0000
0010
0000
1000
0000
0010
,
0000
0100
0000
0010
0000
1001
0000
0110
,
0000
0011
0000
0100
0000
1000
0000
0000
,
1000
0000
0000
1000
0000
0100
0000
0000
,
0100
0000
0000
0100
0000
0010
0000
0000
,
0010
0000
0000
0010
0000
0001
0000
0010
,
0000
0001
0000
0010
0000
1000
0001
1000
,
0000
0000
0000
0100
0000
0010
0000
1000
,
0001
0000
0000
0100
0000
0010
0000
1000
,
0001
1000
0000
0000
0100
0000
0010
0000
,
1001
0100
0010
1000
,
0101
1010
0100
0010
,
0110
0000
0110
0000
1000
0100
0010
0000
,
0100
0010
0001
0010
,
0101
0000
0010
0000
1000
0010
0100
0000
,
0010
1000
0100
0010
,
0001
0000
0010
0100
0001
0000
0100
0000
,
1001
0000
1001
0000
0100
0010
1000
0000
,
1001
0000
1001
0000
0100
0010
0100
0000
,
1001
0000
1001
0000
0001
0010
0001
0000
,
0110
1000
0100
0010
,
0001
0000
0010
0000
0100
0010
0100
0000
,
0110
0001
0010
0001
,
1000
0010
0100
0010
,
1001
0000
0110
0000
,
1001
0100
0010
1000
,
0100
0010
0010
0010
,
1000
0100
0010
0001
,
0110
0000
0000
0000
1001
0000
0000
0100
,
0000
0010
1000
0000
,
1000
0100
0010
0100
,
0010
0100
0010
0001
,
0010
0100
0010
0100
,
1000
0100
1010
0101
,
0110
1000
0100
0010
,
0001
0010
0100
0001
,
1000
0000
0100
0000
0000
0010
1000
0000
,
0001
0100
0010
1000
,
0100
0010
0010
0010
,
1000
0001
0100
0010
,
1000
0001
0000
0000
1000
0010
0100
0001
;

//---------------dance-single - ----------------
#NOTES:
     dance-single:
     :
     Hard:
     17:
     0.874,1.000,0.655,1.000,0.254: // measure 1
0000
0000
0000
0000
0000
0000
0000
0000
0000
0000
0001
0000
1000
0001
1000
0000
,  // measure 2
0100
0010
0001
0000
1000
0010
0100
0000
1000
0001
0100
0000
0001
0000
1000
0000
,  // measure 3
0100
0010
1000
0001
0100
0000
1000
0100
,  // measure 4
0010
0000
0001
0000
0100
0000
0010
0000
1000
0001
1001
0000
1001
0000
0000
0000
,  // measure 5
0000
0220
0000
0000
0330
0000
1000
0100
,  // measure 6
0010
0101
0000
0110
0000
1000
0100
0010
,  // measure 7
0002
0000
1003
0010
0200
0000
0301
2000
,  // measure 8
0000
3020
0000
0230
0000
0301
1000
0010
,  // measure 9
0200
0000
0301
1000
0020
0000
0130
0001
,  // measure 10
0000
2000
0000
3010
0000
0100
0001
0100
,  // measure 11
0020
0000
1030
0001
0200
0000
0310
2000
,  // measure 12
0000
3002
0000
0000
0000
0103
0000
0010
,  // measure 13
0000
0100
0110
0000
2002
0000
0000
0000
,  // measure 14
0000
3003
0000
0000
0000
0000
0000
0000
0000
0000
0000
0000
0000
0000
0000
0000
0000
0000
0000
0000
0000
0000
0000
0000
1000
0000
0000
0000
0000
0000
0000
0000
0000
0000
0000
0000
0000
0000
0000
0000
0000
0000
0000
0000
0000
0000
0000
0000
0100
0000
0000
0000
0000
0000
0000
0000
0000
0000
0000
0000
0000
0000
0000
0000
0000
0000
0000
0000
0000
0000
0000
0000
0010
0000
0000
0000
0000
0000
0000
0000
0000
0000
0000
0000
0000
0000
0000
0000
0000
0000
0000
0000
0000
0000
0000
0000
0001
0000
0000
0000
0000
0000
0000
0000
0000
0000
0000
0000
0000
0000
0000
0000
0000
0000
0000
0000
0000
0000
0000
0000
2002
0000
0000
0000
3003
0000
0000
0000
0000
0000
0000
0000
0000
0000
0000
0000
0000
0000
0000
0000
0000
0000
0000
0000
2002
0000
0000
0000
3003
0000
0000
0000
0000
0000
0000
0000
0000
0000
0000
0000
0000
0000
0000
0000
0000
0000
0000
0000
0001
0000
0000
0000
0000
0000
0000
0000
0000
0000
0000
0000
0100
0000
0000
0000
0000
0000
0000
0000
0000
0000
0000
0000
,  // measure 15
0010
0000
0000
1000
0000
0000
0100
0000
0000
0010
0000
0000
0001
0000
0000
0100
0000
0000
0010
0000
0000
0001
0000
0000
1000
0000
0000
0000
0000
0000
2002
3003
0000
0000
0000
0000
2002
3003
0000
0000
0000
0000
1000
0000
0000
0100
0000
0000
,  // measure 16
0010
0000
0000
1000
0000
0000
0100
0000
0000
0010
0000
0000
0100
0000
0000
1000
0000
0000
0100
0000
0000
0010
0000
0000
0001
0000
0000
0000
0000
0000
0220
0330
0000
0000
0000
0000
0220
0330
0000
0000
0000
0000
0100
0000
0000
1000
0000
0000
,  // measure 17
0100
1000
0100
0010
0100
0010
0001
0010
0001
0000
1100
0000
0100
0000
0110
0000
,  // measure 18
0010
0000
0000
0000
0000
0000
0011
0000
0000
0000
0000
0000
0010
0000
0000
0000
0000
0000
0110
0000
0000
0000
0000
0000
1000
0000
0000
0000
0000
0000
0220
0330
0000
0000
0000
0000
0220
0330
0000
0000
0000
0000
1000
0000
0000
0001
0000
0000
,  // measure 19
0010
0000
0000
0100
0000
0000
1000
0000
0000
0010
0000
0000
0100
0000
0000
0010
0000
0000
1000
0000
0000
0001
0000
0000
0100
0000
0000
0000
0000
0000
0220
0330
0000
0000
0000
0000
0220
0330
0000
0000
0000
0000
1000
0000
0000
0100
0000
0000
,  // measure 20
0001
0000
0000
0000
0000
0000
0000
0000
0000
0000
0000
0000
0100
0000
0000
0000
0000
0000
0000
0000
0000
0000
0000
0000
0010
0000
0000
0000
0000
0000
0000
0000
0000
0000
0000
0000
1000
0000
0000
0000
0000
0000
0000
0000
0000
0000
0000
0000
0001
0000
0000
0000
0000
0000
0000
0000
0000
0000
0000
0000
0100
0000
0000
0000
0000
0000
0000
0000
0000
0000
0000
0000
0010
0000
0000
0000
0000
0000
0000
0000
0000
0000
0000
0000
0100
0000
0000
0000
0000
0000
0000
0000
0000
0000
0000
0000
0001
0000
0000
0000
0000
0000
0000
0000
0000
0000
0000
0000
0000
0000
0000
0000
0000
0000
0000
0000
0000
0000
0000
0000
2002
0000
0000
0000
3003
0000
0000
0000
0000
0000
0000
0000
0000
0000
0000
0000
0000
0000
0000
0000
0000
0000
0000
0000
2002
0000
3003
0000
0000
0000
0000
0000
0000
0000
0000
0000
0000
0000
0000
0000
0000
0000
0000
0000
0000
0000
0000
0000
0100
0000
0000
0000
0000
0000
0000
0000
0000
0000
0000
0000
0010
0000
0000
0000
0000
0000
0000
0000
0000
0000
0000
0000
,  // measure 21
1000
0001
0100
0010
1000
0001
0100
0010
1000
0000
0110
0000
1000
0000
0110
0000
,  // measure 22
0100
0000
0220
0330
0000
0000
1001
0000
0000
0000
0110
0000
0000
0000
1000
0000
,  // measure 23
0200
0000
1300
0100
0010
2000
0010
3001
,  // measure 24
0200
0000
0310
1000
0010
2002
0000
3003
,  // measure 25
0220
0000
0000
1330
0100
1010
0001
0100
,  // measure 26
0202
0000
0000
0000
0000
0000
0000
0000
0000
0000
0000
0000
0303
0000
0000
0000
0000
0000
1000
0000
0000
0010
0000
0000
0100
0000
0000
0000
0000
0000
2200
3300
0000
0000
0000
0000
0220
0330
0000
0000
0000
0000
2002
3003
0000
0000
0000
0000
,  // measure 27
0022
0033
0000
0000
0000
0000
0000
0000
0000
0000
0000
0000
0100
0000
0000
0001
0000
0000
1000
0000
0000
0000
0000
0000
0000
0000
0000
0000
0000
0000
0022
0033
0000
0000
0000
0000
2002
3003
0000
0000
0000
0000
0220
0330
0000
0000
0000
0000
,  // measure 28
2200
3300
0000
0000
0000
0000
0000
0000
0000
0000
0000
0000
0100
0000
0000
1000
0000
0000
0010
0000
0000
0000
0000
0000
0100
0000
0000
0000
0000
0000
0220
0330
0000
0000
0000
0000
2002
3003
0000
0000
0000
0000
2200
3300
0000
0000
0000
0000
,  // measure 29
0022
0033
0000
0000
0000
0000
0110
0000
0000
0000
0000
0000
0002
0000
0000
0000
0000
0000
1003
0000
0000
0100
0000
0000
0001
0000
0000
0000
0000
0000
0110
0000
0000
0000
0000
0000
1000
0000
0000
0000
0000
0000
0001
0000
0000
0000
0000
0000
,  // measure 30
0220
0000
0000
0000
0000
0000
0000
0000
0000
0000
0000
0000
0000
0000
0000
0000
0000
0000
0000
0000
0000
0000
0000
0000
0000
0330
0000
0000
0000
0000
0000
0000
0000
0000
0000
0000
0000
0000
0000
0000
0000
0000
0000
0000
0000
0000
0000
0000
0000
0000
0000
0000
0000
0000
0000
0000
0000
0000
0000
0000
0000
0000
0000
0000
0000
0000
0000
0000
0000
0000
0000
0000
1000
0000
0000
0000
0000
0000
0000
0000
0000
0000
0000
0000
0100
0000
0000
0000
0000
0000
0000
0000
0000
0000
0000
0000
0001
0000
0000
0000
0000
0000
0000
0000
0000
0000
0000
0000
0000
0000
0000
0000
0000
0000
0000
0000
0000
0000
0000
0000
0100
0000
0000
0000
0000
0000
0000
0000
0000
0000
0000
0000
0000
0000
0000
0000
0000
0000
0000
0000
0000
0000
0000
0000
0010
0000
0000
0000
0000
0000
0000
0000
0000
0000
0000
0000
0000
0000
0000
0000
0000
0000
0000
0000
0000
0000
0000
0000
0100
0000
0000
0000
0000
0000
0000
0000
0000
0000
0000
0000
0000
0000
0000
0000
0000
0000
0000
0000
0000
0000
0000
0000
,  // measure 31
2002
0000
3003
0000
0000
0000
0001
0010
1000
0000
0001
0000
0010
0000
0100
0000
,  // measure 32
1001
0000
1001
0100
0000
1000
0100
0010
,  // measure 33
1001
0000
0000
0000
0000
0000
0100
1000
0010
0000
1000
0000
0001
0000
0100
0000
,  // measure 34
1001
0000
0000
0000
0000
0000
1000
0100
0010
0000
0001
0000
1000
0000
0010
0000
,  // measure 35
2000
3002
0203
0320
,  // measure 36
2030
0000
3002
0203
0000
0000
0000
0000
,  // measure 37
0020
0000
0000
0000
0330
0000
0001
0100
1000
0000
0100
0000
0010
0000
0001
0000
,  // measure 38
1001
0000
0000
0000
0000
0000
0001
0010
1000
0000
1000
0000
0100
0000
0010
0000
,  // measure 39
1001
0000
0000
0000
0000
0000
1000
0100
0001
0000
0001
0000
0010
0000
0100
0000
,  // measure 40
1001
0000
0100
0110
0000
1000
0100
0010
,  // measure 41
1001
0000
0000
1000
0100
0010
0001
0100
,  // measure 42
0110
1000
0100
1000
0100
0010
0100
0010
,  // measure 43
0100
0001
0100
0010
0100
0001
1000
0100
,  // measure 44
0010
0000
0001
0000
0010
0100
2000
0000
0000
0000
0000
0000
0000
0000
0000
0000
,  // measure 45
0020
0000
0000
0000
0000
0000
0000
0000
0000
0000
0000
0000
3030
0000
0001
0010
,  // measure 46
1000
0100
1000
0100
0010
1000
0001
2000
,  // measure 47
0000
3010
0100
0001
1000
0010
0100
1000
,  // measure 48
1001
2002
0000
3003
0220
0000
0330
1000
,  // measure 49
0000
0100
0010
1000
0002
0000
0000
0000
,  // measure 50
1003
0010
0100
0002
0000
1003
0100
0020
,  // measure 51
0000
0031
0200
0000
0320
0000
0000
0000
,  // measure 52
1030
0100
0010
0002
0000
1003
0010
2000
,  // measure 53
0000
3100
0001
0000
0200
0000
0000
0000
,  // measure 54
0310
1000
0001
0200
0000
0310
1000
2000
,  // measure 55
3000
0001
0020
0000
0032
0000
0000
0000
,  // measure 56
1003
0010
0010
0002
0000
1003
0010
0200
,  // measure 57
0000
0310
2000
0000
3200
0000
0000
0000
,  // measure 58
0310
1000
0001
0200
0000
1300
0010
2000
,  // measure 59
0000
3001
0200
0000
0320
0000
0000
0000
,  // measure 60
1030
0000
0000
0000
0000
0000
0100
0000
0000
0000
0000
0000
1000
0000
0000
0000
0000
0000
0100
0000
0000
0000
0000
0000
0020
0030
0000
0000
0000
0000
1000
0000
0000
0000
0000
0000
0100
0000
0000
0000
0000
0000
2002
0000
0000
0000
0000
0000
,  // measure 61
0000
0000
0000
3003
;

//---------------dance-single - ----------------
#NOTES:
     dance-single:
     :
     Medium:
     11:
     0.527,0.506,0.476,0.011,0.000:
0000
0000
0000
0000
0000
1000
0001
0100
,
0010
1000
0001
0100
0000
1000
0100
0010
,
0000
1000
0001
0100
0000
0010
1000
0010
,
0000
0100
0001
0100
0000
1010
0000
0000
,
0000
0101
0000
0000
1010
0000
0000
0110
,
0000
0110
0000
0000
0000
1000
0100
0010
,
0001
0000
0100
0010
0100
0000
1000
0100
,
0000
0110
0000
0000
0000
0001
0010
0100
,
0001
0000
1000
0010
0100
0000
1000
0010
,
0000
0101
0000
1010
0000
0100
1000
0100
,
0010
0000
0100
0010
0100
0000
0001
0010
,
0000
0100
0000
0000
0000
1000
0000
0100
,
0000
0010
1000
0000
0001
2000
0000
0000
,
0000
0000
3000
0000
0000
0001
1000
0000
,
0000
0000
0000
0000
0000
1000
0010
0100
,
0000
0000
0000
0000
0000
1000
0010
0100
,
0000
0001
0000
0100
0000
1000
0100
0010
,
0001
1000
0000
0010
0000
1000
0001
0100
,
0000
0010
0000
1000
0000
0010
1000
0001
,
0000
0100
0000
0010
0000
1000
0100
0010
,
0000
0100
0000
0010
0000
1000
0100
0010
,
0001
1000
0000
0010
0000
1001
0000
0100
,
0010
0000
1000
0100
0010
1001
0000
0000
,
0110
0000
0000
0001
0000
0011
0000
0100
,
0110
0000
1000
0100
0010
0110
0000
0000
,
0101
0000
0000
0000
0000
1000
0001
0100
,
0010
0000
1000
0010
0000
1000
0001
0100
,
0010
0000
1000
0100
0010
1000
0001
0100
,
0010
1000
0100
0000
1000
0000
0010
0100
,
0001
0000
1100
1000
0100
0010
0001
0100
,
0010
0000
0110
0000
1000
0100
0010
0001
,
1001
0000
0110
0000
0010
0100
0010
1000
,
0001
0000
0100
0000
1000
0100
0010
0001
,
1001
0000
1000
0100
0010
0100
0001
0100
,
0101
1000
1010
0100
,
0110
0000
1000
0100
0010
0000
0100
0000
,
1001
0000
0100
0000
0100
0010
1000
0010
,
0100
0000
0001
0000
1000
0100
0010
0001
,
1001
0000
0100
0000
0010
0100
0001
0100
,
1010
0000
0100
0000
0010
0100
0010
0000
,
1001
0000
0100
0000
0010
0100
0010
0000
,
1001
0000
0110
0000
1000
0100
0010
0000
,
0101
0000
0110
0000
1000
0100
0010
0000
,
1001
0000
0110
0000
1000
0100
0010
0000
,
1001
0000
1001
0000
0100
0010
0100
0000
,
1000
0100
0010
0000
1000
0001
0100
0000
,
0010
1000
0010
0000
0100
0000
0010
0000
,
1000
0001
0000
0000
0110
0000
0000
1001
,
0000
0100
0010
1000
0001
0000
0100
0000
,
1000
0000
0100
0000
0000
1000
0100
0010
,
0000
0001
0010
0000
0100
0000
1001
0000
,
1000
0100
0010
0000
1000
0000
0001
0000
,
1000
0101
0010
0011
,
0100
0010
0100
0000
1000
0000
0110
0000
,
1000
0100
0010
0000
0101
0000
0110
0000
,
1000
0000
0100
0000
0010
1000
0010
0000
,
0101
0000
0110
0000
1000
0100
0010
0000
,
1000
0100
0010
0000
0001
0010
0100
0000
,
0010
1000
0010
0000
0100
0000
0001
0000
,
1000
0001
0100
0010
1000
0010
0100
0001
;

//---------------dance-single - ----------------
#NOTES:
     dance-single:
     :
     Beginner:
     2:
     0.110,0.157,0.021,0.000,0.000:
0000
0000
0000
0000
,
0000
0000
0000
0000
0000
1000
0000
0000
,
0000
1000
0000
0000
0000
0000
0000
0000
,
0000
0000
0000
0000
0000
0001
0000
0000
,
0000
1001
0000
0000
0000
0000
0000
0000
,
0000
1000
0000
0000
0000
0001
0000
0000
,
0000
0000
0000
0000
0000
0001
0000
0000
,
0000
0000
0000
0000
0000
1000
0000
0000
,
0000
0000
0000
0000
0000
1000
0000
0000
,
0000
0000
0000
0000
0000
0001
0000
0000
,
0000
0000
0000
0000
0000
0001
0000
0000
,
0000
0000
0000
0000
0000
1000
0000
0000
,
0000
0000
0000
0000
0000
0001
0000
0000
,
0000
0000
0000
0000
0000
1000
0000
0000
,
0000
0000
0000
0000
0000
1000
0000
0000
,
0000
0000
0000
0000
0000
0001
0000
0000
,
0000
0000
0000
0000
0000
0001
0000
0000
,
0000
1000
0000
0000
0000
0001
0000
0000
,
0000
0000
0000
0000
0000
0001
0000
0000
,
0000
0000
0000
0000
0000
0001
0000
0000
,
0000
0000
0000
0000
0000
1000
0000
0000
,
0000
1000
0000
0000
0000
0010
0000
0000
,
0000
0000
0000
0000
0000
0010
0000
0000
,
0000
0000
0000
0000
0000
1000
0000
0000
,
0000
0000
0000
0000
0000
0001
0000
0000
,
0000
0000
0000
0000
0000
1000
0000
0000
,
1000
0000
0000
0000
0000
0010
0000
0000
,
0010
0000
0000
0000
0000
0001
0000
0000
,
0000
1000
0000
0000
0000
0000
0000
0000
,
0010
0000
0000
0000
,
0010
0000
0000
0000
,
1000
0000
0000
0000
,
1000
0000
0000
0010
,
0010
0000
0000
0000
,
0001
0000
0000
0000
,
1000
0000
0000
0000
,
0010
0000
0000
0000
,
0001
0000
0000
0000
,
0100
0000
0000
0000
,
0010
0000
0000
1000
,
1000
0000
0000
0001
,
0001
0000
0000
0010
,
0010
0000
0000
0000
,
1000
0000
0000
0000
,
1001
0000
0000
0000
,
0100
0000
0000
0000
,
0010
0000
0000
0000
,
0001
0000
1000
0000
,
0000
0000
0000
0100
,
0100
0000
0000
0000
,
0010
0000
0010
0000
,
1000
0000
0000
0000
,
0001
0000
0000
0000
,
1000
0000
0000
0000
,
0010
0000
0000
0000
,
1000
0000
0000
0000
,
0001
0000
0000
0000
,
1000
0000
0000
0000
,
0100
0000
0000
0000
,
1000
0000
0001
0000
;

//---------------dance-single - Copied from----------------
#NOTES:
     dance-single:
     Copied from:
     Challenge:
     18:
     1.000,1.000,1.000,1.000,0.370:
0000
0000
0000
0000
0000
0000
0000
0000
0000
0000
1000
0100
0001
1000
0001
1000
,
0010
0100
1000
0100
0001
0100
0010
1000
0001
1000
0010
0001
1000
0000
1001
0000
,
0110
0110
0011
1100
0110
0000
1001
0110
,
0110
0000
1100
0000
0110
0000
0101
0000
0001
1000
1001
0000
1001
0000
0000
0000
,
0000
0220
0000
0000
0330
0000
0001
0010
,
0100
1010
0000
0110
0000
0101
0011
0110
,
2200
0000
0000
0300
3001
0100
1000
0100
0020
0000
0000
0000
1030
0000
0002
0000
,
0000
0000
0203
0000
0000
0000
0320
0000
0000
0000
1030
0100
0001
0010
0100
1000
,
0020
0000
1030
0001
0200
0000
0310
1000
,
0000
0000
0002
0000
0100
0000
0103
0000
0000
0000
0010
0100
1000
0100
0010
0001
,
0200
0000
0301
1000
0020
0000
0130
0002
,
0000
2003
0000
0000
0000
3010
0010
0100
,
0100
0010
0110
0000
2002
0000
0000
0000
,
0000
3003
0000
0000
0000
0000
0000
0000
0000
0000
0000
0000
0000
0000
0000
0000
0000
0000
0000
0000
0000
0000
0000
0000
0001
0000
0000
0000
0000
0000
0000
0000
0000
0000
0000
0000
0000
0000
0000
0000
0000
0000
0000
0000
0000
0000
0000
0000
0010
0000
0000
0000
0000
0000
0000
0000
0000
0000
0000
0000
0000
0000
0000
0000
0000
0000
0000
0000
0000
0000
0000
0000
0100
0000
0000
0000
0000
0000
0000
0000
0000
0000
0000
0000
0000
0000
0000
0000
0000
0000
0000
0000
0000
0000
0000
0000
1000
0000
0000
0000
0000
0000
0000
0000
0000
0000
0000
0000
0000
0000
0000
0000
0000
0000
0000
0000
0000
0000
0000
0000
2002
0000
0000
0000
3003
0000
0000
0000
0000
0000
0000
0000
0000
0000
0000
0000
0000
0000
0000
0000
0000
0000
0000
0000
2002
0000
0000
0000
3003
0000
0000
0000
0000
0000
0000
0000
0000
0000
0000
0000
0000
0000
0000
0000
0000
0000
0000
0000
1000
0000
0000
0000
0000
0000
0000
0000
0000
0000
0000
0000
0010
0000
0000
0000
0000
0000
0000
0000
0000
0000
0000
0000
,
0100
0000
0000
0001
0000
0000
0010
0000
0000
0100
0000
0000
1000
0000
0000
0010
0000
0000
0100
0000
0000
1000
0000
0000
0001
0000
0000
0000
0000
0000
2002
3003
0000
0000
0000
0000
2002
3003
0000
0000
0000
0000
0001
0000
0000
0010
0000
0000
,
0100
0000
0000
0001
0000
0000
0010
0000
0000
0100
0000
0000
0010
0000
0000
0001
0000
0000
0010
0000
0000
0100
0000
0000
1000
0000
0000
0000
0000
0000
0220
0330
0000
0000
0000
0000
0220
0330
0000
0000
0000
0000
0010
0000
0000
0001
0000
0000
,
0010
0001
0010
0100
0010
0100
1000
0100
1000
0000
0011
0000
0010
0000
0110
0000
,
0100
0000
0000
0000
0000
0000
1100
0000
0000
0000
0000
0000
0100
0000
0000
0000
0000
0000
0110
0000
0000
0000
0000
0000
0001
0000
0000
0000
0000
0000
0220
0330
0000
0000
0000
0000
0220
0330
0000
0000
0000
0000
0001
0000
0000
1000
0000
0000
,
0100
0000
0000
0010
0000
0000
0001
0000
0000
0100
0000
0000
0010
0000
0000
0100
0000
0000
0001
0000
0000
1000
0000
0000
0010
0000
0000
0000
0000
0000
0220
0330
0000
0000
0000
0000
0220
0330
0000
0000
0000
0000
0001
0000
0000
0010
0000
0000
,
1000
0000
0000
0000
0000
0000
0000
0000
0000
0000
0000
0000
0010
0000
0000
0000
0000
0000
0000
0000
0000
0000
0000
0000
0100
0000
0000
0000
0000
0000
0000
0000
0000
0000
0000
0000
0001
0000
0000
0000
0000
0000
0000
0000
0000
0000
0000
0000
1000
0000
0000
0000
0000
0000
0000
0000
0000
0000
0000
0000
0010
0000
0000
0000
0000
0000
0000
0000
0000
0000
0000
0000
0100
0000
0000
0000
0000
0000
0000
0000
0000
0000
0000
0000
0010
0000
0000
0000
0000
0000
0000
0000
0000
0000
0000
0000
1000
0000
0000
0000
0000
0000
0000
0000
0000
0000
0000
0000
0000
0000
0000
0000
0000
0000
0000
0000
0000
0000
0000
0000
2002
0000
0000
0000
3003
0000
0000
0000
0000
0000
0000
0000
0000
0000
0000
0000
0000
0000
0000
0000
0000
0000
0000
0000
2002
0000
3003
0000
0000
0000
0000
0000
0000
0000
0000
0000
0000
0000
0000
0000
0000
0000
0000
0000
0000
0000
0000
0000
0010
0000
0000
0000
0000
0000
0000
0000
0000
0000
0000
0000
0100
0000
0000
0000
0000
0000
0000
0000
0000
0000
0000
0000
,
0001
1000
0010
0100
0001
1000
0010
0100
0001
0000
0110
0000
0001
0000
0110
0000
,
0010
0000
0220
0330
0000
0000
1001
0000
0000
0000
0110
0000
0000
0000
0001
0000
,
0020
0000
0031
0010
0100
0002
0100
1003
,
0020
0000
0000
0000
0130
0000
0001
0000
0100
0010
2002
0000
0000
0000
3003
0000
,
0220
0000
0000
0000
0000
0000
0331
0000
0010
0000
0101
0000
1000
0000
0010
0100
,
2020
0000
0000
0000
0000
0000
0000
0000
0000
0000
0000
0000
3030
0000
0000
0000
0000
0000
0001
0000
0000
0100
0000
0000
0010
0000
0000
0000
0000
0000
0022
0033
0000
0000
0000
0000
0220
0330
0000
0000
0000
0000
2002
3003
0000
0000
0000
0000
,
2200
3300
0000
0000
0000
0000
0000
0000
0000
0000
0000
0000
0010
0000
0000
1000
0000
0000
0001
0000
0000
0100
0000
0000
0010
0000
0000
1000
0000
0000
2200
3300
0000
0000
0000
0000
2002
3003
0000
0000
0000
0000
0220
0330
0000
0000
0000
0000
,
0022
0033
0000
0000
0000
0000
0000
0000
0000
0000
0000
0000
0010
0000
0000
0001
0000
0000
0100
0000
0000
0000
0000
0000
0010
0000
0000
0000
0000
0000
0220
0330
0000
0000
0000
0000
2002
3003
0000
0000
0000
0000
0022
0033
0000
0000
0000
0000
,
2200
3300
0000
0000
0000
0000
0110
0000
0000
0000
0000
0000
2000
0000
0000
0000
0000
0000
3001
0000
0000
0010
0000
0000
1000
0000
0000
0000
0000
0000
0110
0000
0000
0000
0000
0000
0001
0000
0000
0000
0000
0000
1000
0000
0000
0000
0000
0000
,
0220
0000
0000
0000
0000
0000
0000
0000
0000
0000
0000
0000
0000
0000
0000
0000
0000
0000
0000
0000
0000
0000
0000
0000
0000
0330
0000
0000
0000
0000
0000
0000
0000
0000
0000
0000
0000
0000
0000
0000
0000
0000
0000
0000
0000
0000
0000
0000
0000
0000
0000
0000
0000
0000
0000
0000
0000
0000
0000
0000
0000
0000
0000
0000
0000
0000
0000
0000
0000
0000
0000
0000
0001
0000
0000
0000
0000
0000
0000
0000
0000
0000
0000
0000
0010
0000
0000
0000
0000
0000
0000
0000
0000
0000
0000
0000
1000
0000
0000
0000
0000
0000
0000
0000
0000
0000
0000
0000
0000
0000
0000
0000
0000
0000
0000
0000
0000
0000
0000
0000
0010
0000
0000
0000
0000
0000
0000
0000
0000
0000
0000
0000
0000
0000
0000
0000
0000
0000
0000
0000
0000
0000
0000
0000
0100
0000
0000
0000
0000
0000
0000
0000
0000
0000
0000
0000
0000
0000
0000
0000
0000
0000
0000
0000
0000
0000
0000
0000
0010
0000
0000
0000
0000
0000
0000
0000
0000
0000
0000
0000
0000
0000
0000
0000
0000
0000
0000
0000
0000
0000
0000
0000
,
2002
0000
3003
0000
0000
0000
1000
0100
0001
0000
1000
0000
0100
0000
0010
0000
,
1001
0000
1001
0010
0000
0001
0010
0100
,
1001
0000
0000
0000
0000
0000
0010
0001
0100
0000
0001
0000
1000
0000
0010
0000
,
1001
0000
0000
0000
0000
0000
0001
0010
0100
0000
1000
0000
0001
0000
0100
0000
,
0002
1000
2003
0010
3020
1000
0230
0010
,
0302
0010
2003
3020
0000
0000
0000
0000
,
0200
0000
0000
0000
0330
0000
1000
0010
0001
0000
0010
0000
0100
0000
1000
0100
,
1002
0000
0000
0000
0000
0000
1003
0100
0001
0000
0001
0000
0010
0000
0100
0010
,
2001
0000
0000
0000
0000
0000
3001
0010
1000
0000
1000
0000
0100
0000
0010
0000
,
1001
0000
0010
0110
0000
0001
0010
0100
,
1001
0000
0000
0001
0010
0100
1000
0010
,
0210
0001
0010
0302
0010
0100
0010
0203
,
0010
1300
0002
0100
0013
1000
0001
0010
,
0100
0000
1000
0000
0100
0010
0002
0000
0000
0000
0000
0000
0000
0000
0000
0000
,
0200
0000
0000
0000
0000
0000
0000
0000
0000
0000
0000
0000
0303
0000
1000
0100
,
0001
0010
0001
0010
0100
0001
1000
0002
,
0000
0000
0103
0000
0010
0000
1000
0000
0001
0000
0100
0000
0010
0000
0001
0100
,
1001
2002
0000
3003
0220
0000
0330
0001
,
0000
1010
0110
0011
2000
0000
0000
0000
,
3001
0000
0110
0000
0011
0100
2000
0000
0000
0000
3001
0000
0110
0000
0201
0000
,
0000
1300
0020
0000
0230
0000
0000
0000
,
0301
0000
1010
0000
0100
0010
2000
0000
0000
0000
3001
0000
0100
0000
0002
0000
,
0000
0013
1100
0110
0021
0000
0000
0000
,
0130
0001
1000
0020
0000
0130
0001
0002
,
0003
1000
0200
0000
2300
0000
0000
0000
,
3001
0100
0100
2000
0000
3001
0100
0020
,
0000
0130
0002
0000
0023
0100
0100
0100
,
0130
0001
1000
0020
0000
0031
0100
0002
,
0000
1003
0020
0000
0230
0000
0000
0000
,
0002
0303
0000
0000
0220
0330
0000
0000
2002
3003
0000
0000
0220
0330
0000
0000
0220
0330
0000
0000
1001
0000
0000
0000
0110
0000
0000
0000
2002
0000
0000
0000
,
0000
0000
0000
3003
;
