#TITLE:Go Beyond!!;
#SUBTITLE:;
#ARTIST:Ryu vs. Sota;
#TITLETRANSLIT:;
#SUBTITLETRANSLIT:;
#ARTISTTRANSLIT:;
#CREDIT:;
#BANNER:Go Beyond!!.png;
#BACKGROUND:Go Beyond!!-bg.png;
#LYRICSPATH:;
#CDTITLE:;
#MUSIC:Go Beyond!!.mp3;
#OFFSET:0.000;
#SAMPLESTART:100.030;
#SAMPLELENGTH:12.000;
#SELECTABLE:YES;
#BPMS:0.000=200.000,100.000=100.000,156.000=200.000,284.000=100.000;
#STOPS:1.000=0.300
;
#BGCHANGES:;

//---------------dance-single - ----------------
#NOTES:
     dance-single:
     :
     Hard:
     17:
     0.844,0.920,0.585,0.727,0.359: // measure 1
0000
0000
0000
0000
,  // measure 2
0000
0000
0000
0000
,  // measure 3
0000
0000
0000
0000
,  // measure 4
0000
0000
0000
0000
,  // measure 5
0000
0000
0000
0000
,  // measure 6
1010
0010
0100
0100
0010
0010
0010
0100
,  // measure 7
0110
0000
0100
0010
0000
0000
0110
0000
1020
0000
0000
0000
0000
0000
0030
0000
,  // measure 8
0110
0010
0100
0100
0110
0110
0110
0110
,  // measure 9
1000
0001
0000
0001
0100
0000
0001
0000
0100
0000
0010
0000
0010
1000
0010
1000
,  // measure 10
1010
0100
0010
0100
0010
0010
0100
0010
,  // measure 11
0100
0010
0100
0010
0100
0001
0100
0001
,  // measure 12
1001
0100
0010
0100
0010
0100
0010
0100
,  // measure 13
1001
1001
0000
1001
0000
1001
1001
1001
,  // measure 14
1001
0010
0100
0010
0100
0010
0100
0010
,  // measure 15
0101
0010
1000
0100
0010
0100
0010
1000
,  // measure 16
1010
0100
0010
0100
0101
1000
0010
0100
,  // measure 17
0002
0100
0100
0100
0100
0100
0100
0103
,  // measure 18
0101
0100
0010
0010
0100
0100
0001
0001
,  // measure 19
0210
0310
0120
0130
2001
3001
1002
1003
,  // measure 20
0010
0010
0100
0100
0001
0001
0001
0001
,  // measure 21
1000
0000
0100
0000
0010
0000
0001
0010
0200
0000
0000
0000
0000
0000
0300
0000
,  // measure 22
0110
0010
1010
1000
1010
1010
1000
1010
,  // measure 23
1010
1010
0000
1000
1001
1001
1001
1001
,  // measure 24
0100
0010
0200
0300
0010
0001
0020
0000
,  // measure 25
0000
0000
0000
0000
1000
1000
1030
0000
,  // measure 26
2002
3000
0200
0003
0020
0300
2000
0030
,  // measure 27
0002
3000
0100
0000
0100
0000
0200
0003
,  // measure 28
0020
0300
2000
0030
0002
3000
0200
0003
,  // measure 29
0020
0300
1000
0000
1000
0000
2000
0030
,  // measure 30
0002
3000
0200
0003
0020
0300
0200
0030
,  // measure 31
0002
0300
0100
0000
0100
0000
2000
0003
,  // measure 32
0020
3000
0200
0030
0020
0300
2000
0030
,  // measure 33
0002
3000
0100
0000
0100
0000
0200
0303
,  // measure 34
2002
0000
3000
0000
0103
0010
0100
0000
0010
0100
0010
0000
2002
0000
0003
0000
,  // measure 35
0002
0000
3000
0000
0103
0010
0100
0000
0010
0100
0010
0000
2002
0000
3000
0000
,  // measure 36
2000
0003
0002
3000
2000
0003
0002
3000
,  // measure 37
0200
0003
0020
0300
0200
0030
0020
0300
,  // measure 38
1030
0100
0010
0001
1000
0001
0010
0100
1000
0100
0010
0000
1001
0000
0000
0000
,  // measure 39
1000
0000
0000
0000
1000
0100
0010
0001
0100
0000
0100
0000
0100
0000
0100
0000
,  // measure 40
0100
1000
0100
0000
0010
0100
0010
0000
0010
0001
0010
0000
0100
0010
0100
0000
,  // measure 41
1000
0100
1000
0000
0010
0100
0010
0000
0100
0010
0100
0000
0001
0010
0001
0000
,  // measure 42
1000
0100
1000
0000
0100
0010
0100
0000
0010
0100
0010
0000
0001
0010
0001
0000
,  // measure 43
0010
0100
0010
0000
0100
0010
0100
0000
1000
0100
1000
0000
0100
0010
0100
0000
,  // measure 44
0110
0100
0010
0000
0001
0010
0001
0000
0010
0100
0010
0000
0100
0010
0100
0000
,  // measure 45
1000
0100
1000
0000
0100
0010
0100
0000
0010
0100
0010
0000
0001
0010
0001
0000
,  // measure 46
0001
1000
0001
0000
1000
0001
1000
0000
0100
0010
0100
0000
0010
0100
0010
0000
,  // measure 47
0010
0100
0010
0100
1000
0100
0010
0001
0010
0100
1000
0100
0010
0001
0010
0100
,  // measure 48
1000
0100
0010
0000
0001
0010
0100
0000
1000
0010
0100
0000
0001
0100
0010
0000
,  // measure 49
1000
0001
0100
0000
0001
1000
0100
0000
1000
0001
0010
0000
0001
1000
0010
0000
,  // measure 50
1000
0100
0001
0000
0001
0100
1000
0000
1000
0010
0001
0000
0001
0010
1000
0000
,  // measure 51
1000
0010
1000
0000
0001
0100
0001
0000
1000
0100
1000
0000
0100
0010
0100
0000
,  // measure 52
0110
0100
0010
0000
0001
0010
0001
0000
0010
0100
0010
0000
0100
0010
0100
0000
,  // measure 53
1100
0100
1000
0000
0100
1000
0100
0000
0010
0100
0010
0000
0010
0100
0010
0000
,  // measure 54
0011
0010
0001
0000
0100
0000
0010
0000
0110
0000
0100
0000
0010
0000
0100
0000
,  // measure 55
0001
0100
0001
0100
0001
0100
0001
0100
0001
0100
0001
0100
0001
0100
0001
0100
,  // measure 56
2000
0100
0100
3100
0210
0010
0010
0310
,  // measure 57
0120
0100
0100
0130
0012
0010
0010
0013
,  // measure 58
0200
0010
0010
0010
,  // measure 59
0302
0000
0100
0000
0100
0000
0103
0010
,  // measure 60
0002
0010
0010
0013
0020
0100
0100
0130
,  // measure 61
0200
0010
0010
0310
2000
0100
0100
0100
,  // measure 62
3200
0010
0010
0310
2000
0010
0010
3010
,  // measure 63
0002
0100
0100
0103
0210
0010
0010
0310
,  // measure 64
1002
1000
1000
1003
0210
0010
0010
0310
,  // measure 65
0120
0100
0100
0130
2001
0001
0001
3001
,  // measure 66
2000
0010
0010
3010
0002
0100
0100
0103
,  // measure 67
0200
0001
0001
0301
0002
0100
0100
0103
,  // measure 68
1010
1000
1010
0100
0110
0110
0010
0110
,  // measure 69
0110
0110
0010
0101
0001
0101
0010
0100
,  // measure 70
1100
0010
0002
0003
1010
0010
0200
0000
,  // measure 71
0000
0000
0000
0000
0020
0000
0000
0300
,  // measure 72
2000
0030
0000
0000
0100
0000
0100
0000
0100
0000
3000
0000
0102
0000
0000
0000
,  // measure 73
2000
3000
0100
0100
0100
0003
0220
0300
,  // measure 74
0002
0030
0000
0000
0200
0003
0020
0300
2000
0030
0000
3000
0220
0000
0000
0330
,  // measure 75
0022
0000
0000
0000
,  // measure 76
0000
0000
0000
0000
,  // measure 77
0033
0000
0000
0000
;

//---------------dance-single - ----------------
#NOTES:
     dance-single:
     :
     Medium:
     14:
     0.652,0.730,0.459,0.635,0.050:
0000
0000
0000
0000
,
0000
0000
0000
0000
,
0000
0000
0000
0000
,
0000
0000
0000
0000
,
0000
0000
0000
0000
,
1010
0010
0100
0000
0010
0010
0010
0000
,
0110
0000
0000
0010
0000
0000
0110
0000
1020
0000
0000
0000
0000
0000
0030
0000
,
0110
0010
0100
0000
0110
0110
0000
0110
,
1000
0000
0000
0001
0000
0000
0001
0000
0100
0000
0010
0000
0000
0000
0010
0000
,
1000
0100
0010
0100
0010
0010
0000
0010
,
0100
0010
0100
0010
0000
0001
0100
0001
,
1000
0000
0010
0000
0010
0100
0010
0100
,
1000
0001
0000
1001
0000
1000
0001
1000
,
0001
0010
0100
0010
0100
0100
0000
0010
,
0001
0010
1000
0100
0000
0100
0010
0000
,
1010
0000
0010
0000
0101
0000
0010
0100
,
1000
0100
0100
0010
0010
0001
0001
0010
,
0010
0100
0010
0010
0100
0100
0001
0001
,
0210
0300
0120
0030
2001
3000
1002
0003
,
0010
0010
0100
0100
0001
0001
0100
0100
,
1000
0000
0010
0001
0200
0000
0000
0300
,
0110
0000
1010
0000
1010
1010
0000
1010
,
1010
1010
0000
1001
0000
1001
1001
1001
,
0100
0010
0200
0300
0010
0001
0020
0000
,
0000
0000
0000
0000
1030
0100
0001
0000
,
1002
0203
0320
2030
,
3002
0103
0010
0200
,
0320
2030
3002
0203
,
0320
1030
0001
2000
,
3002
0203
0320
0230
,
0302
0103
0010
2000
,
3020
0230
0320
2030
,
3002
0000
0103
0000
0001
0000
0200
0300
,
1002
0000
0103
0100
0010
0010
2001
0000
,
3002
0000
0103
0100
0010
0010
1002
0000
,
2003
3002
2003
3002
,
0203
0000
0000
0000
,
1300
0100
0010
0001
1000
0000
0010
0100
1000
0100
0010
0000
0001
0000
0000
0000
,
1000
0000
0000
0000
1000
0100
0010
0001
0100
0000
0000
0000
0100
0000
0000
0000
,
0100
0100
0010
0010
0010
0010
0100
0100
,
1000
1000
0010
0010
0100
0100
0001
0001
,
1000
1000
0100
0100
0010
0010
0001
0001
,
0010
0010
0100
0100
1000
1000
0100
0100
,
0110
0010
0001
0001
0010
0010
0100
0100
,
1000
1000
0100
0100
0010
0010
0001
0001
,
0001
0001
1000
1000
0100
0100
0010
0010
,
0010
0010
0010
0100
0100
1000
1000
0001
,
0001
0001
0001
0100
1000
0100
0001
0010
,
1000
0100
0001
0100
1000
0010
0001
0010
,
1000
0001
0001
1000
1000
0001
0001
1000
,
1000
1000
0001
0001
1000
1000
0100
0100
,
0110
0010
0001
0001
0010
0010
0100
0100
,
1100
1000
0100
0100
0010
0010
0010
0010
,
0011
0001
0100
0010
0110
0100
0010
0100
,
0001
0100
0001
0000
0001
0100
0001
0000
0001
0100
0001
0000
0001
0100
0001
0000
,
2000
0100
0000
3100
0210
0010
0000
0310
,
0120
0100
0000
0130
0012
0010
0000
0013
,
0200
0010
0000
0010
,
0302
0000
0100
0000
0000
0000
0103
0010
,
0002
0010
0000
0013
0020
0100
0000
0130
,
0200
0010
0000
0310
2000
0100
0000
0100
,
3200
0010
0000
0310
2000
0010
0000
3010
,
0002
0100
0000
0103
0210
0010
0000
0310
,
1002
1000
0000
1003
0210
0010
0000
0310
,
0120
0100
0000
0130
2001
0001
0000
3001
,
2000
0010
0000
3010
0002
0100
0000
0103
,
0200
0001
0000
0301
0002
0100
0000
0103
,
1010
0000
1010
0000
0110
0110
0000
0110
,
0110
0110
0000
0101
0000
0101
0010
0100
,
1100
0010
0002
0003
1010
0010
0200
0000
,
0000
0000
0000
0000
0020
0000
0000
0300
,
2030
0100
3100
0102
,
2003
0100
3200
0320
,
0032
0203
2300
3200
,
0302
0000
0000
0000
,
0000
0000
0000
0000
,
0003
0000
0000
0000
;

//---------------dance-single - ----------------
#NOTES:
     dance-single:
     :
     Easy:
     8:
     0.439,0.476,0.150,0.468,0.021:
0000
0000
0000
0000
,
0000
0000
0000
0000
,
0000
0000
0000
0000
,
0000
0000
0000
0000
,
0000
0000
0000
0000
,
1100
0000
0001
0000
1000
1000
1000
0000
,
1001
0000
0000
1000
0000
0000
0001
0000
2000
0000
0000
0000
0000
0000
3000
0000
,
1001
0000
0001
0000
1000
0001
0000
0001
,
0100
0000
0000
0010
0000
0000
0010
0000
0001
0000
1000
0000
0000
0000
1000
0000
,
0100
0001
0000
0001
1000
1000
0000
1000
,
0001
1000
0000
1000
0000
0010
0001
0010
,
0100
0000
1000
0000
1000
0001
1000
0000
,
0100
0010
0000
0110
0000
0100
0010
0000
,
0010
1000
0001
0000
0001
0001
0000
0000
,
0010
1000
0000
0001
0000
0001
1000
0000
,
1100
1000
0011
1000
,
0100
0001
0001
0000
1000
0010
0010
0000
,
1000
0001
1000
0000
0001
0001
0010
0000
,
0002
0003
2000
3000
0200
0300
0020
0030
,
1000
1000
0001
0000
0010
0010
0001
0000
,
0100
0000
1000
0000
0002
0000
0000
0003
,
1001
0000
1100
0000
0100
1000
0000
0100
,
1000
0100
0000
0110
0000
0100
0010
0100
,
0001
1000
0002
0003
1000
0010
2000
0000
,
0000
0000
0000
0000
3100
0001
0010
0000
,
0020
0031
2000
3100
,
0020
0031
0000
0002
,
1003
0200
0310
0002
,
1003
0000
0000
0200
,
0310
0002
1003
0002
,
0013
0000
0000
0200
,
1300
0002
1003
0200
,
0310
0000
0000
0002
,
0013
0001
1000
0200
,
0310
0001
1000
0020
,
0130
0200
0310
0020
,
0032
0000
0000
0000
,
0103
0001
1000
0000
0100
0000
1000
0001
0100
0000
1000
0000
0000
0000
0000
0000
,
0100
0000
0000
0000
0100
0001
1000
0000
0001
0000
0000
0000
0001
0000
0000
0000
,
0001
0001
1000
0000
1000
1000
0001
0000
,
0100
0100
1000
0000
0001
0001
0010
0000
,
0100
0100
0001
0000
1000
1000
0010
0000
,
1000
1000
0001
0000
0100
0100
0001
0000
,
1001
0000
0010
0000
1000
1000
0001
0000
,
0100
0100
0001
0000
1000
1000
0010
0000
,
0010
0010
0100
0100
0001
0001
1000
0000
,
1000
1000
1000
0001
0001
0100
0100
0010
,
0010
0000
0010
0000
0100
0001
0010
0000
,
0100
1000
0010
0000
0100
1000
0010
0000
,
0100
0010
0010
0000
0100
0010
0010
0000
,
0100
0100
0010
0000
0100
0100
0001
0000
,
1001
0000
0010
0000
1000
1000
0001
0000
,
0101
0000
0001
0000
1000
1000
1000
0000
,
1010
0010
0001
0000
1001
0001
1000
0000
,
0010
0010
0001
0001
0100
0100
1000
1000
,
0200
0000
0302
0000
,
2003
0000
3020
0000
,
0032
0000
0000
0000
,
0000
0003
0002
0000
,
0023
0000
2030
0000
,
3002
0000
0203
0000
,
0302
0000
0000
0000
,
0000
0003
0002
0000
,
0023
0000
0032
0000
,
2003
0000
3020
0000
,
0230
0000
0000
0000
,
0000
0000
0000
0000
0320
0000
0000
0030
,
1100
0000
1100
0000
1000
0001
0000
1000
,
0001
1000
0000
0011
0000
0011
0000
0100
,
0001
0001
0020
0000
0130
1000
0002
0000
,
0000
0000
0000
0000
2000
0000
0000
0003
,
3200
0000
0000
0000
0000
0300
0020
0000
,
0230
0000
0000
0000
0000
0300
2000
0000
,
3020
0032
0203
0302
,
0023
0000
0000
0000
,
0000
0000
0000
0000
,
0030
0000
0000
0000
;

//---------------dance-single - ----------------
#NOTES:
     dance-single:
     :
     Beginner:
     6:
     0.246,0.413,0.117,0.334,0.000:
0000
0000
0000
0000
,
0000
0000
0000
0000
,
0000
0000
0000
0000
,
0000
0000
0000
0000
,
0000
0000
0000
0000
,
1001
0001
1000
1000
,
1001
0000
1000
0000
,
1001
0001
1000
0000
,
0200
0000
0000
0000
,
0300
0000
1000
0000
,
0001
0000
0000
0001
,
0100
1000
1000
1000
,
0100
0000
0000
0010
,
0010
0001
0001
0000
,
0010
0000
0000
1000
,
1001
0100
0110
1000
,
0100
0001
1000
0010
,
1000
1000
0001
0010
,
0002
0003
2000
3000
0200
0300
0020
0030
,
1000
0001
0010
0001
,
0100
0000
1000
0000
0002
0000
0000
0003
,
1001
0110
0100
0000
,
1000
0000
0000
0010
,
0001
0002
1003
2000
,
0000
0000
3100
0010
,
0020
0000
2030
0000
,
3020
0000
0000
0032
,
0000
0203
0000
0302
,
0000
0000
0000
0203
,
0000
2300
0000
3002
,
0000
0000
0000
0203
,
0000
0302
0000
0203
,
0000
0000
0000
0302
,
0000
0000
0000
0203
,
0000
0000
0000
0320
,
0000
0230
0000
0320
,
0000
0000
0000
0000
,
0130
0000
0100
0000
,
0100
0100
0001
0001
,
0001
1000
1000
0000
,
1000
1000
0001
0000
,
0100
0001
1000
0000
,
1000
0001
0100
0000
,
1001
0010
1000
0000
,
0100
0001
1000
0000
,
0010
0100
0001
0000
,
1000
1000
0001
0000
,
0010
0010
0100
0000
,
0100
0010
0100
0000
,
0100
0010
0100
0000
,
0100
0010
0100
0000
,
1001
0010
1000
0000
,
0101
0001
1000
0000
,
0110
0001
1001
0000
,
0010
0001
0100
0000
,
0200
0000
0000
0000
,
2300
0000
0000
0000
,
3002
0000
0000
0000
,
0000
0000
2003
0000
,
0000
0000
3002
0000
,
0000
0000
0203
0000
,
0000
0000
0000
0000
,
0300
0000
0002
0000
,
0000
0000
0203
0000
,
0000
0000
0320
0000
,
0000
0000
0000
0000
,
0030
0000
0000
0000
,
1001
1001
1000
0000
,
0001
0000
0000
0000
,
0001
0010
0100
0001
,
0000
0000
2000
0000
,
3200
0000
0000
0000
0000
0300
0020
0000
,
0000
0000
0000
2030
,
0000
3002
0000
0003
,
0020
0000
0000
0000
,
0000
0000
0000
0000
,
0030
0000
0000
0000
;
