#TITLE:Follow Tomorrow;
#SUBTITLE:;
#ARTIST:HHH×MM×ST;
#TITLETRANSLIT:;
#SUBTITLETRANSLIT:;
#ARTISTTRANSLIT:;
#GENRE:;
#CREDIT:;
#BANNER:Follow Tomorrow.png;
#BACKGROUND:Follow Tomorrow-bg.png;
#LYRICSPATH:;
#CDTITLE:;
#MUSIC:Follow Tomorrow.mp3;
#OFFSET:-0.094;
#SAMPLESTART:100.050;
#SAMPLELENGTH:12.000;
#SELECTABLE:YES;
#BPMS:0.000=140.000
;
#STOPS:227.000=0.857
;
#BGCHANGES:;
#KEYSOUNDS:;
#ATTACKS:;

//---------------dance-single - ----------------
#NOTES:
     dance-single:
     :
     Hard:
     12:
     0.524,0.469,0.208,0.192,0.028,408.000,26.000,24.000,0.000,0.000,0.000,0.524,0.469,0.208,0.192,0.028,408.000,26.000,24.000,0.000,0.000,0.000:
0000
0000
0000
0000
,
0000
0000
0000
0000
,
0000
0000
0000
0000
,
0000
0000
0000
0000
,
0000
0000
0000
0000
,
2000
0000
3000
0001
0100
0010
0100
0000
,
0002
0000
0103
0010
0100
0010
0100
0000
,
2000
0000
3100
0001
0100
0010
0100
0000
,
1000
0100
0010
0001
0100
0001
0100
0001
,
2002
0000
3003
0000
0100
0010
0100
0010
,
1001
0100
0010
0100
0010
0100
0010
1000
,
0100
1000
0100
0010
0100
0010
0100
0010
,
0001
0010
0001
0100
0010
0100
0010
0000
,
1000
0001
1000
0001
1001
0000
0110
0000
,
1000
0100
0010
0100
0001
0100
0010
0000
,
1000
0001
1000
0010
0100
0010
0100
0000
,
0001
1000
0001
0000
0100
0010
0100
0000
,
1000
0100
0010
0001
0100
0010
0100
0000
,
1000
0100
0010
0000
0100
0001
0100
0000
,
0010
0001
0010
0000
0100
0010
0100
0010
,
1000
0100
0010
0000
0100
0010
0100
0000
,
0100
0010
0001
0000
0100
0010
0100
0010
,
1000
0100
0010
0000
0100
0010
0100
0000
,
1000
0100
0010
0001
0100
0010
0100
0010
,
1000
0010
1000
0000
0100
0010
0100
0000
,
0010
0001
0010
0100
0010
0100
0010
1000
,
0010
0100
0010
0100
0010
1000
0100
0010
,
0001
0000
1001
0000
0100
0010
0100
0010
,
1000
0000
1001
0100
0010
0100
1001
0000
,
0100
0000
1001
0000
0100
0010
0100
0010
,
1010
0000
0100
0000
0001
0100
0001
0000
,
0100
0010
0100
0000
1000
0100
0010
0100
,
0000
0100
0001
0100
0010
0100
0010
0100
,
1000
1000
0100
0100
0010
0010
0001
0001
,
0100
0010
0100
0010
0100
0000
1001
0100
,
0010
0000
0100
0010
0100
0010
0100
0010
,
1100
0110
0011
0110
,
0110
1000
0100
0010
0100
0001
0100
0000
,
1100
0000
0100
0010
0100
0000
0000
0000
,
1001
0100
0010
0100
0010
0100
0010
0000
,
2000
0000
3001
0100
0010
0100
0010
0000
,
0002
0000
0103
0010
0100
0010
0100
0000
,
1000
0100
1000
0100
1000
0000
0000
0000
,
0001
0010
0001
0100
0010
0100
0020
0000
,
1030
0010
0100
0010
0100
0010
2000
0000
,
3010
0100
0010
0100
0010
0001
0100
0010
,
0011
0110
1100
0100
,
1000
0100
0010
0000
0100
0010
0100
0010
,
0100
0000
0000
0001
0010
0001
0100
0010
,
0100
0000
1000
0100
1000
0100
0010
0100
,
0010
0000
0000
0100
0100
0010
0010
0001
,
0001
1000
0010
0100
0010
0100
0010
0100
,
0010
1000
1010
0000
0100
0010
0100
0010
,
0100
0001
0010
0100
1000
0100
0010
0100
,
1000
1000
0100
0100
0010
0010
0001
0001
,
1001
0000
0000
1001
0000
0000
1001
0000
0000
0000
0000
0000
1001
0000
1000
0000
,
0020
0000
0000
0030
,
1000
0100
0010
0100
0010
0100
0020
0000
,
1030
0001
0100
0010
0100
0010
0200
0000
,
0310
1000
0010
0100
0010
0001
0100
0010
,
2000
3020
0230
0302
,
0103
0010
0100
0010
0100
0010
2000
0000
,
3001
0100
0010
0100
0010
0100
0020
0000
,
1030
0010
0100
0010
1000
0100
0010
0001
,
2000
3020
0230
0320
,
1030
0000
0000
0100
0000
0000
0010
0000
0100
0000
0000
0000
0120
0000
0000
0000
,
1030
0000
0000
0100
0000
0000
0010
0000
0001
0000
0000
0010
0000
0000
0100
0000
,
0010
0000
0000
1000
0000
0000
0100
0000
0020
0000
0000
0000
0000
0000
0000
0000
,
0130
0000
0000
1000
0000
0000
0100
0000
0010
0000
0000
0100
0000
0000
0010
0000
;

//---------------dance-single - Copied from----------------
#NOTES:
     dance-single:
     Copied from:
     Challenge:
     15:
     0.735,0.662,0.288,0.456,0.456,550.000,36.000,57.000,0.000,0.000,0.000,0.735,0.662,0.288,0.456,0.456,550.000,36.000,57.000,0.000,0.000,0.000:
0000
0000
0000
0000
,
0000
0000
0000
0000
,
0000
0000
0000
0000
,
0000
0000
0000
0000
,
0000
0000
0000
0000
,
2000
0000
0000
3010
0100
0000
0001
0000
0100
0000
0010
1000
0200
0000
0000
0000
,
0302
0000
0000
0013
0100
0000
0010
0000
0100
0000
0010
0001
0200
0000
0000
0000
,
2300
0000
0000
3001
0100
0000
0001
0000
0100
0000
0010
0100
0020
0000
0000
0000
,
1030
0100
0010
0001
0100
0001
0100
0001
,
2002
0000
0000
0000
3003
0000
0000
0000
0100
0000
0010
0000
0100
0010
0100
0000
,
1001
0000
0100
0010
0100
0000
0100
0000
0010
0000
0010
0100
0020
0000
1030
0000
,
0100
0000
1000
0100
1000
0000
1000
0000
0100
0000
1000
0100
2000
0000
3010
0000
,
0001
0000
0010
0001
0010
0000
0010
0000
0001
0000
0001
0010
0002
0000
0103
0000
,
1000
0000
0001
1000
0001
0000
0001
1000
1001
0000
0110
0000
0100
0000
0110
0000
,
1000
0000
0100
0001
1000
0000
1000
0000
0001
0000
1000
0001
0200
0000
0310
0000
,
1000
0000
0001
0100
1000
0000
0010
0000
0100
0000
1000
0100
0002
0000
0103
0000
,
0001
0000
1000
0100
0010
0000
0100
0000
0100
0000
0010
0100
1000
0000
1000
0000
,
1100
0000
0000
0100
0010
0000
0001
0000
0100
0000
0010
0000
0100
0000
0010
0000
,
1000
0100
1000
0200
0000
0000
0310
0000
0100
0001
0100
0002
0000
0000
0013
0000
,
0001
0100
0001
0200
0000
0000
1300
0000
1000
0010
1000
0020
0000
0000
1030
0000
,
1000
0001
1000
0002
0000
0000
0013
0000
0010
0100
0010
0200
0000
0000
0310
0000
,
1000
0100
0010
0002
0000
0000
0013
0000
0001
0010
0100
2000
0000
0000
3010
0000
,
1000
0100
1000
0200
0000
0000
0310
0000
0100
0010
0100
0020
0000
0000
0031
0000
,
0001
0010
0001
0020
0000
0000
0130
0000
1000
0010
0100
0002
0000
0000
0013
0000
,
0001
0100
0010
2000
0000
0000
0000
0000
3100
0010
0001
2000
0000
0000
0000
0000
,
3010
0100
1000
0002
0000
0000
0103
0000
0010
0100
0010
0200
0000
0300
1000
0010
,
0000
0000
0100
0000
0010
0000
0100
0000
0010
0000
1000
0100
1000
0000
0010
0000
,
0001
0000
0001
0010
0001
0000
0100
0000
0100
0000
0010
0100
0010
0000
0010
0100
,
0010
0000
0001
0000
1001
0000
0100
0000
0010
0000
0100
1000
0001
0000
0010
0000
,
0100
0000
0010
0001
1000
0000
0100
0000
0100
0000
0010
0100
0010
0000
0100
0000
,
1010
0000
0100
0000
0100
0000
0010
0000
0001
0000
0100
0010
0001
0000
0100
0000
,
0100
0000
0001
0010
0100
0000
1000
0000
1000
0100
1000
0100
0000
0000
0100
0000
,
0000
0100
0001
0100
0010
0100
0010
0100
,
1100
1000
0110
0100
0011
0010
1001
0001
,
0100
0000
0100
0010
0100
0000
0010
0000
0100
0000
0000
0000
1001
0000
0100
0000
,
0010
0000
0010
0000
0100
0000
0010
0000
0100
0000
0010
0100
0010
0000
0010
0000
,
1100
0110
0011
0110
,
0110
0000
1000
0000
0100
0000
0010
0000
0100
0000
0001
0000
0100
0000
1000
0100
,
1100
0000
0000
0010
0100
0000
0010
0000
0100
0000
0000
0000
0120
0000
0000
0030
,
1001
0000
0100
0010
0100
0000
0100
0000
0010
0000
0010
0100
0020
0000
0000
0000
,
1030
0000
1000
0001
1000
0000
0001
0000
0001
0000
0001
1000
0002
0000
0000
0000
,
0103
0000
1000
0100
0010
0000
0010
0000
0001
0000
0001
0010
0100
0000
0100
0000
,
1000
0000
0100
1000
0100
0000
1000
0000
0200
0000
0010
0000
0001
0000
0010
0000
,
0301
0000
0010
0100
0010
0000
0100
0000
0010
0000
0100
0010
0200
0000
0000
0000
,
1300
0000
0001
1000
0001
0000
0001
0000
1000
0000
1000
0001
2000
0000
0000
0000
,
3010
0000
0100
1000
0010
0000
0100
0000
0010
0000
0010
0001
0100
0000
0010
0000
,
0011
0000
0000
0010
0110
0000
1000
0000
1100
0000
0000
0000
0100
0000
0000
0000
,
1000
0000
0100
0000
0010
0000
0001
0000
0100
0000
0100
0010
0100
0000
0010
0000
,
0100
0000
0010
0000
0001
0000
0001
0010
0001
0010
0001
0000
0100
0000
0010
0000
,
0110
0000
0001
0000
1000
0000
0100
0000
1000
0000
0010
0100
0010
0000
0010
0000
,
0002
0000
0013
0100
0100
0010
0010
0001
,
0001
0000
1000
0000
0010
0000
0100
0000
0010
0000
0100
0001
0010
0000
0100
0000
,
0010
0000
1000
0000
1010
0000
0100
0000
0100
0010
0100
0010
0100
0000
0010
0000
,
0100
0001
0010
0100
1000
0100
0010
0100
,
1000
1100
0100
0110
0010
0011
0001
1001
,
1001
0000
0000
0011
0000
0000
0110
0000
0000
1010
0000
0000
1100
0000
1000
0100
,
0020
0000
0000
0000
0000
0000
0000
0000
0000
0000
0000
0000
0000
0030
0000
0000
,
1000
0000
0001
0010
0200
0000
0310
0000
0010
0000
1000
0100
0020
0000
0031
0000
,
1000
0000
0001
1000
0200
0000
0310
0000
0100
0000
1000
0001
0200
0000
0310
0000
,
0010
0000
1000
0010
0002
0000
0103
0000
0010
0000
0001
0010
2000
0000
3010
0000
,
2000
0000
0000
0020
3000
0000
0100
0000
0230
0000
0001
0000
0302
0000
0010
0000
,
0103
0000
1000
0100
0002
0000
0013
0000
0100
0000
0001
0100
2000
0000
3100
0000
,
0001
0000
1000
0100
0020
0000
0130
0000
0010
0000
1000
0100
0020
0000
0000
0000
,
1030
0000
0010
0100
0010
0000
0010
0000
0010
0000
0100
0010
0100
0000
0001
0000
,
2000
0000
0000
0020
3000
0000
0100
0000
0230
0000
0000
0000
0320
0000
0000
0000
,
1030
0000
0010
0100
0000
0000
0010
0000
0100
0000
0000
0000
0120
0000
0000
0000
,
1030
0000
0010
0100
0000
0000
0010
0000
0001
0000
1000
0010
0000
0000
0100
0000
,
0010
0000
0100
1000
0000
0000
0100
0000
0020
0000
0000
0000
0000
0000
0000
0000
,
0130
0000
0100
1000
0000
0000
0100
0000
0010
0000
1000
0100
0000
0000
0010
0000
;

//---------------dance-single - ----------------
#NOTES:
     dance-single:
     :
     Beginner:
     2:
     0.120,0.193,0.040,0.040,0.000,95.000,5.000,5.000,0.000,0.000,0.000,0.120,0.193,0.040,0.040,0.000,95.000,5.000,5.000,0.000,0.000,0.000:
0000
0000
0000
0000
,
0000
0000
0000
0000
,
0000
0000
0000
0000
,
0000
0000
0000
0000
,
0000
0000
0000
0000
,
1000
0000
0000
0000
,
0001
0000
0000
0000
,
0100
0000
0000
0000
,
0010
0000
0000
0000
,
1001
0000
0100
0100
,
0100
0000
0000
0000
,
0010
0000
0001
0001
,
0001
0000
0000
0000
,
0010
0000
0100
0000
,
1001
0000
0000
0000
,
0010
0000
0000
0000
,
1000
0000
0000
0000
,
0001
0000
1000
0000
,
0001
0000
0000
0000
,
1000
0000
0000
0000
,
0100
0000
0000
0000
,
0010
0000
0000
0000
,
0001
0000
0000
0000
,
0010
0000
0000
0000
,
0100
0000
1000
0000
,
0010
0000
0000
0000
,
1000
0000
0000
0000
,
0100
0000
0000
0000
,
0010
0000
0000
0000
,
0001
0000
0100
0100
,
0100
0000
0000
0000
,
0010
0000
1000
1000
,
1000
0000
0000
0000
,
0010
0000
0000
0000
,
0001
0000
0000
0000
,
0100
0000
0000
0000
,
0010
0000
0000
0000
,
2000
0000
0000
0000
,
3000
0000
0000
0000
,
0001
0000
0001
0000
,
1000
0000
1000
0000
,
0100
0000
0100
0000
,
0010
0000
0010
0000
,
1000
0000
1000
0000
,
0100
0000
0100
0000
,
0010
0000
0010
0000
,
0001
0000
0001
0000
,
1000
0000
0000
0000
,
0001
0000
0000
0000
,
1000
0000
0000
0000
,
0100
0000
0000
0000
,
0010
0000
0000
0000
,
0001
0000
0000
0000
,
1000
0000
0000
0000
,
0100
0000
0000
0000
,
0110
0000
0000
0000
,
1001
0000
0020
0030
,
1000
0000
0010
0010
,
0010
0000
1000
1000
,
1000
0000
0001
0001
,
0001
0000
0100
0010
,
0100
0000
0000
0000
,
2000
0000
3000
0000
,
0002
0000
0003
0000
,
0200
0000
0300
0000
,
1001
0000
0000
0000
,
1000
0000
0100
0000
,
0010
0000
0001
0000
,
0010
0000
0000
0000
0100
0000
0000
1000
;

//---------------dance-single - ----------------
#NOTES:
     dance-single:
     :
     Easy:
     6:
     0.312,0.303,0.072,0.184,0.000,241.000,9.000,23.000,0.000,0.000,0.000,0.312,0.303,0.072,0.184,0.000,241.000,9.000,23.000,0.000,0.000,0.000:
0000
0000
0000
0000
,
0000
0000
0000
0000
,
0000
0000
0000
0000
,
0000
0000
0000
0000
,
0000
0000
0000
0000
,
1000
0010
0100
0200
,
0310
0010
0001
0002
,
0103
0010
1000
2000
,
3010
0100
0010
0100
,
1001
0000
0100
0010
,
0100
0010
1000
2000
,
3001
0100
0010
0020
,
0130
1000
0100
0020
,
1030
0100
0020
0030
,
1000
0010
0100
0002
,
0103
0100
0010
0020
,
1030
0100
0010
1000
,
0001
0001
1000
0000
,
0010
0010
0000
0000
,
0100
0100
0010
0010
,
1000
1000
0001
0001
,
0100
0100
0010
0010
,
1000
0001
1000
0001
,
0100
0010
0100
0010
,
1000
1001
0010
0110
,
1000
0100
0020
0000
,
1030
0100
0010
0001
,
2000
0001
0001
0001
,
3001
0100
0010
0100
,
0002
1000
1000
1000
,
1003
0100
0010
0100
,
0001
0100
0200
0010
,
0310
0001
0010
0100
,
0010
0100
0010
0010
,
0100
0010
1000
1001
,
0100
0010
1000
0100
,
1100
0100
0110
0010
,
0011
0001
0010
0100
,
2000
0010
0010
3010
,
0101
0010
0100
0020
,
1030
0010
0100
0020
,
0130
1000
0200
0310
,
1000
0100
0002
0000
,
1003
0100
0010
0020
,
1030
0100
0010
0020
,
1030
0100
0010
1000
,
0001
0001
0001
1000
,
1000
0100
0010
0001
,
1000
0000
0001
0001
,
0100
0010
1000
0010
,
0001
0000
0100
0100
,
1000
0010
0100
0100
,
0010
0000
1000
1000
,
0001
0100
0010
0000
,
1000
1000
0001
0001
,
1000
0100
0010
0001
,
2000
0000
0000
3000
,
0100
0100
0100
0000
,
0010
1000
0010
1000
,
0100
0100
0010
0010
,
1000
0001
2000
3000
,
0001
0100
0100
0010
,
0001
0001
0100
0200
,
0310
0010
1000
0100
,
0010
0010
1000
0001
,
1000
0100
0010
0001
,
0100
0001
1000
0010
,
0100
0100
1000
1001
,
0100
0000
0010
0000
1000
0000
0001
1000
;

//---------------dance-single - ----------------
#NOTES:
     dance-single:
     :
     Medium:
     10:
     0.393,0.441,0.048,0.472,0.000,279.000,6.000,59.000,0.000,0.000,0.000,0.393,0.441,0.048,0.472,0.000,279.000,6.000,59.000,0.000,0.000,0.000:
0000
0000
0000
0000
,
0000
0000
0000
0000
,
0000
0000
0000
0000
,
0000
0000
0000
0000
,
0000
0000
0000
0000
,
1001
0100
0010
0200
,
0310
1000
0001
0002
,
1003
0010
0100
2000
,
3100
0010
0100
0001
,
1001
0000
0000
0000
0100
0010
0100
0010
,
0100
0010
0010
2000
,
3001
0100
0100
0001
,
0001
0100
0010
0010
,
1000
0100
0010
0010
,
1000
0100
0010
0002
,
0103
1000
1000
2000
,
3010
0100
0010
1000
,
0100
0010
0001
1000
,
0001
0002
1003
2000
,
3100
0200
0310
0020
,
0031
0002
0103
0200
,
0310
0020
1030
2000
,
3100
0200
0310
0020
,
0031
0002
0013
0020
,
0130
0200
1300
2000
,
3100
0200
0310
0100
,
1001
0000
0000
0000
,
1000
0001
1000
0001
,
1000
0110
0100
0100
,
0010
0000
0100
0000
0001
1000
0001
1000
,
0001
0100
0100
0010
,
1000
0001
0100
0100
,
0100
0010
1000
0001
,
1000
0100
0010
0001
0010
0100
1000
0010
,
0100
0001
0100
0010
,
0010
1000
1000
0001
,
2000
3200
0320
0032
,
0013
0100
0010
1000
,
0001
0001
0001
1001
,
0100
0100
0010
2000
,
3001
0100
0010
0020
,
0130
0100
1000
2000
,
3100
0010
0020
0030
,
0001
0010
0010
0002
,
1003
0100
0010
0020
,
1030
0100
0010
2000
,
3001
0100
0010
1000
,
1000
0100
0010
0100
,
0002
0000
0003
0100
0010
0000
0100
0000
,
0010
1000
0100
0010
,
1001
0100
0010
0100
,
0020
1030
0100
0100
,
0010
0010
0001
0001
,
0100
0100
0010
0010
,
1000
0100
1000
0100
0010
0100
0010
0001
,
0010
0001
0010
0100
1000
0010
0100
0010
,
0200
0000
0000
0300
,
1000
0001
1000
0000
0010
0100
0020
0000
,
1030
0100
0010
0000
0100
0010
0200
0000
,
0301
1000
0001
0000
0100
0010
0200
0000
,
0310
1000
0001
0100
0020
0000
0000
0030
,
1000
0001
1000
0000
0010
0100
0020
0000
,
1030
0001
0100
0000
0001
0100
0020
0000
,
0130
0001
0100
0000
1000
0010
2000
0000
,
3010
0100
0010
0100
0020
0000
0000
0030
,
2000
3020
0230
0320
,
2030
3002
0203
0320
,
2030
3200
0320
0032
,
0023
0000
0230
0000
0320
0000
2030
3001
;
