#TITLE:F;
#SUBTITLE:;
#ARTIST:D.J. Amuro;
#TITLETRANSLIT:;
#SUBTITLETRANSLIT:;
#ARTISTTRANSLIT:;
#GENRE:;
#CREDIT:;
#BANNER:F.png;
#BACKGROUND:F-bg.png;
#LYRICSPATH:;
#CDTITLE:;
#MUSIC:F.mp3;
#OFFSET:-0.051;
#SAMPLESTART:100.050;
#SAMPLELENGTH:12.000;
#SELECTABLE:YES;
#BPMS:0.000=154.000
,52.000=77.000
,53.000=308.000
,56.000=154.000
;
#STOPS:55.000=0.195
;
#BGCHANGES:;
#KEYSOUNDS:;
#ATTACKS:;

//---------------dance-single - ----------------
#NOTES:
     dance-single:
     :
     Hard:
     17:
     0.749,0.904,0.253,0.481,0.404,553.000,31.000,59.000,0.000,0.000,0.000,0.749,0.904,0.253,0.481,0.404,553.000,31.000,59.000,0.000,0.000,0.000:
0000
0000
0000
0000
,
0000
0000
0000
0000
,
0000
0000
0000
0000
,
0000
0000
0000
0000
,
0000
0000
0000
0000
,
1001
0000
0000
0000
0100
0010
0001
0010
0100
0000
1000
0000
0100
1000
0010
1000
,
0100
0010
0001
0010
0100
1000
0010
0100
0010
0000
0000
0100
1000
0000
0000
0000
,
0001
0000
0100
0010
0100
1000
0010
0001
0100
0010
0100
0010
1000
0100
0001
0010
,
0100
0001
0010
1000
0100
0001
0010
0100
2000
0000
0000
0000
3002
0000
0000
0000
,
0103
0010
0100
0000
0100
0010
0100
0000
0100
0010
0100
0000
2000
0000
0000
0000
,
3001
0000
0010
0100
0010
0000
0010
0100
0010
0000
0010
0100
0020
0000
0000
0000
,
0230
0000
0010
0000
0320
0000
1000
0000
2030
0000
0000
0000
3100
0000
0010
0100
,
0110
0000
0100
0001
1001
0000
1000
0010
0110
0000
0100
0001
0101
0000
0010
0000
,
2000
0002
0000
3003
,
0001
0000
0100
0010
0100
0000
0100
1000
0010
0000
0100
0001
1000
0000
0001
0010
,
0100
0000
0010
1000
0100
0000
0010
0001
0100
0000
0010
0100
1000
0000
0010
1000
,
0010
0100
0010
0100
0001
0100
0001
0100
,
0101
1000
0010
0100
0010
0100
0010
0100
,
0110
0000
1000
0100
0001
0000
0100
1000
0010
0000
0100
0001
0010
0000
0100
0010
,
1000
0000
0100
0001
0010
0000
0100
0010
0100
0000
0100
0010
0001
0000
0100
0010
,
0100
1000
0100
0010
0100
0010
0100
0010
,
0010
1000
1000
0100
0010
0100
0010
0100
,
0102
0000
0100
0000
1000
0000
0100
0003
,
2010
0000
0010
0100
0010
0001
0100
0010
,
3002
0000
0100
0010
0100
0010
1000
0013
,
2000
0000
0010
0000
0001
0000
0010
3000
,
0102
0000
2000
3000
0200
0300
0200
0300
,
2003
3020
0230
0320
0230
0302
2003
3020
,
0230
0000
0000
0320
0000
0000
2030
0000
,
3002
0000
0000
0000
,
1003
0000
0100
0010
0100
0000
0100
0000
1000
0000
0010
0000
0200
0000
0000
0000
,
0310
0000
1000
0010
1000
0000
1000
0000
0100
0000
0010
0000
0200
0000
0000
0000
,
0310
0100
0010
0000
0001
1000
0001
0000
0100
0010
0100
0000
1000
0001
1000
0000
,
0100
0100
1000
1000
0100
0010
0100
0010
,
0110
0000
1000
1000
0001
0100
0100
0010
,
0001
0100
0010
0010
1000
0100
0010
0100
,
0010
0010
0001
0001
0100
0010
0100
0010
,
1000
0100
1000
0000
0100
0010
0100
0000
0010
0100
0010
0000
0001
0010
0001
0000
,
0101
0100
0010
0100
0010
0100
0010
0100
,
1000
1000
0100
0100
0010
0010
1000
1000
,
1000
0001
0001
0100
0100
0010
0100
0010
,
0010
0010
1000
1000
1000
1000
0001
0001
,
0101
0100
0010
0100
0010
0100
0100
0010
,
1010
0100
0010
0100
0010
0100
1000
0010
,
0100
0010
0100
0000
0010
0100
0010
0000
0100
0010
0100
0000
0010
0100
0010
0000
,
0020
0000
0000
0000
0000
0200
0000
0330
,
1001
0000
0000
1000
0100
0001
0010
0100
0010
0000
1000
0100
0001
0010
0100
0010
,
0001
0100
1000
0001
0010
0100
1000
0010
1000
0000
0000
0010
0100
0000
0010
0000
,
1000
0000
0010
0000
0100
0000
0010
1000
0100
0010
0001
0100
1000
0001
0100
1000
,
0010
0100
0001
0010
0100
1000
0010
0001
0100
0000
0000
1000
0001
0000
0000
0000
,
0110
1000
0010
0100
0001
0100
0010
0100
,
0010
0010
1000
1000
0001
0000
0100
0020
,
1030
0000
0010
0100
0010
0100
0010
0100
0010
0100
0010
0100
0010
0100
0010
0100
,
0001
1000
0001
1000
0001
1000
0001
1000
0001
1000
0001
1000
0001
1000
0001
0000
,
1001
0000
0110
0000
0110
0000
1001
0100
,
0020
0000
2030
0000
3001
0100
0010
0100
,
1001
0100
0010
0100
0010
1000
0001
0100
,
0101
1000
0010
0100
0010
0100
0001
1000
,
0110
0100
0010
0100
0010
0100
1000
0010
,
0100
0001
1000
0010
0100
0010
0100
0001
,
1000
0001
1000
0000
0010
0100
0010
0000
0100
0010
0100
0000
0001
1000
0001
0000
,
1000
0100
0010
0001
0100
0010
0100
0010
,
1002
0000
0100
0000
0100
0000
0010
0003
,
2010
0001
0100
0001
0010
0100
0010
3100
,
0102
0000
0100
0010
1000
0010
0100
1003
,
2010
0000
0010
0000
0100
0000
0010
3000
,
0102
0000
2000
3000
0200
0300
0020
0030
,
2003
3020
0230
0320
0230
0320
0230
0320
,
2030
0000
3010
0100
0010
0100
0010
0100
,
0102
0000
0100
0013
1000
0010
0100
0010
,
2010
0000
3100
0010
0200
0000
0310
1000
,
0200
0000
0000
0000
0000
0000
0000
0300
,
2002
0000
0000
0000
,
0000
0000
0000
0000
0000
0000
0000
3003
;

//---------------dance-single - ----------------
#NOTES:
     dance-single:
     :
     Medium:
     14:
     0.673,0.813,0.212,0.457,0.261,496.000,26.000,56.000,0.000,0.000,0.000,0.673,0.813,0.212,0.457,0.261,496.000,26.000,56.000,0.000,0.000,0.000:
0000
0000
0000
0000
,
0000
0000
0000
0000
,
0000
0000
0000
0000
,
0000
0000
0000
0000
,
0000
0000
0000
0000
,
1001
0000
0000
0000
0100
0010
0001
0010
0100
0000
0000
0000
0100
1000
0010
1000
,
0100
0000
0001
0010
0100
1000
0010
0100
0010
0000
0100
0000
0010
0000
0000
0000
,
0001
0000
0100
0010
0100
1000
0010
0001
0100
0000
0100
0010
1000
0100
0001
0010
,
0100
0000
0010
1000
0100
0001
0010
0100
2000
0000
0000
0000
3002
0000
0000
0000
,
0103
0010
0100
0000
0100
0000
0100
0000
0100
0010
0100
0000
2000
0000
0000
0000
,
3001
0000
0010
0100
0010
0000
0010
0000
0010
0000
0010
0100
0020
0000
0000
0000
,
0230
0000
0010
0000
0320
0000
1000
0000
2030
0000
0000
0000
3100
0000
0010
0100
,
0010
0000
0100
0001
1000
0000
1000
0010
0100
0000
0100
0001
0100
0000
0010
0000
,
2000
0000
0000
3000
,
0001
0000
0100
0010
0100
0000
0100
0000
0100
0000
0100
0001
1000
0000
0001
0000
,
0001
0000
0010
1000
0100
0000
0010
0000
0010
0000
0010
0100
1000
0000
0100
0000
,
0100
0100
0010
0100
0001
0100
0001
0100
,
0101
1000
0010
0100
0010
0100
0010
0100
,
0110
0000
1000
0100
0001
0000
0100
0000
0010
0000
0100
0001
0010
0000
0100
0000
,
1000
0000
0100
0001
0010
0000
0100
0000
0100
0000
0100
0010
0001
0000
0100
0000
,
0100
1000
0100
0010
0100
0010
0100
0010
,
0010
1000
1000
0100
0010
0100
0010
0100
,
0102
0000
0100
0000
1000
0000
0100
0003
,
2010
0000
0010
0100
0010
0000
0100
0010
,
3002
0000
0100
0010
0100
0000
1000
0013
,
2000
0000
0010
0000
0001
0000
0010
3000
,
0102
0000
2000
3000
0200
0300
0200
0300
,
2003
3020
0230
0320
0030
0002
2003
3020
,
0230
0000
0000
0320
0000
0000
2030
0000
,
3002
0000
0000
0000
,
1003
0100
0100
0100
1000
0010
0200
0000
,
0310
1000
1000
1000
0100
0010
0200
0000
,
0310
0100
0010
0000
0001
1000
0001
0000
0100
0010
0100
0000
1000
0001
1000
0000
,
0100
0100
1000
1000
0100
0010
0100
0010
,
0110
0000
1000
1000
0001
0100
0100
0010
,
0001
0100
0010
0010
1000
0100
0010
0100
,
0010
0010
0001
0001
0100
0010
0100
0010
,
1000
1000
0100
0100
0010
0010
0001
0001
,
0101
0100
0010
0100
0010
0100
0010
0000
,
1000
1000
0100
0100
0010
0010
1000
0000
,
1000
0001
0001
0100
0100
0010
0100
0000
,
0010
0010
1000
1000
1000
1000
0001
0000
,
0101
0100
0010
0100
0010
0100
0100
0000
,
1010
0100
0010
0100
0010
0100
1000
0000
,
0100
0010
0100
0000
0010
0000
0010
0000
0100
0010
0100
0000
0010
0000
0010
0000
,
0020
0000
0000
0000
0000
0230
0000
0300
,
1001
0000
0000
1000
0100
0001
0010
0100
0010
0000
0000
0000
0001
0010
0100
0010
,
0001
0000
1000
0001
0010
0100
1000
0010
1000
0000
0010
0000
0100
0000
0010
0000
,
1000
0000
0010
0000
0100
0000
0010
1000
0100
0010
0001
0100
1000
0001
0100
1000
,
0010
0000
0010
0000
0100
1000
0010
0001
0100
0000
0000
0000
0001
0000
0000
0000
,
0110
1000
0010
0100
0001
0100
0010
0100
,
0010
0010
1000
1000
0001
0000
0100
0020
,
1030
0000
0010
0100
0010
0100
0010
0100
0010
0000
0010
0100
0010
0100
0010
0100
,
0001
0000
0001
1000
0001
1000
0001
1000
0001
0000
0001
1000
0001
1000
0001
0000
,
1001
0000
0110
0000
0110
0000
1001
0100
,
0020
0000
2030
0000
3001
0100
0010
0100
,
0001
0000
0010
0100
0010
1000
0001
0000
,
0101
1000
0010
0100
0010
0100
0001
0000
,
0110
0100
0010
0100
0010
0100
1000
0000
,
0100
0001
1000
0010
0100
0010
0100
0000
,
1000
1000
0010
0010
0100
0100
0001
0001
,
1000
0100
0010
0001
0100
0010
0100
0010
,
1002
0000
0100
0000
0100
0000
0010
0003
,
2010
0000
0100
0001
0010
0000
0010
3100
,
0102
0000
0100
0010
1000
0000
0100
1003
,
2010
0000
0010
0000
0100
0000
0010
3000
,
0102
0000
2000
3000
0200
0300
0020
0030
,
2003
3020
0230
0320
0030
0020
0230
0320
,
2030
0000
3010
0100
0010
0100
0010
0000
,
0102
0000
0100
0013
1000
0010
0100
0000
,
2010
0000
3100
0010
0200
0000
0310
0000
,
0200
0000
0000
0000
0000
0000
0000
0300
,
2002
0000
0000
0000
,
0000
0000
0000
0000
0000
0000
0000
3003
;

//---------------dance-single - ----------------
#NOTES:
     dance-single:
     :
     Easy:
     9:
     0.530,0.542,0.236,0.326,0.012,386.000,29.000,40.000,0.000,0.000,0.000,0.530,0.542,0.236,0.326,0.012,386.000,29.000,40.000,0.000,0.000,0.000:
0000
0000
0000
0000
,
0000
0000
0000
0000
,
0000
0000
0000
0000
,
0000
0000
0000
0000
,
0000
0000
0000
0000
,
1001
0000
0100
0001
0100
0000
0100
0010
,
0100
0000
0001
0000
0100
0000
0010
0000
0010
0000
0000
0010
0000
0000
0001
0000
,
0001
0100
0100
0010
0100
0100
1000
0001
,
0100
0010
0100
0010
2000
0000
3002
0000
,
0103
0100
0010
0010
0010
0100
2000
0000
,
3001
0010
0010
0100
0100
0100
0020
0000
,
0230
0010
0320
1030
1000
0002
0103
0000
,
0110
1001
0110
0110
,
0200
0000
0000
0300
,
0001
0000
0100
0000
0100
0000
0010
0000
0010
0000
0010
0001
1000
0000
0001
0000
,
0001
0000
0010
0000
0100
0000
0010
0000
0010
0000
0010
0100
0010
0000
0100
0000
,
0100
0000
0010
0100
0001
0100
0000
0100
,
0001
0000
0010
0100
0010
0100
0010
0000
,
0110
0000
0001
0100
0010
0100
0010
0100
,
1000
0100
0010
0100
0100
0000
0001
0100
,
0100
0000
0100
0010
0100
0010
0100
0010
,
0010
0000
1000
0100
0010
0100
0010
0000
,
0102
0000
0100
0000
0000
0000
0100
0003
,
2010
0010
0010
0100
,
3002
0000
0100
0000
0100
0000
1000
0003
,
2000
0000
0010
0000
0000
0000
0010
3000
,
0102
2003
3200
0320
,
1030
0010
0100
0010
0000
0001
1000
0010
,
0200
0000
0000
0320
0000
0000
1030
0000
,
0002
0000
0000
0000
,
1003
0100
0100
0100
0000
0010
0200
0000
,
0310
1000
1000
1000
0000
0010
0200
0000
,
0310
0010
0001
0001
0100
0100
1000
1000
,
0200
0000
0000
0300
0100
0010
0100
0000
,
0110
0000
1000
1000
0001
0100
0100
0000
,
0001
0100
0010
0010
1000
0100
0010
0000
,
0010
0010
0001
0001
0100
0010
0100
0010
,
1000
0000
0100
0100
0010
0010
0001
0000
,
0101
0000
0010
0100
0010
0100
0010
0000
,
1000
1000
0100
0000
0010
0010
1000
0000
,
1000
0001
0001
0000
0100
0010
0100
0000
,
0010
0010
1000
0000
1000
1000
0001
0000
,
0101
0000
0010
0100
0010
0100
0100
0000
,
1010
0000
0010
0100
0010
0100
1000
0000
,
0100
0100
0010
0010
0100
0100
0010
0010
,
0020
0000
0000
0000
0000
0130
0000
0000
,
1001
0000
0100
0010
0010
0000
0001
0100
,
0001
1000
0010
1000
1000
0000
0100
0010
,
1000
0010
0100
0010
0100
0000
1000
0100
,
0010
0010
0100
0010
0100
0000
0001
0000
,
0110
1000
0010
0100
0001
0000
0010
0100
,
0010
0010
1000
1000
0001
0000
0100
0020
,
1030
0010
0010
0010
0010
0010
0010
0010
,
0001
0001
0001
0001
0001
0001
0001
0001
,
1001
0110
0110
1001
,
0020
0000
2030
0000
3001
0100
0010
0100
,
0001
0000
0010
0100
0010
1000
0001
0000
,
0101
1000
0010
0100
0010
0100
0001
0000
,
0110
0100
0010
0100
0010
0100
1000
0000
,
0100
0001
1000
0010
0100
0010
0100
0000
,
1000
1000
0010
0010
0100
0100
0001
0001
,
1000
0100
0010
0001
0100
0010
0100
0000
,
1002
0000
0100
0000
0000
0000
0010
0003
,
2010
0000
0100
0000
0010
0000
0010
3000
,
0102
0000
0100
0000
1000
0000
0100
0003
,
2010
0000
0010
0000
0000
0000
0010
3000
,
0102
2003
3200
0320
,
1030
0010
0100
0010
0000
0010
0100
0010
,
1000
0000
0010
0100
0010
0100
0010
0000
,
0102
0000
0103
0010
1000
0010
0100
0000
,
2010
0000
0000
3200
0000
0000
0310
0000
,
0200
0000
0000
0000
0000
0000
0000
0300
,
2002
0000
0000
0000
,
0000
0000
0000
0000
0000
0000
0000
3003
;

//---------------dance-single - ----------------
#NOTES:
     dance-single:
     :
     Beginner:
     5:
     0.270,0.294,0.147,0.122,0.000,199.000,18.000,15.000,0.000,0.000,0.000,0.270,0.294,0.147,0.122,0.000,199.000,18.000,15.000,0.000,0.000,0.000:
0000
0000
0000
0000
,
0000
0000
0000
0000
,
0000
0000
0000
0000
,
0000
0000
0000
0000
,
0000
0000
0000
0000
,
1001
0100
0100
0000
,
0100
0100
0010
0000
,
0001
0100
0100
0000
,
0100
0100
1000
0002
,
0103
0010
0010
2000
,
3001
0100
0100
0020
,
0130
0020
1030
0100
,
0110
1001
0110
0110
,
0200
0000
0000
0000
,
0300
0100
0010
1000
,
0001
0000
0010
0010
,
0100
0000
0001
0100
,
0001
0000
0010
0010
,
0110
0000
0010
0010
,
1000
0010
0100
0001
,
0100
0000
0100
0100
,
0010
1000
0010
0010
,
0002
0000
0000
0000
,
1003
0100
0010
0001
,
0001
0000
0010
0100
,
2000
0000
0000
0000
0000
0000
0000
3000
,
1001
1000
0100
0010
,
1000
0100
0100
1000
,
0200
0000
0310
0002
,
0000
0000
0000
0000
,
1003
0100
0000
0200
,
0310
1000
0000
0200
,
0310
0001
0100
1000
,
0100
0000
0100
0100
,
0110
0000
0001
0100
,
0001
0000
1000
0010
,
0010
0000
0100
0100
,
1000
0100
0010
0001
,
1001
0000
0010
0010
,
1000
0000
0010
1000
,
1000
0000
0100
0100
,
0010
0000
1000
0001
,
1001
0000
0010
0100
,
0010
0000
0010
1000
,
0100
0010
0100
0010
,
0100
0000
0000
0000
,
1001
0100
0010
0000
,
0001
0010
1000
0000
,
1000
0100
0100
0000
,
0010
0100
0100
0000
,
0110
0010
0001
0000
,
0010
1000
0001
0000
,
1000
0010
0010
0010
,
0001
0001
0001
0001
,
1001
0010
0100
1000
,
0020
0030
0001
0010
,
0001
0000
0010
0001
,
0100
0000
0010
0001
,
0110
0010
0000
1000
,
0100
1000
0000
0100
,
1000
0010
0100
0001
,
1000
0000
0100
0000
,
0002
0000
0000
0000
,
1003
0100
0010
0001
,
0001
0000
1000
0100
,
0020
0000
0000
0030
,
1001
0000
0100
0010
,
1000
0100
0100
0100
,
1000
0000
0000
0010
,
1001
0000
0000
0100
,
0110
0000
0000
0000
,
0200
0000
0000
0300
,
1001
0000
0000
0000
;
