#TITLE:Everlasting Resort;
#SUBTITLE:(VOLTAGE Special);
#ARTIST:SUPER STAR -MITSURU-;
#TITLETRANSLIT:;
#SUBTITLETRANSLIT:;
#ARTISTTRANSLIT:;
#GENRE:;
#CREDIT:;
#BANNER:Everlasting Resort (VOLTAGE Special).png;
#BACKGROUND:Everlasting Resort (VOLTAGE Special)-bg.png;
#LYRICSPATH:;
#CDTITLE:;
#MUSIC:Everlasting Resort (VOLTAGE Special).mp3;
#OFFSET:-0.187;
#SAMPLESTART:100.050;
#SAMPLELENGTH:12.000;
#SELECTABLE:YES;
#BPMS:0.000=148.000
,128.250=74.000
,144.250=148.000
,172.250=296.000
,178.250=148.000
;
#STOPS:
;
#BGCHANGES:;
#KEYSOUNDS:;
#ATTACKS:;

//---------------dance-single - ----------------
#NOTES:
     dance-single:
     :
     Challenge:
     15:
     0.718,0.952,0.300,0.106,0.635,524.000,34.000,12.000,0.000,0.000,0.000,0.718,0.952,0.300,0.106,0.635,524.000,34.000,12.000,0.000,0.000,0.000:
0000
0001
0000
1000
0010
0100
0010
0100
,
2002
0000
0000
3003
,
0100
0010
1000
0100
0010
0001
0100
0010
,
2020
0000
0000
3030
0202
0000
0000
0303
,
0000
1000
0100
0010
0001
0010
0100
0010
,
1000
2020
0000
0000
0000
0000
0000
3030
,
0000
0100
0010
0001
0010
0100
0010
1000
,
2020
0000
0000
3030
,
0100
0000
0010
0100
0010
0100
0010
0100
,
0010
0100
1000
0100
0010
0001
0100
0010
,
0100
1000
0100
0010
0001
0100
0010
0100
,
0010
0100
1000
0100
0001
0010
0100
0010
,
0100
0010
0010
1000
1000
0001
0001
0100
,
0100
0010
0010
1000
1000
0100
0100
0010
,
0010
0000
1000
0100
1000
0100
1000
0100
1000
0100
0010
0100
0010
0100
0010
0001
,
0010
0001
0010
0000
0100
0000
0010
0000
1010
0000
0100
0000
0010
0000
0101
0000
,
0100
0000
0110
0000
0100
0000
1000
0100
0000
0000
0010
0000
0100
0000
0010
0000
,
0100
0010
1000
0100
0010
0100
0010
0100
,
0010
0001
0100
0001
1000
0010
0100
0010
,
0100
0010
0100
0010
1000
1000
0001
0001
,
0001
0110
1000
0100
0010
0001
0100
0010
,
0100
0010
0100
1000
0100
0010
0001
0010
,
0100
0001
0100
0010
0010
1000
1000
0010
,
0010
0110
1000
0001
1001
0100
0010
0110
,
1000
1001
0100
0010
0100
0001
0100
0010
,
0100
1001
0100
0010
0100
0010
0100
0010
,
0100
1000
0100
0001
0010
1000
0010
0100
,
0001
0100
0010
1000
0010
1000
1000
0010
,
0010
1001
0100
0010
0100
0010
0100
0010
,
1000
1010
0100
0010
0001
0010
0100
0010
,
0100
1010
0100
0010
0001
0101
0100
0010
,
0100
0110
1000
0110
1000
0101
1000
0110
,
0000
0000
1000
0000
0000
0000
0010
0000
0000
0000
0000
0100
0000
0010
0000
0100
0000
0010
0000
0100
0000
1000
0010
1000
0000
0010
1000
0010
0000
0100
0000
0010
,
0000
0000
0000
0100
0000
0001
0100
0001
0000
0100
0010
0100
0000
0000
0000
1000
0000
0000
0000
0100
0000
0000
0000
0010
0000
0000
0000
0001
0000
0000
0000
0100
,
0000
0010
0000
0100
0000
0010
1000
0010
0000
1000
0010
1000
0000
0001
0000
0100
0000
0010
0000
0100
0000
0010
0100
0010
0000
0100
0010
0100
0000
0010
0000
1000
,
0000
0000
0100
0000
0000
0010
0100
0010
0000
0100
0010
0100
0000
0000
0000
0000
0000
1000
0010
1000
0000
0010
0000
0000
0100
0000
0000
0000
0000
0001
0000
0100
,
0000
0001
0000
1001
0000
0000
0000
0000
0010
0000
1000
0000
0010
0000
0000
0000
0100
0000
0000
0000
0010
0000
0000
0000
0100
0000
0000
0000
0001
0000
0000
0000
,
0100
0000
0001
0000
1000
0010
1000
0000
0010
1000
0010
0000
0100
0000
0001
0000
,
0100
0000
0010
0000
0001
0100
0001
0000
0100
0001
0100
0000
0000
0000
0010
0000
,
0000
1000
0000
0010
0000
0100
0000
1000
,
0000
0010
1000
0010
1000
0010
1000
0010
1000
0010
1000
0010
1000
0010
1000
0010
,
1000
0010
0100
0010
0100
0010
0100
0010
0100
0010
0100
0010
0100
0010
0100
0010
,
0100
0010
0001
0010
0001
0010
0001
0010
0001
0010
0001
0010
0100
0010
0000
0110
,
0000
2000
0000
0000
0000
0000
0000
0000
0000
0000
0000
0000
0000
0000
0000
0000
,
0000
0000
0000
0000
0000
0000
0000
0000
0000
3000
0000
0000
0000
0100
0000
0010
,
0000
0100
0000
0000
0010
0000
0100
0000
0010
0000
0100
0000
0010
0000
0100
0010
,
0000
1000
0010
0000
1000
0010
1000
0000
0100
0000
0010
0000
0001
0000
0010
0000
,
0100
0010
0100
0000
0001
0000
0010
0000
0100
0000
1000
0000
0100
0000
0010
0000
,
0001
0100
0010
0100
0001
0100
0010
0110
,
1000
0001
1000
0000
0001
1000
0001
0000
0100
0000
0010
0000
0100
0001
0000
0000
,
0110
0000
0010
0000
1000
0001
1000
0001
0000
0000
0010
0000
0100
0000
0001
0000
,
1000
0001
1000
0000
0001
1000
0001
0000
0000
0100
0000
0010
0000
0110
0000
1000
,
0000
0001
0000
1001
0000
0000
0100
0010
0000
0000
0100
0000
0010
0000
1100
0000
,
0100
0010
0100
0010
0100
0001
1000
1010
,
0100
0010
0100
0000
0010
0100
0010
0000
0100
0000
0001
0000
1000
0000
0001
0000
,
1000
0010
1000
0000
0010
1000
0010
0000
0100
0000
0001
0000
0100
0000
0010
0000
,
0100
0000
1000
0000
0100
0000
0010
0000
0001
0000
0100
0000
0010
0000
1000
0010
,
1000
0010
1000
0010
1000
0010
0100
0010
0100
0010
0100
0010
0000
0011
0000
0000
,
0000
0000
0000
0000
0000
0101
0000
0000
1000
0010
1010
0000
0000
0000
0100
0000
,
0010
0000
0100
0000
0001
0000
1000
0000
0010
0000
0100
0000
0010
0000
1000
0010
,
1000
0010
1000
0010
0100
0010
0100
0010
0100
0010
0001
0010
0001
0010
2001
0000
,
0000
0000
0000
0000
,
0000
0000
0000
0000
,
0000
0000
3000
0000
;
