#TITLE:Endless Tears;
#SUBTITLE:11eyes CrossOver Xbox360 Opening Theme;
#ARTIST:Tatsh feat. 彩音;
#TITLETRANSLIT:;
#SUBTITLETRANSLIT:;
#ARTISTTRANSLIT:Tatsh feat. AYANE;
#GENRE:;
#CREDIT:;
#BANNER:Endless Tears.png;
#BACKGROUND:Endless Tears-bg.png;
#LYRICSPATH:Endless Tears.lrc;
#CDTITLE:;
#MUSIC:Endless Tears.mp3;
#OFFSET:-0.190;
#SAMPLESTART:70.813;
#SAMPLELENGTH:12.000;
#SELECTABLE:YES;
#BPMS:0.000=192.000
,387.500=384.000
,389.500=192.000
,394.000=384.000
,396.000=192.000
;
#STOPS:152.000=0.469,
223.000=0.313,
384.000=0.156,
385.000=0.156,
386.000=0.156,
387.000=0.156,
389.500=0.156,
390.500=0.156,
391.500=0.156,
392.500=0.156,
393.500=0.156,
396.021=2.100
;
#BGCHANGES:;
#KEYSOUNDS:;
#ATTACKS:;

//---------------dance-single - ----------------
#NOTES:
     dance-single:
     :
     Hard:
     11:
     0.585,1.000,0.340,0.482,0.081,462.000,48.000,68.000,0.000,2.000,0.000,0.585,1.000,0.340,0.482,0.081,462.000,48.000,68.000,0.000,2.000,0.000:
0000
0000
0000
0000
1001
0000
0000
0100
,
0000
0010
0000
1000
0001
0000
0100
0010
,
1000
0001
0100
0010
1000
0000
0000
0100
,
0000
0100
0000
1000
0010
0000
0100
0001
,
1000
0000
1000
0000
0100
0000
0000
0010
,
0000
1000
0000
0001
0100
0000
0010
1000
,
0001
0100
0010
1000
0001
0000
0000
0010
,
0000
0010
0000
0001
0100
0000
0010
1000
,
0001
0000
0100
0000
0010
0000
1000
0000
0002
0000
0000
0000
0000
0000
0000
0003
,
2000
0000
0000
0000
0000
0000
0000
0000
3020
0000
0000
0000
0000
0000
0000
0030
,
0200
0000
0302
0000
,
2000
0003
0000
0000
0000
0000
0000
0000
3020
0000
0000
0000
0000
0000
0000
0030
,
0200
0000
0301
1000
,
1000
0100
0000
0010
0000
1000
0001
0100
,
0010
1000
0001
0100
0000
0000
0010
0000
,
0010
0010
0000
0010
0000
0001
0000
0010
,
0000
0010
0000
0000
0001
0000
1000
0001
,
0000
0100
0100
0000
1000
0000
0001
0000
,
0100
0010
0100
0001
1000
0000
0110
0100
,
0001
1000
0011
0000
0100
0001
1100
0000
,
0100
1100
1100
1000
,
0100
0010
1000
0001
0000
0010
1000
0001
,
0100
0010
1000
0001
0000
0010
0001
0000
,
0010
1000
0001
0100
0000
0010
1000
0001
,
0000
0100
0010
1000
0002
0000
1003
0020
,
0000
0130
0002
0000
0000
0000
0000
0000
,
0000
0000
0003
0000
1000
0010
1100
0000
,
0010
0100
1001
0000
0100
0010
1000
0000
,
0100
1000
0010
0100
1000
0010
0001
0100
0010
0000
0000
0000
1000
0000
0001
0000
,
0000
0100
0010
0000
1000
0001
0000
0100
,
0000
0010
0001
0010
0011
0000
1000
0100
,
0000
0010
1100
0000
0000
0001
1100
0000
,
0100
0000
0010
1001
0100
0000
0010
0000
,
1000
0000
0100
0010
0000
0100
0001
0000
,
1000
0010
0100
0002
0000
0000
0000
0000
,
0000
0000
0000
0000
,
1000
1000
1000
2000
0000
0000
0000
0000
,
0000
0000
0000
0000
,
3003
0110
0000
1000
0002
0000
0000
0000
,
0000
0000
0003
0100
0010
1000
0001
0100
,
0010
1000
0001
0100
0010
1000
0100
1000
,
1100
0000
0000
0000
0001
0000
0100
0000
0010
0000
0100
0010
0001
0010
1000
0100
,
2000
0000
0000
0000
0000
0000
0000
0000
0000
0000
0000
0000
0000
3000
0000
0000
,
0000
0100
0001
0100
0000
0010
0001
0010
,
0000
0011
0000
0100
0010
0100
0010
1000
,
1001
0000
0100
0010
1000
0100
0010
0002
,
0020
0003
0000
0000
0000
0000
0000
0000
,
0030
0000
1000
0100
0000
0020
0000
2030
,
0000
3002
0000
0000
0003
0100
0000
0010
,
0000
2002
0000
3003
0220
0000
0000
0000
,
0330
2002
0000
0000
3200
0000
0303
0202
,
0000
0000
0000
0000
0303
1010
0000
1001
,
0000
2002
0000
0000
0000
0000
0000
3003
,
0110
0000
0220
0000
0000
0000
0000
0000
0000
0000
1330
0100
0001
1000
0100
0001
,
0010
0100
1000
0010
0001
1000
0100
0001
0010
0100
1000
0010
0001
0010
0100
0010
,
0100
1000
0010
0100
0001
0010
0100
1000
0010
0000
1001
0000
1100
0000
0110
0000
,
0000
1001
0000
0100
0010
0000
2000
0000
,
0000
3010
0000
0110
1001
0000
2000
0000
,
0000
3000
1000
0110
1000
0001
0100
0000
,
1010
0001
0100
0010
1000
0001
0200
0000
,
0000
0310
0001
0001
0000
0000
0002
0000
,
0003
0001
0000
0001
0001
0000
0002
0003
,
0002
0000
0000
0000
0000
0000
0003
1000
,
0000
0010
0000
0100
0001
1000
0020
0000
,
0000
1030
0000
1000
1000
0000
2000
0000
,
3000
1000
0000
1000
1000
0000
2000
0000
,
0000
3001
0000
0200
0000
0010
0300
2000
,
0000
3001
0100
0010
,
0011
0000
0001
0011
0001
0022
0000
0000
,
0000
0000
0033
1000
0100
1000
0200
0000
,
0000
0000
0000
0000
,
0000
0000
0000
0000
0000
0000
0000
2300
,
0000
0000
3010
0000
0100
0001
2000
0000
,
0000
3010
0000
0100
0002
0000
2000
0003
,
0000
3010
0000
0100
0000
1100
0000
1000
,
0000
1100
0000
0010
0100
0001
1020
0000
,
0000
0000
0130
0100
0100
0000
0200
0000
,
0000
0310
0000
1000
0001
0000
0200
0000
,
0320
0000
0000
0000
,
0030
0000
0000
1000
1100
1000
2200
0000
,
0000
0000
3000
0301
0200
0000
0320
0000
,
0000
1030
0000
1000
1000
0000
0001
0000
,
0002
0000
0000
0000
,
0000
0000
0000
0000
0000
0003
0000
2200
,
0000
3300
1100
0000
0000
2200
0000
0000
,
0000
3300
0000
0010
0100
0002
0000
0000
,
0000
0000
0000
0000
,
0000
0000
0000
0000
0000
0000
0003
1100
,
1000
0100
0010
1000
0100
0010
1000
0100
,
0010
1000
0100
0010
1000
0100
0010
0110
,
0010
0001
0100
0010
0001
0100
0010
0001
,
0100
0010
0001
0100
0010
0001
0100
0011
,
1000
0001
0100
1000
0001
0100
1000
0001
,
0100
1000
0001
0100
1000
0001
0100
0110
,
0010
0100
0001
0010
0100
1000
0010
0100
,
0001
1000
0010
0100
0001
0100
0000
1000
,
0100
1000
0001
0001
0010
0001
0010
1000
,
0000
0000
0000
0000
0000
0000
0000
0000
1000
0000
0000
0000
0000
0000
0000
0000
0000
0000
0000
0000
0000
0000
0000
0000
0002
0003
0000
0000
0000
0000
0000
0000
1000
0000
0000
0000
0000
0000
0000
0000
0010
0000
0000
0000
0000
0000
0000
0000
0100
0000
0000
0000
0000
0000
0000
0000
0010
0000
0000
0000
0000
0000
0000
0000
,
1000
0010
1000
0001
0010
0000
0100
0000
,
2000
0000
0000
0000
0000
0000
0000
0000
0000
0000
0000
0000
0000
0002
0000
0000
0000
0000
0000
0000
0000
0000
0000
0000
0000
0000
0000
0000
0000
0000
0000
0000
0000
0000
0000
0000
0000
0000
0000
0000
0000
0000
0000
0000
0000
0000
0000
0000
0000
0000
0000
0000
0000
0000
0000
0000
0000
0000
0000
0000
0000
0000
0000
0000
0000
0000
0000
0000
0000
0000
0000
0000
0000
0000
0000
0000
0000
0000
0000
0000
0000
0000
0000
0000
0000
0000
0000
0000
0000
0000
0000
0000
0000
0000
0000
0000
0000
0000
0000
0000
0000
0000
0000
0000
0000
0000
0000
0000
0000
0000
0000
0000
0000
0000
0000
0000
0000
0000
0000
0000
0000
0000
0000
0000
0000
0000
0000
0000
0000
0000
0000
0000
0000
0000
0000
0000
0000
0000
0000
0000
0000
0000
0000
0000
0000
0000
0000
0000
0000
0000
0000
0000
0000
0000
0000
0000
0000
0000
0000
0000
0000
0000
0000
0000
0000
0000
0000
0000
0000
0000
0000
0000
0000
0000
0000
0000
0000
0000
0000
0000
0000
0000
0000
0000
0000
0000
0000
0000
0000
0000
0000
0000
,
0000
0000
0000
0000
,
0000
0000
0000
0000
,
0000
0000
0000
0000
,
0000
0000
0000
0000
,
0000
0000
0000
0000
0000
0000
0000
0000
0000
0000
0000
0000
0000
0000
0000
0000
0000
0000
0000
0000
0000
0000
0000
0000
0000
0000
0000
0000
0000
0000
0000
0000
0000
0000
0000
0000
0000
0000
0000
0000
0000
0000
0000
0000
0000
0000
0000
0000
0000
0000
0000
0000
0000
0000
0000
0000
0000
0000
0000
0000
0000
0000
0000
0000
0000
0000
0000
0000
0000
0000
0000
0000
0000
0000
0000
0000
0000
0000
0000
0000
0000
0000
0000
0000
0000
0000
0000
0000
0000
0000
0000
0000
0000
0000
0000
0000
0000
0000
0000
0000
0000
0000
0000
0000
0000
0000
0000
0000
0000
0000
0000
0000
0000
0000
0000
0000
0000
0000
0000
0000
0000
0000
0000
0000
0000
0000
0000
0000
0000
0000
0000
0000
0000
0000
0000
0000
0000
0000
0000
0000
0000
0000
0000
0000
0000
0000
0000
0000
0000
0000
0000
0000
0000
0000
0000
0000
0000
0000
0000
0000
0000
0000
0000
0000
0000
0000
0000
0000
0000
3003
0000
0000
0000
0000
0000
0000
0000
0000
0000
0000
0000
0000
0000
0000
0000
0000
0000
0000
0000
0000
0000
0000
;

//---------------dance-single - ----------------
#NOTES:
     dance-single:
     :
     Medium:
     7:
     0.300,0.409,0.113,0.354,0.000,230.000,16.000,50.000,0.000,0.000,0.000,0.300,0.409,0.113,0.354,0.000,230.000,16.000,50.000,0.000,0.000,0.000:
0000
0000
0000
0000
0001
0000
0000
0001
,
0000
0001
0000
0001
0002
0000
0000
0000
,
0000
0000
0000
0000
1003
0000
0000
1000
,
0000
1000
0000
1000
2000
0000
0000
0000
,
0020
0000
0000
3030
0001
0000
0000
0001
,
0000
0001
0000
0001
0002
0000
0000
0000
,
0000
0000
0000
0003
1000
0000
0000
1000
,
0000
1000
0000
0010
0200
0000
0000
0000
,
0002
0300
0000
0000
2003
0000
0000
0000
,
0000
0000
0000
0000
,
0000
0000
0200
0000
,
0000
0000
0000
0000
,
3300
0000
1000
0100
0010
0000
0001
0000
,
0010
0100
0000
0001
0000
0000
1000
0000
,
1000
1000
0000
2000
0000
0000
3010
0000
,
0100
0100
0000
0200
0000
0000
0310
1000
,
0000
0001
0000
0000
0100
0000
0100
0100
,
0000
1000
2000
0000
0000
0000
0000
0000
,
0000
3000
0010
0000
,
1001
0000
0011
0000
,
0011
1100
0010
0100
,
0001
1000
0000
0020
0000
0000
0000
0000
,
0000
0000
0000
0030
0000
0000
1000
0000
,
1000
1000
0000
0020
0000
0000
0000
0130
,
0000
0100
0000
0000
1000
0000
1000
1000
,
0000
0001
0002
0000
0000
0000
0000
0000
,
0000
0000
0000
0003
1000
0000
1100
0000
,
0010
0110
0001
0011
,
1000
0100
0010
0002
0000
0000
0000
0000
,
0000
0003
0010
0000
0100
0002
0000
0000
,
0000
0000
0000
0003
1000
0000
1000
0010
,
0000
0100
0000
0001
0000
1000
0002
0000
,
0000
0000
0003
0100
,
0010
0000
1000
0002
0000
0000
0000
0003
,
0100
0010
0000
2000
0000
0000
0000
0000
,
0000
0000
0000
3000
,
1000
0100
0010
0002
0000
0000
0000
0000
,
0000
0000
0000
0000
,
0003
1100
0000
0000
0200
0000
0000
0000
,
0000
0000
0300
0010
0000
0010
0000
1000
,
0000
0002
0000
0000
0000
0003
0100
0010
,
2000
0000
0000
0000
3000
0001
0000
0010
,
0002
0000
0000
0000
,
0000
0000
0003
0100
0000
1000
0000
0000
,
0000
0020
0000
0000
0030
0100
0000
0001
,
2000
0000
0000
0000
3000
0010
0000
0100
,
0002
0000
0000
0000
,
0003
0000
0000
1000
0000
0010
0000
0000
,
0000
0002
0000
0000
0000
2003
0000
0000
,
0000
3010
0000
0000
0102
0000
0000
0000
,
0000
2003
0000
0000
3020
0000
0000
0230
,
0000
0000
0000
0300
0000
0001
0000
0010
,
0000
0002
0000
0000
0000
0000
0000
0003
,
0000
1100
0000
0000
0000
0010
0100
0000
,
0002
0000
0000
0000
,
0000
0000
0000
0000
0000
0000
0003
1000
,
0100
0010
0000
1000
0001
0000
0100
0000
,
0000
0000
0010
1000
0001
0000
0100
0000
,
0000
0010
0000
0001
0000
0010
0000
0001
,
0000
0010
0000
0000
0001
0000
1020
0000
,
0000
0000
0000
0000
0000
0000
0000
0030
,
0000
0000
0000
0000
,
0000
1000
0000
0001
0000
0100
0000
0010
,
0000
1000
0000
0001
0000
0100
0000
0020
,
0000
0000
0000
0000
,
0030
0000
0000
0000
,
0000
1000
0000
0001
0000
0100
0000
0010
,
0000
1000
0000
0001
0000
0100
0000
0020
,
0000
0000
2030
0000
0000
3002
0000
0000
,
0000
0003
0000
1000
0100
0010
0002
0000
,
0000
0000
0003
0000
,
0000
0000
0000
1000
0000
0100
0000
0010
,
0000
0000
0000
0001
0000
0000
0010
0000
,
0000
0001
0000
0100
0000
0000
0010
0000
,
0000
0000
0000
0000
,
0000
0000
0000
0000
0000
0000
0000
1000
,
0000
0100
0000
0010
1000
0000
0001
0000
,
0000
0100
0000
0010
1000
0000
0001
0000
,
0002
0000
0000
0000
,
0003
0000
0000
0000
,
0000
1000
0000
0010
0100
0000
0001
0000
,
0000
1000
0000
0010
0100
0000
0001
0000
,
0000
0000
0000
0000
,
0000
0000
0000
0000
0000
0000
0000
2200
,
0000
3300
0000
0100
0000
0020
0000
0000
,
0000
0000
0030
1000
0100
0010
0002
0000
,
0000
0000
0000
0000
,
0000
0000
0000
0000
0000
0000
0000
0003
,
1000
0000
0000
0100
,
0000
0000
0000
0000
0000
0000
0000
0110
,
0000
0000
0000
0011
,
0000
0000
0000
0000
0000
0000
0000
0110
,
0000
0000
0000
1000
,
0000
0000
0000
0010
0000
0000
0100
0002
,
0000
0000
0000
0000
0000
0003
0200
0000
,
0000
0000
0000
0000
0000
0000
0000
0300
,
1000
1000
1000
1000
,
0010
0100
1000
1000
,
1000
1000
1000
0000
,
2002
0000
0000
0000
,
0000
0000
0000
0000
,
0000
0000
0000
0000
,
0000
0000
0000
0000
,
0000
0000
0000
0000
,
0000
0000
0000
0000
0000
0000
0000
3003
;

//---------------dance-single - ----------------
#NOTES:
     dance-single:
     :
     Easy:
     5:
     0.204,0.334,0.099,0.262,0.000,151.000,14.000,37.000,0.000,0.000,0.000,0.204,0.334,0.099,0.262,0.000,151.000,14.000,37.000,0.000,0.000,0.000:
0000
0000
0000
0000
0000
0010
0000
0000
,
0000
0000
0000
0010
0002
0000
0000
0000
,
0000
0003
0000
0000
1000
0000
0000
0000
,
0000
0000
0000
0100
0020
0000
0000
0000
,
0000
0030
1000
0000
,
0000
0000
0000
0100
0020
0000
0000
0000
,
0000
0000
0000
0030
1000
0000
0000
0000
,
0000
0000
0000
0001
0020
0000
0000
0000
,
0000
0030
2000
0000
,
0000
0000
0000
0000
,
3000
0000
0002
0000
,
0000
0000
0000
0000
,
0003
0000
0100
0000
,
1000
0100
0000
0020
0000
0000
0000
0000
,
0030
0000
0000
0001
,
0010
0001
0000
0020
0000
0000
0000
0030
,
0000
0000
0000
0000
1000
0000
0100
0010
,
0000
0001
0002
0000
0000
0000
0000
0000
,
0000
0003
0000
1100
,
0000
1100
0000
1100
,
0000
0020
0000
0030
,
1000
0100
0000
0010
0000
0000
0000
0000
,
0000
0000
0000
0010
,
0001
0010
0000
1000
0000
0000
0000
0000
,
0000
0000
0000
0000
0010
0000
0100
0001
,
0000
1000
0020
0000
0000
0000
0000
0000
,
0000
0030
0000
0000
0000
0000
1100
0000
,
0000
1100
0000
1100
,
0000
0000
0010
0000
0100
0000
0000
0001
,
0000
0000
0010
0000
0001
0010
0000
0000
,
0000
0000
0000
0000
0010
0000
0100
0001
,
0000
1000
0000
0010
0000
0100
0001
0000
,
0000
0000
0000
0000
,
1000
0100
0000
0010
0000
0000
0000
0000
,
0001
0010
0000
0001
0000
0000
0000
0000
,
0000
0000
0000
0000
,
1000
0000
0000
2200
0000
0000
0000
0000
,
0000
0000
0000
0000
,
3300
0110
0000
0000
1000
0000
0000
0000
,
0000
0000
0000
0100
0000
0010
0000
0000
,
0000
1000
0000
0000
0000
0010
0000
0001
,
0020
0000
0000
0000
0000
0030
0000
1000
,
0200
0000
0000
0000
,
0300
0000
0000
0000
0000
0000
0000
0010
,
0000
0002
0000
0000
0000
1003
0000
0010
,
0200
0000
0000
0000
0000
0300
0000
0000
,
0002
0000
0000
0000
,
0003
0000
0000
1000
0000
0000
0000
0100
,
0000
0020
0000
0000
0000
0000
0000
0030
,
0000
2000
0000
3000
0002
0000
0000
0000
,
0003
0200
0000
0300
0200
0000
0300
0200
,
0000
0000
0000
0300
0000
0010
0000
1000
,
0000
0002
0000
0000
0000
0000
0000
0000
,
0003
2000
0000
0000
3000
0010
0000
0000
,
0200
0000
0000
0000
,
0000
0000
0000
0000
0000
0000
0000
0300
,
0000
1100
0000
0100
0001
0000
0100
0000
,
0000
0000
0000
0010
1000
0000
0002
0000
,
0000
0000
0000
0000
,
0003
0000
0000
0000
,
0000
1000
0000
0000
0000
0010
0100
0000
,
0000
0000
0000
0001
1000
0000
0010
0000
,
0002
0000
0000
0000
,
0000
0000
0003
0000
,
0000
0000
0000
1000
0010
0000
0100
0000
,
0000
0000
0000
0001
0010
0000
0001
0000
,
0000
0000
0000
0000
,
0000
0000
0000
0000
0000
0000
0000
1000
,
0000
0000
0010
0000
0000
0100
0000
0000
,
0000
0000
0000
1000
0000
0000
0002
0000
,
0000
0000
0000
0000
,
0000
0000
0000
0000
,
0003
0000
0000
1000
,
0000
0000
0000
0010
0000
0100
0002
0000
,
0000
0000
0000
0000
0000
0000
0000
0003
,
0000
0000
0000
0100
0000
0000
0020
0000
,
0000
0000
0030
0000
0000
1000
0000
0000
,
0000
0000
0000
0100
,
2000
0000
0000
0000
,
0000
3000
0000
0100
,
0000
0000
0000
1000
,
0000
0000
0000
0010
,
0000
0000
0000
0000
0000
0001
0000
0010
,
0000
0000
0000
0000
0000
0000
0000
1000
,
0000
0000
0010
0000
0000
0100
0000
0000
,
0000
0000
0000
0010
0000
0000
2000
0000
,
0000
0000
0000
0000
,
0000
0000
0000
0000
0000
0000
3000
0001
,
0000
0000
0000
0100
,
0000
0000
0000
0000
0000
0000
0000
0010
,
0000
0000
0000
0001
,
0000
0000
0000
0000
0000
0000
0000
1100
,
0000
0000
0000
0110
,
0000
0000
0000
0000
0000
0000
0000
0011
,
0000
0000
0000
0110
,
0000
0000
0000
0000
0000
0000
0000
2000
,
0000
0000
0000
0000
,
0000
0000
0000
0000
,
0000
0000
3000
0000
,
2002
0000
0000
0000
,
0000
0000
0000
0000
,
0000
0000
0000
0000
,
0000
0000
0000
0000
,
0000
0000
0000
0000
,
0000
0000
0000
0000
0000
0000
0000
3003
;

//---------------dance-single - Copied from----------------
#NOTES:
     dance-single:
     Copied from:
     Beginner:
     3:
     0.154,0.204,0.028,0.057,0.000,140.000,4.000,8.000,0.000,0.000,0.000,0.154,0.204,0.028,0.057,0.000,140.000,4.000,8.000,0.000,0.000,0.000:
0000
0000
0000
0000
,
0000
0000
0000
0000
0000
1000
0000
0000
,
1000
0000
1000
0000
,
0000
0000
0002
0000
,
0003
0000
1000
0000
,
0000
0000
0020
0000
,
0000
0030
0000
0000
0100
0000
0000
0000
,
0000
0000
2000
0000
,
3000
0000
0002
0000
,
0003
0000
0000
0000
,
0000
0000
0200
0000
,
0300
0000
0000
0000
,
1000
0010
0100
0000
,
0000
0000
0000
1000
,
1000
1000
0000
0000
,
0000
0000
0001
0000
,
0001
0000
0100
0000
,
0000
0000
0000
0000
,
0010
0000
1000
0000
,
1001
0000
0110
0000
,
1000
0000
0100
0000
,
0010
0000
0010
0000
,
1000
1000
1000
0000
,
0000
0000
0001
0000
,
0010
0000
0100
0000
,
0001
0000
0010
0000
,
0100
0000
1001
0000
,
0001
0000
0011
0000
,
1000
0000
0100
0000
,
0010
0000
0001
0000
,
0000
0000
1000
0000
,
1000
0000
1000
0000
,
1000
0000
0100
0000
,
0000
0000
0010
0000
,
1000
0000
0001
0000
,
1000
0000
0100
0000
,
0010
0000
1000
0000
,
1000
0000
1000
0000
,
1000
0000
0000
0000
,
0100
0000
0000
0000
,
0000
1000
0000
0000
0000
0000
0000
0000
,
0000
0100
0000
0000
0000
0100
0000
0000
,
0000
0100
0000
0000
0000
0000
0000
0000
,
0000
0010
0000
0000
0000
0000
0000
0000
,
0000
0001
0000
0000
0000
0100
0000
0000
,
0000
1000
0000
0000
0000
0000
0000
0000
,
0000
1000
0000
0000
0000
1000
0000
0000
,
0000
1000
0000
0000
0000
0000
0000
0000
,
0000
0010
0000
0000
0000
0001
0000
0000
,
0000
0100
0000
0000
0000
0010
0000
0000
,
0000
0100
0000
0000
0000
0000
0000
2000
,
0000
0000
0000
3000
0000
0000
0000
0000
,
0000
0002
0000
0000
0000
0000
0000
0003
,
1000
0000
0000
0000
0000
0100
0000
0000
,
0000
1000
0000
0000
0000
0100
0000
0000
,
0000
1000
0000
0000
0000
0000
0100
0000
,
0000
0000
0000
1000
,
0000
0000
0000
0100
0000
0000
0000
0010
,
0000
0000
0000
1000
0000
0000
0000
0001
,
0000
0000
0000
0100
0000
0100
0000
0100
,
0000
0000
0000
0000
0000
0000
0000
0010
,
0000
0000
0000
0010
0000
0000
0000
0010
,
0000
0000
0000
0001
0000
0000
0000
1000
,
0000
0000
0000
0100
0000
0000
0000
0000
,
0000
0001
0000
0000
0001
0000
0000
0000
,
0000
0000
0000
1000
0000
0000
1000
0000
,
0000
0000
0000
0000
,
0000
0000
0000
0000
,
1000
0000
0001
0000
0000
0100
0000
0000
,
0000
0000
0000
0000
0010
0000
0000
1000
,
0000
0000
0000
0100
0000
0000
0000
1000
,
0000
0000
0000
0100
0000
0000
0000
0010
,
0000
0000
0000
0000
0000
0000
0000
1000
,
0000
0000
0000
0001
0000
0000
0000
0100
,
0000
0000
0000
1000
0000
0000
0000
0100
,
0000
0000
0000
0010
0000
0000
0000
0000
,
0000
0000
0000
1000
0000
0000
0000
1000
,
0000
0000
0000
1000
0000
0000
0000
1000
,
0000
0000
0000
0000
0000
0000
0000
0001
,
0000
0000
0000
0001
0000
0000
0000
0001
,
0000
0000
0000
0000
0000
0000
0000
1000
,
0000
0000
0000
1000
0000
0000
0000
1000
,
0000
0000
0000
0000
0000
0000
0000
0001
,
0000
0000
0000
1000
0000
0000
0000
0001
,
0000
0000
0000
0100
,
0000
0000
0000
0000
,
2000
0000
0000
0000
,
3000
0000
0000
0000
,
1000
0000
0000
0000
,
0100
0000
0000
0000
0000
0000
0000
1000
,
0000
0000
0000
0100
,
0000
0000
0000
0000
,
1000
0000
0000
0010
,
0000
0000
0000
0000
0000
0000
0000
1000
,
0000
0000
0000
0001
,
0000
0000
0000
0000
,
0100
0000
0000
0000
;
