#TITLE:Endless Summer Story;
#SUBTITLE:;
#ARTIST:DJ YOSHITAKA feat. Kanako Hoshino;
#TITLETRANSLIT:;
#SUBTITLETRANSLIT:;
#ARTISTTRANSLIT:;
#GENRE:;
#CREDIT:;
#BANNER:Endless Summer Story.png;
#BACKGROUND:Endless Summer Story-bg.png;
#LYRICSPATH:;
#CDTITLE:;
#MUSIC:Endless Summer Story.mp3;
#OFFSET:-1.099;
#SAMPLESTART:100.050;
#SAMPLELENGTH:12.000;
#SELECTABLE:YES;
#BPMS:0.000=95.000
;
#STOPS:
;
#BGCHANGES:;
#KEYSOUNDS:;
#ATTACKS:;

//---------------dance-single - ----------------
#NOTES:
     dance-single:
     :
     Hard:
     8:
     0.367,0.361,0.277,0.149,0.000,317.000,41.000,22.000,0.000,0.000,0.000,0.367,0.361,0.277,0.149,0.000,317.000,41.000,22.000,0.000,0.000,0.000:
0000
0000
1000
0000
1000
0000
0100
0010
,
0100
0010
1000
0000
1000
0000
0010
0100
,
0010
0100
0001
0000
0001
0000
1000
0001
,
1000
0001
1000
0000
1000
0000
0001
1000
,
0001
1000
1000
0000
1000
0000
0100
0010
,
0100
0010
0001
0000
0010
0000
0100
1000
,
0100
0010
0001
0000
0001
0000
1000
0100
,
0010
0100
0001
0000
0001
0200
2300
3200
,
0320
0032
1003
0000
0100
0000
0010
1000
,
0010
1000
0010
0010
0000
0000
0100
0001
,
0101
0000
0010
0000
0010
0000
1000
0010
,
1000
0010
0100
0001
1000
0000
0100
0010
,
0100
0010
1000
0000
0100
0000
1000
0001
,
1000
0001
0100
0000
0100
0000
0010
1000
,
0010
1000
0100
0000
0100
0000
1000
0010
,
1000
0100
0100
0100
,
0100
0001
0101
0000
0110
0000
1000
0010
,
1010
0000
0100
0001
0101
0000
0010
0100
,
0110
0000
1000
0001
1000
0001
0100
0010
,
1001
0000
0010
0100
0101
1000
0010
1000
,
0101
0000
0100
0010
0110
0000
1000
0001
,
1001
0000
0100
0010
0110
1000
1010
0100
,
0110
0000
0011
0100
0110
1000
0001
0100
,
0010
1000
2002
0000
0000
0000
0000
0000
,
3003
0000
0110
1000
1100
0100
0010
0100
,
0010
0002
0000
0000
0000
0000
0003
0100
,
0010
1000
0010
0001
0000
0100
0010
0100
,
0010
2000
0000
0000
3000
0000
0100
0010
,
1000
0100
0010
0001
0010
0100
0010
0100
,
0010
2000
0000
0000
3000
0100
0000
0010
,
1000
0001
1000
0001
0000
0100
0010
0100
,
0010
1000
0001
0001
1000
1000
0001
0001
,
0100
0100
0010
0010
1000
1000
0001
0001
,
0100
0000
1001
0000
0110
0000
1001
0100
,
1100
0100
0110
0000
0001
0010
0100
0010
,
0100
0010
1001
0000
1001
0000
1000
0010
,
1000
0010
1000
0000
1000
0000
1000
0000
,
0001
0000
0100
0000
0010
0000
1000
0100
,
0010
0001
0101
0010
0110
0000
1000
0001
,
1001
0000
0010
0100
0110
0000
1000
0100
,
1100
0000
0010
0001
0011
0000
0001
0100
,
0001
1000
0100
0010
0001
0100
0010
1000
,
0001
1000
2000
0000
0000
0000
0000
0000
,
0000
3002
0000
0000
,
0000
0203
0000
0000
,
0000
0320
0000
0000
,
0030
0000
1001
0000
0110
1000
0100
0010
,
0100
0002
0000
0000
1000
0103
0000
1000
,
0100
0010
1000
0001
0000
0100
0010
0100
,
0010
0100
1000
0100
1000
0100
0010
0100
,
0010
0100
0010
0001
0010
0001
0010
0100
,
0010
1000
1010
0100
0110
0010
0011
0001
,
0101
0101
0102
0000
0000
0000
0000
0000
,
0000
0000
0000
0000
,
0000
0000
1003
0000
0100
0000
1000
0010
,
1000
0010
0100
0010
0200
2300
3200
0320
,
0032
0000
2003
3000
1001
0000
0000
0000
0000
0000
0000
0000
0000
0000
0000
0000
;

//---------------dance-single - ----------------
#NOTES:
     dance-single:
     :
     Medium:
     6:
     0.251,0.266,0.162,0.068,0.000,226.000,24.000,10.000,0.000,0.000,0.000,0.251,0.266,0.162,0.068,0.000,226.000,24.000,10.000,0.000,0.000,0.000:
0000
1000
0000
0001
,
0100
0000
0001
0000
0100
0000
0010
1000
,
0010
1000
0010
0000
0000
0000
0001
0000
,
0001
0000
0001
0000
0000
0000
1000
0001
,
1000
0001
0100
0000
0000
0000
0010
1000
,
0010
0000
0101
0000
0010
0000
0010
0100
,
0010
0100
0010
0000
0010
0000
0001
0100
,
0001
0000
0001
0000
0001
1000
0100
0010
,
0001
1000
0001
0000
0001
0000
0000
0000
,
0001
0001
0001
0000
,
1000
1000
0000
0001
,
0001
0000
0001
0000
0000
0000
1000
0100
,
0010
0000
0001
0000
0001
0000
1000
0001
,
1000
0000
0010
0000
0010
0000
0100
0010
,
0100
0000
0001
0000
0001
0000
0100
0010
,
0100
0001
0001
0001
,
0001
2000
3000
0002
,
0003
2000
3000
0200
,
0300
0020
0030
0002
,
0003
2000
3000
0200
,
0300
1000
1001
0010
,
0110
1000
1001
0001
,
1001
1000
0100
0010
,
0001
2002
0000
0000
,
0000
3003
0110
1000
,
0110
0001
0001
1000
,
0100
0010
0100
0010
0000
0000
1000
0000
,
0001
1000
0001
1000
,
0010
1000
0010
0000
0010
0000
0100
0000
,
0100
0000
0001
0100
0001
0000
0100
0000
,
0100
0000
0010
0100
0000
0000
0010
1000
,
0010
1000
1000
0001
,
0001
0100
0100
0010
,
0010
0000
1000
0001
1000
0000
0001
1000
,
0001
0000
0100
0000
0100
0000
0010
1000
,
0010
0000
0100
0000
0100
0000
0010
0100
,
0010
0100
0010
0000
1000
0000
1000
0001
,
1000
0001
1000
0000
0010
0000
0100
0000
,
0001
1001
0001
0100
,
0010
1000
0100
0010
,
0001
1000
0010
1000
,
0010
0100
1001
1000
,
0100
0010
0100
0010
0000
0000
0010
0000
,
0000
0010
0000
0010
,
0000
0001
0000
1000
,
0000
0001
0000
1000
,
1001
0000
1001
0000
0110
0000
1000
0100
,
1001
0001
1001
1000
,
0001
1000
0001
1000
0000
0000
1000
0000
,
1010
0000
0100
0001
0100
0000
0100
0001
,
0100
0000
1000
0010
1000
0000
1000
0010
,
1000
1001
0101
1001
,
1001
1001
0000
0100
,
0000
1000
0001
1000
,
0000
1001
0000
1001
,
0000
0010
0100
0010
,
0000
1001
0000
0000
;

//---------------dance-single - ----------------
#NOTES:
     dance-single:
     :
     Easy:
     4:
     0.203,0.209,0.196,0.088,0.000,168.000,29.000,13.000,0.000,0.000,0.000,0.203,0.209,0.196,0.088,0.000,168.000,29.000,13.000,0.000,0.000,0.000:
0000
1000
1000
0000
,
0000
0001
0001
0000
,
0000
1000
1000
0001
,
0001
1000
1001
0001
,
1000
1001
0000
0010
,
0100
0110
0000
1000
,
0001
1001
0000
1000
,
0001
1001
1000
0002
,
0000
1003
0000
1000
,
0001
1000
0000
0010
,
0100
0010
0000
1000
,
0001
1000
0001
1000
,
0001
1001
0000
0010
,
0100
0110
1000
0001
,
1000
1001
0000
0001
,
1000
1001
0000
0100
,
0010
1001
0000
0001
,
1000
1001
0000
1000
,
0001
1001
0000
0010
,
0100
0110
0000
1000
,
0001
1000
1001
0001
,
1001
0100
0110
1000
,
1001
1000
0001
1000
,
0010
1001
0000
0000
,
0000
1000
1000
0001
,
0001
0100
0100
0010
,
0010
1000
1000
0001
,
0001
2002
3003
0100
,
0100
0010
0000
1000
,
0100
1000
0001
1000
,
0001
0100
0100
1000
,
1000
2000
0000
3002
,
0000
2003
0000
3002
,
0000
1003
1000
1000
,
1000
0100
0100
0010
,
0010
0001
0001
1000
,
1000
0010
1000
0010
,
1000
0001
0000
1000
,
1000
1000
0000
0001
,
0001
0001
0000
0100
,
0100
0100
0000
0010
,
1000
0001
0000
1000
,
0100
0020
0000
0000
,
0000
2030
0000
0000
,
0000
3020
0000
0000
,
0000
2030
0000
0000
,
3000
1001
1001
0010
,
0100
1001
1001
0010
,
0100
0110
0110
1000
,
0001
1000
0000
0001
,
0000
1000
0000
0001
,
0000
1000
1001
0001
,
1001
2002
0000
0000
,
3003
0100
0000
0100
,
0000
0100
0000
0100
,
0000
0100
0000
0100
,
0000
1001
0000
0000
;

//---------------dance-single - ----------------
#NOTES:
     dance-single:
     :
     Beginner:
     2:
     0.138,0.152,0.095,0.027,0.000,125.000,14.000,4.000,0.000,0.000,0.000,0.138,0.152,0.095,0.027,0.000,125.000,14.000,4.000,0.000,0.000,0.000:
0000
0001
0000
1000
,
0000
1000
0000
0001
,
0000
1000
0000
0001
,
0000
1000
0000
0100
,
0000
0010
0000
0001
,
0000
1000
0000
0001
,
0001
0001
0000
1000
,
0000
0001
0000
0100
,
0100
0100
0000
0000
,
0000
0001
0000
0000
,
0000
1000
0000
0000
,
0000
0001
0000
0100
,
0100
0100
0000
1000
,
1000
1000
0000
0001
,
0001
0001
0000
1000
,
1000
1000
0000
0100
,
0100
1001
0000
0100
,
0100
0100
0000
0010
,
0010
0010
0000
0100
,
0100
0100
0000
1000
,
1000
0000
1001
0000
,
1001
0000
0110
0000
,
0110
0000
1000
0001
,
1000
1001
0000
0000
,
0000
1000
1000
0001
,
0001
0000
0000
0000
,
0000
0010
0010
0100
,
0100
0000
0000
0000
,
0000
1000
1000
0001
,
0001
1000
1000
0001
,
0001
0100
0100
0010
,
0010
0100
0000
1001
,
0000
1001
0000
1001
,
0000
0100
0000
0010
,
0000
1001
0000
0000
,
0000
1000
0000
0001
,
0000
1000
0000
0000
,
0000
0010
0000
1000
,
0001
1001
0000
0100
,
0000
0010
0000
0100
,
0000
1000
0000
0001
,
0000
1001
0000
0000
,
0000
2000
0000
0000
,
3000
0002
0000
0000
,
0003
2000
0000
0000
,
3000
0002
0000
0000
,
0003
1000
0000
0010
,
0010
1000
0000
0100
,
0100
0001
0000
1000
,
1000
0010
0000
0001
,
0001
0100
0000
0100
,
1000
0001
0100
1000
,
0100
1001
0000
0000
,
0000
0100
0000
0000
,
0000
0100
0000
0000
,
0000
0100
0000
1000
,
0000
1001
0000
0000
;
