#TITLE:DIAVOLO;
#SUBTITLE:;
#ARTIST:Dokyou Kyoudai;
#TITLETRANSLIT:;
#SUBTITLETRANSLIT:;
#ARTISTTRANSLIT:;
#GENRE:;
#CREDIT:;
#BANNER:DIAVOLO.png;
#BACKGROUND:DIAVOLO-bg.png;
#LYRICSPATH:;
#CDTITLE:;
#MUSIC:DIAVOLO.mp3;
#OFFSET:-0.055;
#SAMPLESTART:100.030;
#SAMPLELENGTH:12.000;
#SELECTABLE:YES;
#BPMS:0.000=160.000
;
#STOPS:286.000=0.188
;
#BGCHANGES:;
#KEYSOUNDS:;
#ATTACKS:;

//---------------dance-single - ----------------
#NOTES:
     dance-single:
     :
     Hard:
     17:
     0.871,0.910,0.628,0.234,0.665,626.000,75.000,28.000,0.000,0.000,0.000,0.871,0.910,0.628,0.234,0.665,626.000,75.000,28.000,0.000,0.000,0.000:
0000
0000
0000
0000
,
0000
0000
0000
0000
,
0000
0000
0000
0000
,
0000
0000
0000
0000
,
0000
0000
0000
0000
,
1001
0000
0000
0001
1000
0100
0010
0001
1001
0000
0000
1000
0010
0100
0010
0100
,
0110
0000
0000
0100
1000
0100
0010
0001
0110
0000
0000
0001
0100
0010
0100
0010
,
0100
0000
0000
0001
1000
0100
0010
0001
0010
0000
0000
0000
0100
0010
0100
0010
,
0100
0000
0100
0010
0110
0000
1000
0001
1001
0000
0100
0010
0110
0000
1000
0100
,
1000
0010
0001
0100
0010
0100
0010
1000
,
1010
0100
0010
0001
0100
0010
0100
0010
,
0011
0100
0010
0100
0010
1000
0001
0010
,
0110
1000
0100
0010
0100
0001
0100
0010
,
0210
0000
0000
0000
0301
0100
0010
0100
0020
0000
0000
0031
1000
0100
0010
0001
,
0200
0000
0000
1300
0010
1000
0010
0100
0020
0000
0000
0031
1000
0100
0010
0001
,
0200
0000
0000
1300
0001
0010
1000
0010
0100
0000
0010
0000
0001
0000
0100
0000
,
0010
0100
0010
1000
0010
1000
0010
1000
,
1010
0100
0010
0100
0010
0100
0010
0001
,
0010
0100
0010
0100
0010
0100
0010
0100
,
1001
0100
0010
0100
0110
1000
0010
0100
,
1001
0100
0110
1000
0101
1000
1100
0100
,
2010
0000
0000
3010
0100
0010
0200
0000
,
0302
0000
0000
1003
0010
0100
0002
0000
,
0103
1000
0100
1000
0100
0010
0100
0010
0100
0001
1000
0010
0100
0010
0001
0100
,
0010
0100
0010
0100
0010
0100
0001
0100
0010
1000
0100
0010
0100
0001
0100
0010
,
0100
0010
0100
0010
1000
0100
0010
0100
,
2000
0000
3100
0010
0100
0010
0100
0010
,
0002
0000
0013
0100
0010
0110
0100
0010
,
1000
0000
0000
1010
0000
0000
0110
0000
0000
0100
0000
0000
0010
0000
0000
0000
1000
0000
0001
0000
1000
0000
0001
0000
,
0110
0000
0010
0110
0000
0100
0110
0000
1000
1001
0000
0001
,
1001
0000
0100
1100
0000
0010
0011
0000
0000
0210
0000
0000
,
0310
0000
1000
1010
0000
0100
0101
0000
0100
1010
1000
0001
,
1000
0100
0010
0001
1000
0100
0200
0300
0200
0300
0200
0300
,
1001
0000
1000
1001
0000
0100
0110
0000
0010
0110
0000
0001
,
1001
0000
0010
0110
0000
0100
0110
0000
1000
1100
0000
1000
,
0010
0001
0010
0100
1000
0100
0010
0001
0010
0100
1000
0100
,
0010
0001
1000
0010
0110
0100
0020
0000
0000
0200
0000
0300
,
0031
0000
0100
0010
0100
0000
0001
0100
0010
0000
1000
0010
0100
0000
0001
0010
,
0100
0000
0000
0000
0000
0000
0000
0000
0000
0000
0000
0000
0000
0000
0000
0000
0000
0000
0000
0000
0000
0000
0000
0000
0000
0000
0000
0000
0000
0000
0010
0000
0000
0000
0000
0000
0000
0000
0000
0000
0000
0000
0100
0000
0000
0000
0000
0000
0000
0000
0000
0000
0000
0000
0010
0000
0000
0000
0000
0000
0000
0000
0000
0000
0000
0000
0000
0000
0000
0000
0000
0000
0100
0000
0000
0000
0000
0000
0000
0000
0000
0000
0000
0000
0010
0000
0000
0000
0000
0000
0000
0000
0000
0000
0000
0000
0000
2000
0000
0000
0000
0000
0000
0000
0000
0000
0000
0000
0000
0000
0000
0000
0000
0000
0000
0000
0000
0000
0000
0000
0000
0000
0000
0000
0000
0000
0000
0000
0000
0000
0000
0000
0000
0000
0000
0000
0000
0000
0000
0000
0000
0000
0000
0000
3010
0000
0000
0000
0000
0000
0000
0000
0000
0000
0000
0000
0000
0000
0000
0000
0000
0000
0000
0000
0000
0000
0000
0000
0100
0000
0000
0000
0000
0000
0000
0000
0000
0000
0000
0000
0000
0000
0000
0000
0000
0000
0000
0000
0000
0000
0000
0000
,
0020
0000
0000
0000
1030
0100
0010
0001
0020
0000
0000
0000
0130
0000
0001
0000
,
0100
0000
1000
0000
0100
1000
0010
0001
0100
0010
0001
1000
0100
0001
0010
0100
,
2000
0000
0000
0000
3100
0010
0100
0000
0010
0000
0100
0000
0010
0000
0100
0000
,
2000
0000
0000
0000
3010
0100
0010
0000
0100
0000
0010
0000
0100
0000
0010
0000
,
2000
0000
3001
0100
0010
0100
0010
0010
,
0002
0000
0103
0010
0100
0010
0100
0010
,
1001
0000
0000
0000
0100
0010
0100
0010
0100
0010
0100
0000
0110
0000
0100
0000
,
1001
0000
0100
0010
0100
0010
0100
0010
0100
0000
0001
0000
0011
0000
0100
0000
,
1100
0100
0010
0100
0110
0100
0010
0100
,
0100
0010
0100
0010
0200
0000
0320
0000
,
1030
0000
0100
0000
0010
1000
0100
0001
0010
0100
1000
0000
0110
0000
0010
0000
,
1001
0000
0100
0000
0010
1000
0100
0001
0010
0100
0001
0000
0011
0000
0100
0000
,
0101
1000
0010
0100
0110
1000
0100
0010
,
0110
0000
1000
0000
0100
0000
0001
0000
1001
0000
1000
0100
1000
0100
0010
0100
,
0010
0001
0010
0001
0010
0100
0010
0100
1000
0100
1000
0100
1000
0100
0010
0100
,
0010
0001
0010
0001
0010
0100
0010
0100
1000
0000
0010
0000
0100
0000
0010
0000
,
0001
0100
0010
0100
0010
0100
0010
0100
,
0001
0000
0100
0000
0010
0000
0100
0000
1001
0000
0100
0010
0100
0010
0100
0000
,
0100
0000
0010
0000
0100
0000
0010
0000
0100
1000
0100
1000
0100
0000
1000
0000
,
0001
0010
0100
1000
0100
0010
0001
0000
0010
0000
0100
0001
0100
0001
0100
0000
,
0100
0000
1000
0000
0100
0000
0010
0000
0100
0000
0010
0100
0010
0100
0001
0000
,
1000
0100
0010
0001
0010
0100
1000
0000
0010
0000
0100
0000
0010
0000
0100
0000
,
1000
0100
0010
0001
0110
0100
0110
0100
,
1001
0100
0010
0100
0010
0100
1000
0100
,
0010
0001
0100
0100
0110
0100
0110
1000
,
1000
0001
1000
0001
1000
0001
1000
0001
1000
0000
0100
0000
0010
0000
0001
0000
,
0100
0010
0100
0010
0100
1000
0100
0010
,
0110
0100
1010
0100
0110
0001
0100
0010
,
0100
0001
0100
0001
0100
0010
1000
0010
,
0110
0010
0110
0010
0110
1000
0110
0010
,
0110
1000
0110
0001
1001
0100
0110
0100
,
0110
0100
0110
0010
0100
0010
0100
0010
,
0001
0010
0100
1000
0100
0010
0001
0010
0100
0000
2002
0000
0000
0000
0000
0000
,
0000
0000
0000
0000
,
0000
0000
0000
0000
,
0000
0000
0000
0000
,
3003
0000
0000
0000
;

//---------------dance-single - ----------------
#NOTES:
     dance-single:
     :
     Medium:
     14:
     0.776,0.879,0.385,0.284,0.577,569.000,46.000,34.000,0.000,0.000,0.000,0.776,0.879,0.385,0.284,0.577,569.000,46.000,34.000,0.000,0.000,0.000:
0000
0000
0000
0000
,
0000
0000
0000
0000
,
0000
0000
0000
0000
,
0000
0000
0000
0000
,
0000
0000
0000
0000
,
1001
0000
0000
1000
0001
0010
0100
1000
0001
0000
0000
0001
0100
0010
0100
0010
,
0100
0000
0000
0010
0001
0010
0100
1000
0010
0000
0000
1000
0010
0100
0010
0100
,
0010
0000
0000
1000
0001
0010
0100
1000
0100
0000
0000
0000
0010
0100
0010
0100
,
0010
0000
0010
0100
0010
0000
0001
1000
0001
0000
0010
0100
0010
0000
0001
0010
,
0001
0100
1000
0010
0100
0010
0100
0001
,
0001
0000
0100
1000
0000
0100
0010
0100
,
1000
0010
0100
0010
0000
0001
1000
0100
,
0100
0000
0010
0100
0010
1000
0010
0000
,
0120
0000
0000
0000
1030
0010
0100
0010
0200
0000
0000
1300
0001
0010
0100
1000
,
0020
0000
0000
0031
0100
0001
0100
0010
0200
0000
0000
1300
0001
0010
0100
1000
,
0020
0000
0000
0031
1000
0100
0001
0100
0010
0000
0100
0001
1000
0100
0010
0001
,
0100
0000
0100
0001
0100
0001
0100
0000
,
0101
0000
0100
0010
0100
0010
0100
0000
,
0110
0000
0100
0010
0100
0010
0100
0000
,
1001
0000
0100
0010
0110
0000
0100
0010
,
1001
0000
0110
0000
1010
0000
0011
0010
,
0102
0000
0000
0103
0010
0100
0020
0000
,
2030
0000
0000
3001
0100
0010
2000
0000
,
3010
0001
0010
0001
0010
0001
0010
0001
0010
0001
0010
0001
0010
0000
0000
0000
,
0100
1000
0100
1000
0100
1000
0100
1000
0100
1000
0100
1000
0100
0000
0000
0000
,
0020
0000
0030
0100
0001
0010
0100
0010
,
0002
0000
0003
0100
0010
0100
0010
0100
,
2000
0000
3100
0010
0200
0000
0310
0100
,
0001
0000
0000
0100
0000
0000
1000
0000
0000
0010
0000
0000
0100
0000
0000
0000
0001
0000
1000
0000
0001
0000
1000
0000
,
1010
0000
0010
0100
0000
0100
0010
0000
1000
0001
0000
0001
,
1000
0000
0001
0010
0000
0100
1000
0000
0000
0120
0000
0000
,
0130
0000
0001
0100
0000
0010
1000
0000
0001
0100
0001
1000
,
0001
0010
0100
1000
0001
0010
0020
0030
0020
0030
0020
0030
,
1001
0000
0001
1000
0000
0010
0100
0000
0100
0010
0000
1000
,
0001
0000
0100
0010
0000
0010
0100
0000
0001
0010
0000
0001
,
0100
1000
0100
0010
0001
0010
0100
1000
0100
0010
0001
0010
,
0100
1000
0001
0100
1000
0010
0200
0000
0000
0020
0000
0030
,
0301
0000
0100
0010
0100
0000
0001
0100
0010
0000
1000
0010
0100
0000
0001
0010
,
0100
0000
0000
0000
0000
0010
0000
0100
0000
0010
0000
0000
0100
0000
0010
0000
2000
0000
0000
0000
0000
0000
0000
0000
3010
0000
0000
0000
0100
0000
0000
0000
,
0020
0000
0000
0000
1030
0100
0010
0001
0020
0000
0000
0000
0130
0000
0001
0000
,
0100
0000
1000
0000
0100
1000
0010
0001
0100
0010
0001
1000
0100
0001
0010
0100
,
1002
0000
0013
0010
0100
0010
0100
0010
,
0002
0000
0103
0100
0010
0100
0010
0100
,
0002
0000
1003
0010
0100
0010
0100
0100
,
2000
0000
3010
0100
0010
0100
0010
0100
,
1001
0000
0000
0000
0010
0100
0010
0100
0010
0000
0010
0100
0010
0000
0010
0000
,
1001
0000
0010
0100
0010
0100
0010
0000
0010
0100
0010
0000
0010
0000
0010
0000
,
0011
0010
0100
0010
0100
0010
0100
0010
,
0010
0100
0010
0100
0020
0000
0230
0000
,
0301
0000
0001
0000
0010
0100
0001
1000
0010
0001
0100
0000
0011
0000
0000
0000
,
1100
0000
0001
0000
0010
0100
0001
1000
0010
0001
1000
0000
1010
0000
0000
0000
,
1001
0100
0010
0000
0011
0100
0001
0000
,
0011
0000
0100
0000
0001
0000
1000
0000
1100
0000
0001
0010
0001
0010
0100
0000
,
0100
1000
0100
1000
0100
0000
0100
0010
0001
0010
0001
0000
0001
0010
0100
0010
,
0100
0000
0100
1000
0100
0010
0100
0000
0001
0000
0100
0000
0010
0000
0100
0000
,
1000
0010
0100
0010
0100
0010
0100
0010
,
1000
0010
0100
0010
1001
0020
0100
0130
,
0010
0100
0010
0100
0020
0001
0031
0001
,
1000
0100
0010
0001
0010
0100
1000
0000
0100
0000
0020
0000
1000
0000
1030
0000
,
0010
0001
0010
0100
0010
0200
0010
0310
,
0001
0010
0100
1000
0100
0010
0001
0000
0100
0000
0010
0000
0110
0000
0000
0000
,
1001
0000
0100
1000
0010
0010
0110
0000
,
1001
0010
0100
0010
0100
0010
0001
0010
,
0100
1000
0010
0010
0110
0000
0110
0000
,
0001
1000
0001
1000
0001
0010
0100
1000
,
0010
0100
0010
0100
0010
0001
0010
0100
,
0110
0000
0101
0000
0110
1000
0010
0100
,
0010
1000
0010
1000
0010
0100
0001
0100
,
0110
0110
0110
0110
,
0110
0001
0110
1000
1001
0010
0110
0010
,
0110
0010
0110
0100
0010
0100
0010
0100
,
1000
0100
0010
0001
0010
0100
1000
0100
0010
0000
2002
0000
0000
0000
0000
0000
,
0000
0000
0000
0000
,
0000
0000
0000
0000
,
0000
0000
0000
0000
,
3003
0000
0000
0000
;

//---------------dance-single - ----------------
#NOTES:
     dance-single:
     :
     Beginner:
     5:
     0.200,0.251,0.226,0.126,0.000,125.000,27.000,15.000,0.000,0.000,0.000,0.200,0.251,0.226,0.126,0.000,125.000,27.000,15.000,0.000,0.000,0.000:
0000
0000
0000
0000
,
0000
0000
0000
0000
,
0000
0000
0000
0000
,
0000
0000
0000
0000
,
0000
0000
0000
0000
,
1001
0000
0000
0000
,
0110
0000
0000
0000
,
1001
0000
0000
0000
,
0110
0000
0110
0000
,
1000
0000
0000
0000
,
0100
0000
0000
0000
,
0010
0000
0000
0000
,
0001
0000
0010
0000
,
2000
0000
0000
0000
,
3002
0000
0000
0000
,
0203
0000
0000
0000
,
0320
0000
0000
0000
,
1030
0000
0000
0000
,
0110
0000
0000
0000
,
1001
0000
0000
0000
,
1001
0000
1001
0000
,
2000
0000
0000
3001
,
0200
0000
0000
0300
,
1000
0000
0000
0000
,
0100
0000
0001
0000
,
2000
0000
0000
3001
,
0002
0000
0000
0103
,
0100
0000
0010
0010
,
0000
0000
1000
0000
,
0001
1000
0001
0000
,
0100
0010
0100
0000
,
0010
0100
0010
0000
,
0001
1000
0001
0001
,
0001
0100
0010
0100
,
1000
0100
0010
0001
,
2000
0000
0000
0000
,
3002
0000
0000
0000
,
1003
0000
0000
0000
,
0100
0010
0100
0000
,
0001
0000
1000
0000
,
0001
0000
0100
0100
,
0100
0000
0000
0000
,
1000
0000
0000
0000
,
0001
0000
0000
0000
,
0100
0000
0000
0000
,
1001
0000
0000
0000
,
0110
0000
0000
0000
,
1001
0000
0000
0000
,
0100
0000
0020
0100
,
0130
0000
0000
0100
,
1001
0000
0010
0100
,
1001
0000
1001
0000
,
0110
0000
0110
0000
,
1000
0100
0010
0001
,
0010
0100
1000
0000
,
0010
0010
0010
0010
,
0010
0000
1000
1001
,
0000
0000
0010
0110
,
0200
0000
0300
0020
,
0000
0000
0030
2000
,
0000
0000
3000
0000
,
1001
0000
0000
0010
,
1001
0000
0000
0000
,
1001
0000
0000
0000
,
0110
0000
1000
0000
,
0010
0000
0100
0000
,
0001
0000
1000
0000
,
1000
0000
0001
0000
,
0001
0000
1001
0000
,
1001
0000
0110
0000
,
0110
0000
1000
0100
,
0010
0001
0002
0000
,
0000
0000
0000
0000
,
0000
0000
0000
0000
,
0000
0000
0000
0000
,
0003
0000
0000
0000
;

//---------------dance-single - ----------------
#NOTES:
     dance-single:
     :
     Easy:
     8:
     0.443,0.502,0.443,0.418,0.059,268.000,53.000,50.000,0.000,0.000,0.000,0.443,0.502,0.443,0.418,0.059,268.000,53.000,50.000,0.000,0.000,0.000:
0000
0000
0000
0000
,
0000
0000
0000
0000
,
0000
0000
0000
0000
,
0000
0000
0000
0000
,
0000
0000
0000
0000
,
1001
0000
0100
0010
0110
0000
0001
1000
,
1001
0000
0100
0010
0110
0000
1000
0000
,
1001
0100
0110
1000
,
1001
0100
0010
0100
0002
0000
0000
0000
,
1003
0100
0010
1000
,
1001
0100
0010
0100
,
1001
0000
0100
0000
0100
0000
1000
0100
,
0010
0000
1000
0000
0000
0010
0100
0000
,
2000
0000
0000
0000
0002
0000
0000
3000
,
0200
0000
0000
0003
0020
0000
0300
0000
,
0002
0030
0203
0000
,
0320
0000
2030
0000
,
3100
0100
0100
0100
,
1000
0100
0010
0001
,
1000
0000
1001
0000
,
0110
0000
1001
1001
,
2000
0000
0000
0000
,
3020
0000
0000
0000
,
0230
0000
0000
0000
0000
0000
0000
0300
,
2002
0000
0000
0000
0000
0000
0000
3003
,
0200
0000
0010
0001
,
0320
0000
0100
1000
,
2030
0000
0200
0300
,
3200
0000
0000
0000
0010
0000
0010
0300
,
1001
0110
1001
1100
,
0110
0000
0000
0011
0000
0000
2002
0000
0000
0000
0000
3003
,
0110
1001
0110
1001
,
1000
0100
0010
0001
0010
0100
2000
0000
0010
0000
0010
0000
,
3010
0010
0010
0010
,
1001
0110
1001
0110
,
1000
0100
0010
0001
0000
0000
0010
0100
0010
0100
0000
0000
,
0010
1000
0010
1000
0010
1000
0020
0000
0000
0000
0000
0000
,
0130
1000
0100
0010
,
0001
0010
2000
0001
,
3002
0203
0320
2030
,
3200
0010
0010
0010
,
0302
0000
0000
0000
0100
0000
0100
0003
,
2020
0000
0000
3030
,
0202
0000
0000
0303
,
1000
0100
0010
0001
,
2000
0000
0010
0000
0010
0000
0010
3000
,
0102
0000
0100
0000
0100
0000
0100
0003
,
2010
0000
0010
3000
0210
0000
0010
0300
,
0010
0010
1001
1001
,
2000
0000
0010
0000
0010
0000
0001
3000
,
0102
0000
0100
0000
0100
0000
0100
0003
,
2010
0000
0010
3000
0101
0000
0010
0000
,
0110
0000
0101
0000
1001
0000
0100
0010
,
0001
0100
1000
0100
0010
0100
0001
0010
,
0100
1000
0100
0010
0010
0000
1000
0000
,
0100
0010
0001
0010
,
0100
0000
1000
0000
1000
0100
0010
0001
,
0100
0000
0000
0000
0001
0010
0100
1000
,
0100
0000
0010
0000
1000
0100
0010
0001
,
0200
0000
0310
0000
0010
0100
0010
0100
,
0002
0000
0203
0000
0310
0100
0010
0100
,
1010
0000
0100
0000
0010
0000
0100
0010
,
0110
1000
0001
1000
,
1000
0100
0010
0001
,
1001
0100
0020
1000
,
1000
0000
1000
0030
2000
0000
0010
0000
,
0010
0000
0010
3000
0102
0000
0100
0000
,
0100
0000
0100
0003
0201
0000
0001
0000
,
0001
0000
0001
0300
1001
0000
0100
0000
,
0110
1001
0110
1000
,
1100
0100
0010
0100
,
0001
0010
0100
1000
0001
2002
0000
0000
,
0000
0000
0000
0000
,
0000
0000
0000
0000
,
0000
0000
0000
0000
,
3003
0000
0000
0000
;
