#TITLE:Cleaner (GROOVE RADAR Special);
#SUBTITLE:;
#ARTIST:DOIN;
#TITLETRANSLIT:;
#SUBTITLETRANSLIT:;
#ARTISTTRANSLIT:;
#CREDIT:;
#BANNER:Cleaner (GROOVE RADAR Special).png;
#BACKGROUND:Cleaner (GROOVE RADAR Special)-bg.png;
#LYRICSPATH:;
#CDTITLE:;
#MUSIC:Cleaner (GROOVE RADAR Special).mp3;
#OFFSET:0.035;
#SAMPLESTART:100.050;
#SAMPLELENGTH:12.000;
#SELECTABLE:YES;
#BPMS:0.000=203.000,16.000=406.000,32.000=203.000,51.000=101.500,52.000=203.000,57.500=101.500,59.375=203.000,66.875=101.500,67.625=203.000,80.375=101.500,80.875=203.000,89.375=101.500,89.875=203.000,90.375=406.000,105.375=203.000,181.625=101.500,182.125=203.000,218.625=101.500,220.250=203.000,245.750=101.500,247.250=203.000,249.250=101.500,250.250=203.000,252.250=101.500,253.250=203.000,255.250=101.500,256.500=203.000,282.000=101.500,283.000=203.000;
#STOPS:58.250=0.074
,58.625=0.074
,59.000=0.074
,67.625=0.074
,161.875=0.074
,162.375=0.074
,162.875=0.074
,163.375=0.074
,163.875=0.074
,219.375=0.074
,219.750=0.074
,220.125=0.074
;
#BGCHANGES:;

//---------------dance-single - ----------------
#NOTES:
     dance-single:
     :
     Challenge:
     19:
     1.000,1.000,1.000,1.000,1.000: // measure 1
0000
0000
0000
0000
,  // measure 2
0000
0000
0000
0000
,  // measure 3
0000
0000
0000
0000
,  // measure 4
0000
0000
0000
0000
,  // measure 5
2020
0000
0000
0000
,  // measure 6
0000
0000
0000
0000
,  // measure 7
0000
0000
0000
0000
,  // measure 8
0000
0000
0000
3030
,  // measure 9
0202
0000
0000
0000
,  // measure 10
0000
0000
0000
0000
0000
0000
0000
0303
,  // measure 11
0220
0000
0000
0000
0000
0300
1030
0200
,  // measure 12
0020
0000
0000
0330
0220
0000
0000
0330
,  // measure 13
0022
0000
0000
0000
0000
0000
0000
0000
0033
0000
0000
0000
2200
0000
0000
0000
0000
0000
0000
0000
0000
0000
0000
0000
3322
0030
2203
3300
0202
0000
0303
0000
,  // measure 14
0101
0000
0100
0000
0101
0000
1000
0000
0010
0000
0100
0010
0110
0000
1000
0000
,  // measure 15
0100
0000
0000
0000
0010
0000
0000
0000
0000
0000
0000
0000
1001
0000
0000
0000
0000
0000
2002
3003
0000
2002
3003
0000
0220
0330
0000
0220
0000
0330
0000
0000
,  // measure 16
0000
0000
0000
1000
0000
0000
0000
0100
0000
0000
0000
0010
0000
0000
0000
0001
0000
0000
0000
0101
0000
0000
0000
1000
0000
0000
0000
0010
0000
0000
0000
0100
,  // measure 17
0000
0000
0000
0110
0000
0000
0000
0000
0000
0000
0000
0010
0000
0000
0000
1000
0000
0000
0000
0110
0000
0000
0000
0020
0000
0000
0000
0000
0000
1030
0000
0000
,  // measure 18
0000
0000
0000
0100
0000
0000
0000
0010
0000
0000
0000
0100
0000
0010
0000
0001
0000
0010
0000
0100
0000
0010
0000
1000
0000
0000
0000
1010
0000
0000
0000
0100
,  // measure 19
0000
0000
0000
0010
0000
0000
0000
0001
0000
0000
0000
0100
0000
0000
0000
0010
0000
0000
0000
0100
0000
0000
0000
0000
0000
0000
0000
0010
0000
0001
0000
0000
,  // measure 20
0000
0000
0000
0200
0000
2300
0000
3020
0000
0032
0000
0203
0000
2300
0000
3002
0000
0023
0000
0230
0000
2300
0000
3020
0000
0032
0000
0203
0000
2300
0000
3020
,  // measure 21
0000
0032
0000
2003
0000
0000
0000
3010
0000
0000
0000
0100
0000
0000
0000
0010
0000
1000
0000
0100
0000
0010
0000
0001
0000
0010
0000
0110
0000
0000
0000
0010
,  // measure 22
0000
0000
0000
1000
0000
0000
0000
0010
0000
0001
0000
0100
0000
1000
0000
0001
0000
0010
0000
0100
0000
0001
0000
0101
0000
0000
0000
1000
0000
0000
0000
0010
,  // measure 23
0000
0000
0000
0100
0000
0000
0000
0010
0000
0000
0000
0100
0010
0001
0010
0110
0000
0000
0000
2002
0000
0000
0000
0000
0000
0000
0000
0000
0000
0000
0000
0000
,  // measure 24
0000
0000
0000
0000
,  // measure 25
0000
0000
0000
0000
,  // measure 26
0000
0000
0000
0000
,  // measure 27
0000
0000
0000
0000
0000
0000
0000
0000
0000
0000
0000
3003
0000
0000
0000
2000
0000
0010
0000
3100
0000
0000
0000
0110
0000
0000
0000
0110
0000
0000
0000
0020
,  // measure 28
0000
1000
0000
0130
0000
0000
0000
0011
0000
0000
0000
0110
0000
0000
0000
2000
0000
0010
0000
3100
0000
0000
0000
0011
0000
0000
0000
0101
0000
0000
0000
0200
,  // measure 29
0000
1000
0000
0310
0000
0000
0000
0110
0000
0000
0000
0011
0000
0000
0000
2000
0000
0010
0000
3100
0000
0000
0000
0010
0000
0000
0000
0001
0000
0000
0000
0010
,  // measure 30
0000
0100
0000
0110
0000
0000
0000
0010
0000
0000
0000
0100
0000
0010
0000
0001
0000
0010
0000
0100
0000
1000
0000
0010
0000
0001
0000
0100
0000
0010
0000
0001
,  // measure 31
0000
0010
0000
0000
0000
1000
0000
0100
0000
0000
0000
0202
0000
0000
0000
0000
0000
0000
0000
0000
0000
0000
0000
0300
0000
0000
0000
0103
0000
0000
0000
0200
,  // measure 32
0000
1000
0000
0310
0000
0000
0000
0100
0000
0000
0000
0010
0000
0000
0000
2000
0000
0010
0000
3100
0000
0000
0000
0010
0000
0000
0000
0001
0000
0000
0000
0010
,  // measure 33
0000
0000
0000
0100
0000
0000
0000
0010
0000
0000
0000
0100
0000
0000
0000
0020
0000
0230
0000
0310
0000
0000
0000
2000
0000
3200
0000
1300
0000
0000
0000
0002
,  // measure 34
0000
0023
0000
0031
0000
0000
0000
0200
0000
0320
0000
0130
0000
0000
0000
0020
0000
0230
0000
0310
0000
0000
0000
2000
0000
3002
0000
1003
0000
0000
0000
0010
,  // measure 35
0000
0100
0000
0010
0000
0100
0000
0010
0000
0000
0000
0100
0000
0000
0000
0010
0000
0001
0000
0010
0000
0001
0000
0010
0000
0000
0000
1100
0000
0000
0000
1100
,  // measure 36
0000
0000
0000
0010
0000
0100
0000
0010
0000
0100
0000
0010
0000
0000
0000
0001
0000
0000
0000
0100
0000
0000
0000
0010
0000
0100
0000
0010
0000
0100
0000
1000
,  // measure 37
0000
0000
0000
1000
0000
0000
0000
1010
0000
0000
0000
1010
0000
0000
0000
0100
0000
0010
0000
0100
0000
0000
0000
0001
0000
0000
0000
0001
0000
0000
0000
1000
,  // measure 38
0000
0100
0000
0010
0000
0001
0000
0010
0000
0000
0000
0010
0000
0000
0000
1000
0000
0000
0000
1001
0000
0000
0000
0001
0000
0000
0000
0100
0000
0000
0000
0010
,  // measure 39
0000
0000
0000
0100
0000
0000
0000
0010
0000
0000
0000
2002
0000
0000
0000
0000
0000
0000
0000
0000
0000
3003
0000
0200
0000
1000
0000
0310
0000
0001
0000
0100
,  // measure 40
0000
1000
0000
0010
0000
0001
0000
1000
0000
0010
0000
0100
0000
1000
0000
0010
0000
0100
0000
0001
0000
0010
0000
0100
0000
1000
0000
0010
0000
0001
0000
1000
,  // measure 41
0000
0010
0000
1000
0000
0001
0000
1000
0000
0100
0000
0010
0000
0001
0000
2002
0000
3003
0000
0202
0000
0303
0000
0022
0000
0033
0000
0220
0000
0330
0000
2200
,  // measure 42
0000
3300
0000
1001
0000
0000
0000
0100
0000
0010
0000
0001
0000
0010
0000
0100
0000
0010
0000
0000
0000
0001
0000
0000
0000
0100
0000
1000
0000
0010
0000
1000
,  // measure 43
0000
0100
0000
1000
0000
1010
0000
0000
0000
0000
0000
0000
0000
0110
0000
0000
0000
0000
0000
0000
0000
0110
0000
0000
0000
0010
0000
1000
0000
0100
0000
0010
,  // measure 44
0000
0100
0000
0010
0000
0110
0000
0000
0000
0000
0000
0000
0000
1000
0000
0000
0000
0100
0000
0000
0000
0010
0000
0000
0000
0001
0000
0000
0000
0010
0000
0000
,  // measure 45
0000
0100
0000
0000
0000
0100
0000
0001
0000
0000
0000
0000
0000
2000
0000
3200
0000
0320
0000
0032
0000
0203
0000
2300
0000
3020
0000
0032
0000
0203
0000
0320
,  // measure 46
0000
0032
0000
0023
0000
0230
0000
0300
0000
0000
0000
0000
0000
0002
0000
0000
0000
1003
0000
0000
0000
0001
0000
0000
0000
0100
0000
0000
0000
0010
0000
0000
,  // measure 47
0000
0110
0000
0000
0000
1000
0000
0000
0000
0100
0000
0000
0000
0000
0000
0000
0000
0010
0000
1000
0000
0001
0000
0100
0000
0010
0000
0000
0000
0000
0000
0000
,  // measure 48
0000
1010
0000
0000
0000
0000
0000
0000
0000
0100
0000
0000
0000
0010
0000
0000
0000
0001
0000
0000
0000
0100
0000
0000
0000
0011
0000
0000
0000
0000
0000
0000
,  // measure 49
0000
2002
0000
0000
0000
0000
0000
0000
0000
0000
0000
0000
0000
0000
0000
0000
0000
0000
0000
0000
0000
0000
0000
0000
0000
0000
0000
0000
0000
0000
0000
0000
,  // measure 50
0000
0000
0000
0000
0000
0000
0000
0000
0000
0000
0000
0000
0000
0000
0000
0000
0000
0000
0000
0000
0000
0000
0000
0000
0000
0000
0000
0000
0000
3003
0000
0000
,  // measure 51
0000
0110
0000
0000
0000
0000
0000
0000
0000
1000
0000
0000
0000
0100
0000
0000
0000
0010
0000
0000
0000
0101
0000
0000
0000
0100
0000
0000
0000
0010
0000
0000
,  // measure 52
0000
0100
0000
0000
0000
0010
0000
0000
0000
1000
0000
0000
0000
0100
0000
0000
0000
0110
0000
0000
0000
0010
0000
0000
0000
1000
0000
0000
0000
0010
0000
0000
,  // measure 53
0000
0110
0000
0000
0000
0100
0000
0000
0000
1100
0000
0000
0000
0010
0000
0000
0000
0001
0000
0000
0000
0010
0000
0000
0000
0110
0000
0000
0000
0010
0000
0000
,  // measure 54
0000
0100
0000
1000
0000
0010
0000
0100
0000
0110
0000
0000
0000
1000
0000
0000
0000
0110
0000
0000
0000
0010
0000
0000
0000
0001
0000
0000
0000
0010
0000
0100
,  // measure 55
0000
0110
0000
0000
0000
1000
0000
0000
0000
0100
0000
0000
0000
0010
0000
0000
0000
0001
0000
0000
0000
0011
0000
0000
0000
0000
0000
0220
0330
0000
0220
0330
,  // measure 56
0000
2002
3003
0000
0000
0000
1010
0000
0000
0000
0000
0000
0000
0000
0010
0000
0000
0000
0100
0000
0000
0000
0010
0000
0000
0000
0100
0000
0000
0000
0110
0000
,  // measure 57
0000
1000
0000
0100
0000
0010
0000
0110
0000
1000
0000
0000
0000
0001
0000
0110
,  // measure 58
0000
0100
0001
0100
0001
0100
0001
0101
0000
1000
0000
0100
0000
0010
0000
0001
,  // measure 59
0000
0100
1000
0010
0000
0100
0001
0010
0000
0100
0000
0010
0000
0100
1000
0010
,  // measure 60
0000
1000
0000
0100
0000
0010
1000
0001
0000
0100
0001
0100
0001
0010
0000
0100
,  // measure 61
1000
0010
0000
0100
0001
0010
0000
1000
0000
0100
0000
0010
0000
0001
0000
0100
,  // measure 62
0000
0010
0000
0100
0000
1010
0000
0022
0000
0000
0000
0000
0000
0000
0000
0000
,  // measure 63
0000
2030
0000
0000
0000
0000
0000
0000
0000
0000
0000
0000
0000
3200
0000
0000
,  // measure 64
0000
0000
0000
0000
0000
0000
0000
0000
0000
2300
0000
0000
0000
0000
0000
0000
,  // measure 65
0000
3003
0200
0000
2300
0000
3100
0000
,  // measure 66
0010
1000
1100
0000
0010
0001
0011
0000
,  // measure 67
0100
0010
0110
0000
1000
0100
0110
0000
,  // measure 68
0100
0001
0101
0000
0010
0100
0011
0000
,  // measure 69
1001
0000
0010
0000
1001
0000
1000
0000
0010
1000
0100
1000
0010
1000
0100
1000
,  // measure 70
0010
0000
0100
0000
0110
0000
1000
0000
0100
0000
0010
0000
0001
0000
0100
1000
,  // measure 71
0010
0000
0100
1000
0010
0000
1000
0000
0002
0000
0000
0000
1003
0000
0010
0000
,  // measure 72
0100
0000
1001
0000
0100
1000
0010
0000
0100
0010
0100
0000
0100
0001
0010
0000
,  // measure 73
2002
0000
0000
0000
,  // measure 74
0000
0000
0000
0000
3100
1000
0023
0000
,  // measure 75
1030
0100
0010
0000
0110
0000
0110
0000
0100
0010
1000
0000
1010
0000
1010
0000
,  // measure 76
0001
1000
0001
0000
1001
0000
1001
0000
0010
0100
0010
0000
0110
0000
0110
0000
,  // measure 77
0100
0000
0001
0000
0001
0000
0001
0000
0010
1000
0010
0000
1010
0000
1010
0000
,  // measure 78
1100
1001
0011
0101
1001
1100
0011
2000
,  // measure 79
0000
0000
3010
0100
0010
0100
0010
0100
,  // measure 80
0010
1000
0100
0010
0001
0100
0010
0100
,  // measure 81
0010
1000
0010
0100
0010
0001
0100
0010
,  // measure 82
1000
1010
1001
0000
1001
0000
1001
0000
,  // measure 83
1000
0010
1000
0010
1000
0010
1000
0010
1000
0010
1000
0010
1000
0010
1000
0010
,  // measure 84
1000
0010
1000
0010
1000
0010
1000
0010
1000
0010
1000
0010
1000
0010
1000
0010
,  // measure 85
0100
0010
0100
0010
0100
0010
0100
0010
0100
0010
0100
0010
0100
0010
0100
0010
,  // measure 86
0100
0001
0010
0001
0010
0001
0010
0001
0010
0001
0010
0001
0010
0001
0202
0000
,  // measure 87
0000
0000
1303
0010
1000
0100
0010
0001
,  // measure 88
0100
0010
1010
0100
0010
1000
0010
0100
,  // measure 89
1010
1010
1010
1010
,  // measure 90
0101
0000
0100
0010
0001
0010
0100
0010
0001
0010
0100
0010
0001
0010
0100
0000
,  // measure 91
0101
0000
0000
0000
,  // measure 92
0000
1001
0000
0000
;
