#TITLE:Bad Maniacs;
#SUBTITLE:-From Ways For Liberation album-;
#ARTIST:kors k;
#TITLETRANSLIT:;
#SUBTITLETRANSLIT:;
#ARTISTTRANSLIT:;
#GENRE:;
#CREDIT:;
#BANNER:Bad Maniacs (From Ways For Liberation).png;
#BACKGROUND:Bad Maniacs (From Ways For Liberation)-bg.png;
#LYRICSPATH:;
#CDTITLE:;
#MUSIC:Bad Maniacs (From Ways For Liberation).mp3;
#OFFSET:-0.051;
#SAMPLESTART:39.123;
#SAMPLELENGTH:12.000;
#SELECTABLE:YES;
#BPMS:0.000=195.000
,133.000=390.001
,137.000=195.000
,138.000=390.001
,144.000=195.000
,157.000=390.001
,165.000=195.000
,217.000=390.001
,233.000=195.000
,280.500=390.001
,283.500=195.000
,318.000=780.001
,334.000=390.001
;
#STOPS:63.000=3.692,
115.000=1.231,
119.000=0.923,
124.000=1.231,
128.000=0.923,
137.000=0.308,
243.500=0.077,
243.750=0.077
;
#BGCHANGES:;
#KEYSOUNDS:;
#ATTACKS:;

//---------------dance-single - ----------------
#NOTES:
     dance-single:
     :
     Hard:
     15:
     0.674,1.000,0.561,0.245,0.387,384.000,55.000,24.000,0.000,0.000,0.000,0.674,1.000,0.561,0.245,0.387,384.000,55.000,24.000,0.000,0.000,0.000:
1001
1100
1010
1001
,
1010
0000
1100
0000
1000
0001
1000
0001
,
1000
1001
1010
0110
,
0100
0010
0100
0000
0100
0010
0100
0000
,
1001
0000
0000
0000
0110
0000
0000
0000
0100
0000
0000
0000
0100
0010
0000
0000
,
0100
0000
0100
0001
0100
0001
0100
0001
,
0100
0100
0100
0100
,
1000
0010
0110
0000
1000
0001
0110
0000
,
1001
0100
0100
0100
,
0100
0000
2020
0000
0000
3030
0000
0100
,
1000
0100
0010
0010
1000
0100
0001
0100
,
1000
0000
0100
0010
0100
0001
1000
0000
,
0110
1001
0011
1100
,
0110
0000
1001
0000
0110
0000
1000
0100
,
0010
0001
0100
0010
0100
0001
1000
0010
,
0100
0000
0000
0000
0000
0000
0000
0000
0000
0000
0000
0000
0000
0000
0000
0000
2000
0000
0000
0000
0000
0000
0000
0000
0000
0000
0000
0000
0000
0000
0000
0000
0000
0000
0000
0000
0000
0000
0000
0000
0000
0000
0000
0000
0000
0000
0000
0000
0002
3003
0000
0000
0000
0000
0000
0000
0000
0000
0000
0000
0000
0000
0000
0000
,
0100
0000
0000
1000
,
0000
0100
0000
0100
0000
0000
0010
0000
,
0010
0000
0000
0000
,
0001
0000
0000
0001
0000
0100
0000
0000
,
1000
0100
0000
0010
0000
0010
0000
0000
,
0100
0000
0100
0010
1000
0010
0000
0000
,
0100
0000
0100
0010
0000
0010
0000
0000
,
1000
0100
0100
0000
,
0000
1000
0100
0000
0010
0000
0002
0000
,
0000
0000
1003
0000
,
0000
0000
0000
0100
,
0000
0100
0000
0000
,
1000
0000
0000
0000
0000
0000
0000
0000
0000
0000
0000
0000
0000
0000
0000
0000
0000
0000
0000
0000
0000
0000
0000
0000
0000
0000
0000
0000
0000
0000
0000
0000
0000
0000
0000
0000
0000
0000
0000
0000
0000
0000
0000
0000
0000
0000
0000
0000
2002
3003
0000
0000
0000
0000
0000
0000
0000
0000
0000
0000
0000
0000
0000
0000
,
0000
0000
0000
0000
0000
0000
0000
0000
0000
0000
0000
0000
0000
0000
0000
0000
0000
0000
0000
0000
0000
0000
0000
0000
0000
0000
0000
0000
0000
0000
0000
0000
0110
0000
0000
0000
0000
0000
0000
0000
0000
0000
0000
0000
0000
0000
0000
0000
0220
0330
0000
0000
0000
0000
0000
0000
0000
0000
0000
0000
0000
0000
0000
0000
,
2000
3001
0002
1003
,
0220
0330
0000
0000
0000
0000
0000
0000
0000
0000
0000
0000
0000
0000
0000
0000
0100
0000
0000
0000
0000
0000
0000
0000
0000
0000
0000
0000
0000
0000
0000
0000
0100
0000
0000
0000
0000
0000
0000
0000
0000
0000
0000
0000
0000
0000
0000
0000
0110
0000
0000
0000
0000
0000
0000
0000
0000
0000
0000
0000
0000
0000
0000
0000
,
0220
0330
0000
0000
0000
0000
0000
0000
0000
0000
0000
0000
0000
0000
0000
0000
0000
0000
0000
0000
0000
0000
0000
0000
0000
0000
0000
0000
0000
0000
0000
0000
0000
0000
0000
0000
0000
0000
0000
0000
0000
0000
0000
0000
0000
0000
0000
0000
0000
0000
0000
0000
0000
0000
0000
0000
0000
0000
0000
0000
0000
0000
0000
0000
,
0000
2002
0000
0000
,
0000
3003
0200
0000
,
0000
0000
0000
0000
,
0310
0000
0000
0000
0100
0000
0000
0000
0100
0000
0000
0000
0010
0000
0000
0010
,
0000
0000
0010
0000
0000
0100
0000
0000
0000
0000
0000
0000
0100
0000
0000
0100
,
0000
0100
0010
0000
0000
1000
1000
0000
,
0000
0002
0000
0000
,
0000
0000
0000
0000
,
0000
0000
0000
0000
1003
0000
0000
0000
0000
0000
0000
0000
0100
0000
0000
0100
,
0000
0000
0100
0000
0010
0000
0000
0000
0000
0000
0000
0000
0010
0000
0000
0010
,
0000
0010
0100
0000
1001
0000
1001
0000
,
0000
1001
1100
1001
,
1100
0110
1001
0011
,
0110
0011
1001
0110
,
1001
0110
1100
0101
,
0110
0000
0000
0000
0100
0000
0000
0010
0001
0000
0000
1000
0100
0000
0000
0001
,
0100
0000
0000
0100
0010
0000
0000
0100
1000
0000
0000
0001
0010
0000
0000
1000
,
0010
0000
0000
0100
0010
0000
0100
0010
0001
0000
0100
1000
0100
0000
0010
0100
,
0001
0000
0010
0100
0010
0000
0001
0010
0100
0000
1000
0100
0010
0000
0001
0010
,
0001
0000
0100
0010
0001
1000
0001
1000
0001
1000
0001
1000
0001
1000
0001
1000
,
0001
1000
0001
1000
0001
0100
0010
0100
0010
0100
0010
0100
0010
0100
0010
0100
,
0010
0100
0010
0100
0010
0000
0001
0000
0010
0000
0001
0000
0010
0000
0001
0000
,
0010
0001
0010
0001
0010
0001
0010
0001
,
0010
0001
0010
0100
0010
0100
0010
0100
,
0010
0100
0010
0100
0010
0100
0010
0100
,
0010
0100
0020
0000
0000
0000
0000
0000
,
0000
0000
0000
0000
,
0000
0000
0000
0000
0000
0000
0000
0000
0000
0000
0000
0000
0000
0030
0010
0010
,
0010
0000
0000
0000
,
0000
0000
1001
0000
0000
0000
1001
0000
0000
0000
0000
0000
0000
0000
0100
0010
,
0100
0010
0100
0000
0000
0000
0100
0010
0100
0010
0100
0000
0000
0000
0010
0100
,
0010
0100
0010
0000
0000
0000
0110
0000
0000
0000
0110
0000
0000
0000
1000
0001
,
1000
0001
1000
0000
0000
0000
1000
0001
1000
0001
1000
0000
0000
0000
0001
1000
,
0001
1000
0001
0000
0000
0000
0110
0000
0000
0000
0110
0000
0000
0000
0001
0010
,
0001
0010
0001
0000
0000
0000
0001
0010
0001
0010
0001
0000
0000
0000
0010
0001
,
0010
0001
0010
0000
0000
0000
1001
0000
0000
0000
1001
0000
0000
0000
1000
0100
,
1000
0100
1000
0000
0000
0000
1000
0100
1000
0100
1000
0000
0000
0000
0100
1000
,
0100
1000
0200
0000
0000
0000
0000
0000
0000
0000
0000
0000
0000
0000
0300
0000
,
0000
0000
0000
0000
0000
0000
0000
0000
0000
1000
0000
0000
0000
0000
0000
0000
,
0000
0100
0000
0000
0000
0000
0010
0000
0000
0010
0000
0001
0000
0000
0000
0000
,
0000
0000
0000
0000
0000
1000
0000
0100
,
0000
0010
0000
1000
0000
0001
0000
0000
0000
0000
0000
2000
0000
0000
0000
0000
,
0000
0000
0000
0000
0000
3000
0000
0010
0000
0000
0000
0100
0000
0001
0000
0000
,
1000
0000
0000
0000
0000
0000
0000
0200
0000
0000
0000
0000
0000
0000
0000
0000
,
0300
0000
1000
0010
,
0000
0000
0000
1000
0000
0000
0000
0000
0000
0000
0000
0000
0002
0000
0000
0000
,
0000
0003
0000
0000
0000
0000
0000
0000
1000
0000
0000
0000
0001
0000
0000
0000
,
1000
0001
1000
0001
,
1000
0001
1000
0001
,
1000
0001
1000
0001
,
1000
0001
1000
0000
;

//---------------dance-single - ----------------
#NOTES:
     dance-single:
     :
     Easy:
     6:
     0.240,0.340,0.112,0.122,0.000,142.000,11.000,12.000,0.000,0.000,0.000,0.240,0.340,0.112,0.122,0.000,142.000,11.000,12.000,0.000,0.000,0.000:
1000
0100
0010
0001
,
0000
0100
0010
1000
,
0001
0000
0100
0010
,
0100
0000
1000
1000
,
0100
0000
0010
0100
,
0001
0000
0100
0110
,
0100
0000
0000
0000
,
1001
0110
0000
1100
,
0010
0001
0000
0000
,
0010
1001
0000
0000
,
0000
1000
0100
0010
,
0010
0010
0001
0002
,
0003
0000
0000
1000
,
1000
0100
0010
0000
,
0000
1000
0100
0010
,
0001
0100
0010
0110
,
0010
0000
0000
1000
,
0000
0000
0000
0000
,
0001
0001
0000
0000
,
0000
0000
0000
0000
,
0100
0100
0000
0000
,
0000
0000
0000
0000
,
0000
0001
0000
0001
,
0000
0000
0000
0000
,
0000
0000
0000
0200
,
0000
0000
0300
0000
,
0000
0000
0000
0000
,
0001
0000
0000
0000
,
0000
0000
0000
0000
,
0000
0000
0010
0010
,
0000
0000
0000
0000
,
0020
0000
0000
0100
,
0130
0000
0000
0000
,
0000
2000
0000
0000
,
0000
3000
0002
0000
,
0000
0000
0000
0000
,
0003
0100
0000
0010
,
0100
0010
0000
1000
,
0001
1000
0100
0010
,
0100
2000
0000
0000
,
0000
0000
0000
0000
,
0000
3000
0000
0100
,
0010
0100
0000
0001
,
1000
0101
0000
0000
,
0000
0110
1000
0100
,
0010
1000
0100
0010
,
0000
1000
0001
0100
,
0010
1000
0001
0100
,
0000
1000
0100
0010
,
0001
0100
0010
0001
,
0000
1000
0001
0100
,
0010
1000
0001
0100
,
0010
2000
0000
0000
,
3000
0002
0000
0000
,
0003
0200
0000
0000
,
0000
0000
0000
0000
,
0000
0000
0000
0000
,
0000
0000
0000
0000
,
0000
0300
0000
0000
,
0000
1010
0000
0000
,
0000
0101
0000
0100
,
0000
0010
0000
0000
0000
0000
0000
0000
,
0000
1001
0000
0000
0000
0000
0000
0000
,
0000
0100
0000
0000
0000
1000
0000
0100
,
0000
0010
0000
0000
0000
0000
0000
0000
,
0000
1000
0000
0100
0000
0010
0000
0001
,
0000
0001
0000
0000
0000
0000
0000
0010
,
0000
0100
0000
0010
0000
0100
0000
0010
,
0000
0010
0000
0000
0000
0000
0000
0000
,
0000
1000
0100
0010
0001
0000
0000
0000
,
0000
2000
0000
0000
0000
0000
0000
3000
,
0000
0000
0000
0000
,
0000
0000
0000
0000
,
1000
0000
0000
1000
0000
0000
0000
0000
,
0000
0000
0000
0000
0000
2000
0000
0000
,
0000
0000
0000
3000
0000
0000
0000
0000
,
0000
0000
0000
0002
0000
0000
0000
0000
,
0003
0000
0000
0000
,
0000
0000
0000
0000
,
0000
0000
1000
0000
,
0000
0000
0000
0000
,
0000
0000
0000
0000
,
0000
0000
0000
0000
,
0000
0000
0001
0000
;

//---------------dance-single - ----------------
#NOTES:
     dance-single:
     :
     Medium:
     8:
     0.280,0.553,0.173,0.183,0.000,157.000,17.000,18.000,0.000,0.000,0.000,0.280,0.553,0.173,0.183,0.000,157.000,17.000,18.000,0.000,0.000,0.000:
1000
0100
0010
0001
,
0010
0010
0001
0010
,
0100
1000
0100
0010
,
0001
0001
0100
0010
,
1000
0100
0010
0001
,
0100
0010
1000
0001
,
0100
0010
0100
0001
,
1000
1001
0010
0110
,
1000
0100
0000
0100
,
0010
0001
0000
0000
,
0000
1000
1000
0100
,
0010
0001
0010
0101
,
1000
0100
0010
0001
,
0010
1000
0001
0100
,
0010
1000
0001
0100
,
0010
1000
0001
2002
,
3003
0000
0000
0010
,
0000
0000
0000
0000
,
0000
0001
0000
0000
,
0000
1000
1000
0000
,
0000
0010
0000
0010
,
0000
0000
0000
0001
,
0000
0000
0001
0000
,
0000
0000
0000
0000
,
0010
0000
0000
0000
,
0000
0000
0000
0001
,
0000
0000
0000
0000
,
0000
0000
0000
0000
,
0000
0000
0000
2002
,
3003
0000
0100
0220
,
0330
0000
0000
0000
,
2002
3003
0000
0010
,
0220
0330
0000
0000
,
0000
2000
0000
0000
,
0000
3000
0020
0000
,
0000
0000
0000
0000
,
0030
0000
0000
0000
0000
0000
0000
0100
,
0000
0100
0000
0000
,
0000
0000
0000
0000
,
0000
2000
0000
0000
,
0000
0000
0000
0000
,
0000
3000
0000
0100
,
0000
0010
0000
0000
,
0000
1000
0000
0100
,
0000
1000
1000
0100
,
0100
0000
0010
0010
,
0000
0001
0000
0000
,
0100
0000
0010
0010
,
0000
0000
0000
0000
0000
0000
1000
0100
,
1000
0000
0000
0011
0000
0001
0000
0100
,
0010
0100
0000
1001
0000
1000
0000
0110
,
0010
0000
0100
0001
0100
0000
0000
1010
,
0100
0000
0100
0010
1000
0000
0100
0010
,
0100
0000
1000
0001
0000
0100
0000
0110
,
0100
2000
0000
0000
,
0000
0000
0000
0000
,
0000
0000
0000
0000
,
0000
0000
0000
0000
,
0000
0000
0000
0000
,
0000
0000
0000
0000
,
0000
0000
0000
0000
,
3000
0000
0000
0000
,
0000
0110
0000
0000
0000
1001
0000
0000
,
0000
0000
1000
0000
0100
0010
0000
0000
,
0001
0001
0000
0000
,
0000
1000
0000
0100
0000
0010
0000
0001
,
0000
0001
0000
0000
0000
0000
0000
0100
,
0000
0010
0000
1000
0000
0001
0000
0100
,
0000
0110
0000
0000
0000
1000
0000
0000
,
0000
0100
0000
0010
0000
0100
0000
0001
,
0000
2002
0000
0000
0000
0000
0000
0000
,
3003
0000
0000
0000
,
0000
0000
0000
0000
,
0100
0000
0000
0200
0000
0000
0300
0000
,
0000
0000
0000
0000
0000
0020
0000
0000
,
0000
0030
0000
0000
,
0000
1000
0000
0000
,
0000
0000
0000
0000
,
0000
0000
0000
0000
,
0000
0000
1000
0000
,
0000
0000
0001
0000
,
0000
0000
1000
0000
,
0000
0000
0000
0001
,
0000
0000
1000
0000
;

//---------------dance-single - Copied from----------------
#NOTES:
     dance-single:
     Copied from:
     Beginner:
     4:
     0.153,0.255,0.010,0.071,0.000,97.000,1.000,7.000,0.000,0.000,0.000,0.153,0.255,0.010,0.071,0.000,97.000,1.000,7.000,0.000,0.000,0.000:
0000
1000
1000
1000
,
0000
0000
1000
1000
,
1000
0000
0000
0000
,
0001
0001
0001
0000
,
0000
0000
0010
0010
,
0010
0000
0000
0000
,
0100
0100
0100
0000
,
0000
1000
0000
0001
,
0000
0000
0000
0100
,
0000
0020
0000
0030
,
0000
0000
0000
1000
,
0000
0001
0000
0200
,
0000
0300
0000
0010
,
0000
0010
0000
1000
,
0000
0001
0000
1000
,
0000
0001
0000
0100
,
0000
0000
0000
1000
,
0000
0000
0000
0000
,
0000
0001
0000
0000
,
0000
0000
0000
0000
,
1000
0000
0000
0000
,
0000
0000
0000
0000
,
0000
0000
0000
0000
0000
0010
0000
0000
,
0000
0000
0000
0000
,
0000
0000
0000
0000
0000
2000
0000
0000
,
0000
0000
3000
0000
,
0000
0000
0000
0100
,
0000
0000
0000
0000
,
0001
0000
0000
0100
,
0000
0000
0000
0001
,
0000
0000
0010
0000
,
0100
0000
0000
0000
,
1000
0000
0000
0000
,
0000
2000
0000
0000
,
0000
3000
0100
0000
,
0000
0000
0000
0000
,
0000
0001
0000
0100
,
0000
0000
0000
0010
0000
0000
0000
0000
,
0000
0001
0000
0001
,
0000
1000
0000
0000
,
0000
0000
0000
0000
,
0000
0000
0100
0000
0000
0000
0000
0010
,
0000
0000
0000
0001
0000
0000
0000
0010
,
0000
0000
0000
1000
0000
0000
0000
0100
,
0000
0000
0000
1000
0000
0000
0000
0000
,
0000
0100
0000
0000
,
0000
0010
0000
0000
,
0000
0001
0000
0000
,
0000
1000
0000
0000
,
0000
0010
0000
0000
,
0000
1000
1000
1000
,
0000
0001
0001
0001
,
0000
2000
0000
0000
,
3000
0000
0000
0002
0000
0000
0000
0000
,
0003
2000
0000
0000
,
0000
0000
0000
0000
,
0000
0000
0000
0000
,
0000
0000
0000
0000
,
0000
3000
0000
0000
,
0000
0001
0000
0001
,
0000
0000
0000
0001
0000
0000
0000
1000
,
0000
0000
0000
0000
,
0000
0000
0100
0000
0000
0000
0000
0010
,
0000
0010
0000
0000
0000
1000
0000
1000
,
0000
1000
0000
0000
0000
0000
0000
0000
,
0000
0010
0000
0000
0000
0000
0000
1000
,
0000
1000
0000
0000
0000
0000
0000
0001
,
0000
0100
0000
0000
0000
0000
0000
0010
,
0000
0010
0000
0000
0000
0000
0000
0000
,
0000
1000
0000
0000
0000
0001
0000
0001
,
0000
0001
0000
0000
0000
0000
0000
0000
,
0000
0000
0000
0000
,
0000
0000
0000
0000
,
1000
0000
0000
0100
0000
0000
0000
0000
,
0000
0000
0000
0000
0000
0001
0000
0000
,
0000
0000
0000
0000
,
0000
0000
0000
0000
0000
0000
0000
1000
,
0000
0000
0000
0000
,
0000
0000
0000
0000
,
0000
0000
1100
0000
,
0000
0000
0000
0000
,
0000
0000
0000
0000
,
0000
0000
0000
0000
,
0000
0000
0001
0000
;
