#TITLE:Bad Maniacs;
#SUBTITLE:-From IIDX SIRIUS-;
#ARTIST:kors k as teranoid;
#TITLETRANSLIT:;
#SUBTITLETRANSLIT:;
#ARTISTTRANSLIT:;
#GENRE:;
#CREDIT:;
#BANNER:Bad Maniacs (From IIDX SIRIUS).png;
#BACKGROUND:Bad Maniacs (From IIDX SIRIUS)-bg.png;
#LYRICSPATH:;
#CDTITLE:;
#MUSIC:Bad Maniacs (From IIDX SIRIUS).mp3;
#MENUCOLOR:1,0,0,1;
#METERTYPE:DDR X;
#OFFSET:-0.061;
#SAMPLESTART:16.340;
#SAMPLELENGTH:12.000;
#SELECTABLE:YES;
#BPMS:0.000=195.001,247.500=3120.009,255.500=195.004,320.000=780.003,480.000=390.002;
#STOPS:109.000=0.154
,109.250=0.154
,109.500=0.154
,109.750=0.154
,110.000=0.154
,110.250=0.154
,110.500=0.154
,110.750=0.154
,141.000=0.923
,206.500=4.462
,211.750=1.077
,216.000=1.077
;
#BGCHANGES:;
#KEYSOUNDS:;

//---------------dance-single - Copied from----------------
#NOTES:
     dance-single:
     Copied from:
     Challenge:
     16:
     0.747,0.199,0.432,0.050,0.764:
0000
0010
0100
0000
,
0000
0000
0001
0000
0000
1000
0000
0000
,
0000
0000
0010
0010
,
0000
0000
0000
1000
,
1000
0000
0000
0000
0000
0001
0000
0001
,
0000
0000
0000
0100
0000
0000
0000
0100
,
0000
0000
0000
0010
0000
0000
0001
0000
,
0000
0001
0000
0000
0000
0000
0100
0000
,
0000
0000
0000
0000
0000
0010
0000
0000
,
0000
0002
0000
0000
0000
0000
0000
0000
,
1003
0000
0000
0000
,
0000
0100
0000
0000
,
0000
0000
0000
0000
0000
0010
0000
0000
,
0000
0000
1001
0000
0100
0000
1000
0010
,
0001
0100
0001
0000
1010
0000
0110
0000
,
0101
0000
0101
0000
0110
0000
1000
0100
,
0010
0100
0001
0000
0100
0010
0100
0010
,
0100
0000
1001
0000
0000
0000
1000
0100
,
0010
0100
0001
0001
0010
0100
0001
0100
,
1000
0100
0001
0010
0001
0000
0000
0110
,
1000
0000
0001
0100
1100
0010
0000
0101
,
0010
0100
0001
1000
0100
0000
0100
1000
,
0100
0010
0001
0100
0010
1000
0001
0100
,
0010
1000
0101
0000
0000
1000
0100
0001
,
1000
0001
0100
0000
1001
0000
0101
0000
,
1100
1010
0011
0110
,
0110
0110
1010
1100
,
1100
0000
0000
0000
1000
0100
0010
0001
0010
0100
1000
0100
0010
0000
0000
0000
,
0000
1000
0000
0001
0000
0100
0010
0100
0010
0000
0000
0100
0010
0100
0010
0000
,
0000
0100
0000
0100
0000
0100
0000
0100
0000
0100
0000
0000
0000
0100
0000
0000
,
0000
0100
0000
0000
0100
0010
0100
0010
0100
0000
0000
0010
0100
0010
0100
0010
,
0000
0010
0000
0000
0000
0010
0000
0000
0000
1000
0000
0000
0000
0100
0000
0000
,
0000
0000
0000
0000
0000
0100
0010
0100
0010
0000
0000
0000
0100
0010
0100
0010
,
0000
0100
0000
0100
0000
0100
0000
0010
0000
0100
0000
0000
0000
0010
0000
0000
,
0000
0100
0000
0000
0100
0010
0100
0010
0100
0000
0000
0000
0100
0010
0100
0010
,
0100
0100
0100
0000
0000
0100
0010
0000
,
1001
0110
1001
0100
,
0011
0000
0000
0000
0000
1000
0100
0000
,
0010
0010
0001
0001
0010
0010
0001
0010
,
0001
0010
0100
0100
0000
1000
0100
0000
,
0010
0001
0001
0001
,
0010
0000
0100
0000
0000
1000
0100
0000
,
1000
0000
0100
0000
0000
0000
1000
0000
0000
1000
0100
1000
0100
0000
0000
0000
,
1000
0000
0100
0000
1000
0100
0010
0000
,
0101
0110
1001
0110
,
0011
0000
0100
0000
0100
1000
0100
0000
,
1000
1000
0100
0100
0010
0010
0001
0010
,
0001
0010
0001
0010
0001
0000
0100
0000
,
1000
1100
1100
0100
,
0110
0000
1001
0000
1000
0100
0000
0000
,
1000
0100
0010
0001
0010
0100
1000
0100
,
0010
0010
0010
0010
0020
0000
0000
1030
,
0000
0000
0000
0000
0000
0000
0000
0000
0000
0000
0000
0100
0010
0100
0020
0000
,
1030
0000
0000
0000
0000
0000
0000
0000
0000
0000
1000
0100
1000
0100
2000
0000
,
0000
0000
3001
0100
0001
0100
0001
0100
0001
0100
0001
0100
0001
0100
0001
0100
,
0001
0000
0001
0100
0001
0100
0001
0100
0001
0100
0001
0100
0001
0100
0001
0100
,
0001
0000
0001
0100
0001
0100
0001
0100
0001
0100
0001
0100
0001
0100
0001
0100
,
0001
0000
0001
0100
0001
0100
0001
0100
0001
0100
0001
0100
0001
0100
0001
0100
,
0001
0000
0001
0100
0001
0100
0001
0100
0000
0000
0000
1000
0010
1000
0010
1000
,
0000
0000
0000
0100
0010
0100
0010
0100
0010
0000
0000
0100
0001
0100
0001
0100
,
0001
0000
0000
0000
0000
0000
0000
0000
0000
1000
0000
0000
0000
0000
0000
0010
0000
0000
0000
0000
0000
1000
0000
0000
0000
0000
0000
0010
0000
0000
0000
0000
0100
0000
0000
0000
0010
0000
0000
0000
0100
0000
0000
0000
0010
0000
0000
0000
,
0100
0000
0010
0000
0100
0000
0000
0000
0000
0000
0100
0000
0000
0000
0000
0000
0100
0000
0000
0000
0000
2002
0000
0000
,
0000
0000
0000
0000
,
0000
0000
0000
0000
0000
0000
0000
3003
,
0000
0000
0110
0000
0000
0000
0000
0000
0000
0000
0000
0000
1000
0010
0100
0010
,
0001
0010
0100
0001
0010
0100
1000
0100
0001
0010
0100
0001
0100
1000
0000
0000
,
0110
0000
0000
0000
1001
0000
0000
0000
0110
0000
0010
1000
0010
1000
0010
1000
,
0010
1000
0010
1000
0010
1000
0010
1000
0010
1000
0010
1000
0010
1000
0010
1000
,
0010
0000
0000
0000
1001
0000
0000
0000
0110
0000
0000
0000
0010
1000
0001
1000
,
0100
0010
1000
0001
0100
1000
0001
0010
1000
0010
0001
1000
0100
0010
0001
0010
,
0100
0000
0000
0000
1001
0000
0000
0000
0110
0000
0000
0100
0010
0100
0010
0100
,
0010
0100
0010
0100
0010
0100
0010
0100
0010
0100
0010
0100
0010
0100
0010
0100
,
0010
0100
0000
0000
0110
0000
0000
0000
1001
0000
0000
0000
0001
0010
1000
0010
,
0100
0010
1000
0100
0010
0001
0010
0100
1000
0010
0100
0001
1000
0100
0010
0100
,
0010
0100
0001
0000
0011
0000
0000
0000
1100
0000
1000
0001
1000
0001
1000
0001
,
1000
0001
1000
0001
1000
0001
1000
0001
1000
0001
1000
0001
1000
0001
1000
0001
,
1000
0000
0000
0000
0110
0000
0000
0000
0011
0000
1000
0010
1000
0010
1000
0010
,
1000
0010
1000
0010
1000
0010
1000
0010
1000
0010
1000
0010
1000
0010
1000
0010
,
1000
0000
0000
0000
0110
0000
0000
0000
1100
0000
0001
0100
0001
0100
0001
0100
,
0001
0100
0001
0100
0001
0100
0001
0100
0001
0100
0001
0100
0001
0100
0001
0100
,
0001
0000
0000
0000
,
0000
0000
0000
0000
,
0000
0000
0000
0000
,
0000
0000
0000
0000
,
0000
0000
0000
0000
,
0000
0000
0000
0000
,
0000
0000
0000
0000
,
0000
0000
0000
0000
,
0000
0000
0000
0000
,
0000
0000
0000
0000
,
0000
0000
0000
0000
,
0000
0000
0000
0000
,
0000
0000
0000
0000
,
0000
0000
0000
0000
,
0000
0000
0000
0000
,
0000
0000
0000
0000
,
0000
0000
0000
0000
,
0000
0000
0000
0000
,
0000
0000
0000
0000
,
0000
0000
0000
0000
,
0000
0000
0000
0000
,
0000
0000
0000
0000
,
0000
0000
0000
0000
,
0000
0000
0000
0000
,
0000
0000
0000
0000
,
0000
0000
0000
0000
,
0000
0000
0000
0000
,
0000
0000
0000
0000
,
0000
0000
0000
0000
,
0000
0000
0000
0000
,
0000
0000
0000
0000
,
0000
0000
0000
0000
,
0000
0000
0000
0000
,
0000
0000
0000
0000
,
0000
0000
0000
0000
,
0000
0000
0000
0000
,
0000
0001
1000
0001
,
1000
0001
1000
0001
,
1000
0001
1000
0001
,
1000
0001
1000
0001
,
1000
0000
0000
0000
;
